<?xml version="1.0" standalone="no"?>
<!DOCTYPE svg PUBLIC "-//W3C//DTD SVG 1.1//EN" "http://www.w3.org/Graphics/SVG/1.1/DTD/svg11.dtd" >
<svg xmlns="http://www.w3.org/2000/svg" xmlns:xlink="http://www.w3.org/1999/xlink" version="1.1">
<metadata>
Created by FontForge 20161013 at Sun Mar 19 13:47:55 2017
 By ,,,
Copyright (c)2015, HK Grotesk Latin by Alfredo Marco Pradil (ammpradil@gmail.com) and HK Grotesk Cyrillic by Stefan Peev (http://www.contextbg.net/). HK Grotesk is a trademark of Alfredo Marco Pradil.
</metadata>
<defs>
<font id="HKGrotesk-Medium" horiz-adv-x="1042" >
  <font-face 
    font-family="HK Grotesk Medium"
    font-weight="500"
    font-stretch="normal"
    units-per-em="2048"
    panose-1="0 0 6 0 0 0 0 0 0 0"
    ascent="1434"
    descent="-614"
    x-height="999"
    cap-height="1412"
    bbox="-953 -513 2674 2240"
    underline-thickness="82"
    underline-position="-410"
    unicode-range="U+0020-FB02"
  />
<missing-glyph horiz-adv-x="1134" 
d="M158 0v954h819v-954h-819zM260 102h614v750h-614v-750z" />
    <glyph glyph-name="fi" unicode="fi" horiz-adv-x="1050" 
d="M178 0v838h-151v161h152q0 93 21 168.5t66 137t123.5 95.5t185.5 34q61 0 110 -10.5t87.5 -32.5t58.5 -37t51 -43l-104 -141q-45 47 -92.5 70t-113.5 23q-113 0 -159.5 -69.5t-46.5 -194.5h530v-999h-183v838h-347v-838h-188z" />
    <glyph glyph-name="fl" unicode="fl" horiz-adv-x="1070" 
d="M881 -20q-79 0 -123.5 56t-44.5 164v1009q-61 57 -161 57q-186 0 -186 -160v-107h189v-161h-189v-838h-188v838h-151v161h152v120q0 146 103.5 230.5t272.5 84.5q180 0 341 -146v-1047q0 -53 14.5 -68.5t49.5 -15.5q26 0 58 9v-166q-68 -20 -137 -20z" />
    <glyph glyph-name="f_f_i" unicode="ffi" horiz-adv-x="1654" 
d="M178 0v838h-151v161h152v99q0 152 108.5 244t267.5 92q177 0 300 -106q54 50 135.5 78t161.5 28q166 0 334 -121l-99 -143q-90 98 -228 98q-100 0 -156 -45.5t-56 -128.5v-95h557v-999h-183v838h-374v-838h-190v838h-388v-838h-191zM369 999h390v99q0 50 6 91
q-72 86 -200 86q-95 0 -145.5 -48t-50.5 -133v-95z" />
    <glyph glyph-name="f_f_l" unicode="ffl" horiz-adv-x="1674" 
d="M1487 -20q-168 0 -168 183v1040q-20 24 -62.5 42t-101.5 18q-91 0 -146 -46t-55 -133v-85h182v-161h-182v-838h-190v838h-395v-838h-192v838h-150v161h152v106q0 155 107 242t266 87q181 0 313 -117q97 117 296 117q116 0 192 -36t150 -109v-1070q0 -35 13 -48.5
t43 -13.5q33 0 65 9v-166q-80 -20 -137 -20zM369 999h397q0 132 6 176q-77 88 -205 88q-94 0 -146 -45.5t-52 -123.5v-95z" />
    <glyph glyph-name=".notdef" horiz-adv-x="1134" 
d="M158 0v954h819v-954h-819zM260 102h614v750h-614v-750z" />
    <glyph glyph-name=".null" horiz-adv-x="0" 
 />
    <glyph glyph-name="nonmarkingreturn" horiz-adv-x="682" 
 />
    <glyph glyph-name="space" unicode=" " horiz-adv-x="518" 
 />
    <glyph glyph-name="exclam" unicode="!" horiz-adv-x="632" 
d="M243 403l-29 1031h204l-28 -1031h-147zM202 0v227h229v-227h-229z" />
    <glyph glyph-name="quotedbl" unicode="&#x22;" horiz-adv-x="931" 
d="M220 929v484h168v-484h-168zM543 929v484h168v-484h-168z" />
    <glyph glyph-name="numbersign" unicode="#" horiz-adv-x="1375" 
d="M240 0l90 427h-237v140h267l61 300h-246v143h275l95 424h154l-96 -437h288l92 437h154l-93 -427h237v-140h-266l-61 -300h245v-142h-275l-92 -425h-153l92 436h-288l-90 -436h-153zM513 567h288l60 300h-287z" />
    <glyph glyph-name="dollar" unicode="$" horiz-adv-x="1122" 
d="M485 -246v234q-162 23 -278 123.5t-142 263.5l196 48q14 -123 102 -188.5t215 -65.5q123 0 192 55.5t69 167.5q0 50 -23.5 91t-62.5 70.5t-90 55t-107.5 49.5t-113 49t-107.5 58.5t-90 73.5t-62.5 97.5t-23.5 127.5q0 145 92.5 242.5t233.5 121.5v231h151v-227
q234 -29 341 -227l-161 -100q-39 75 -105 113t-145 38q-85 0 -144.5 -50t-59.5 -129q0 -60 37.5 -106t97.5 -77.5t132.5 -61t145 -65.5t132.5 -81t97.5 -118t37.5 -167q0 -176 -115 -289.5t-291 -127.5v-230h-151z" />
    <glyph glyph-name="percent" unicode="%" horiz-adv-x="1559" 
d="M370 787q-59 0 -106 21.5t-76.5 55t-49 78t-27 86.5t-7.5 83q0 42 7.5 84t26.5 86.5t47.5 78t75 55t103.5 21.5q66 0 118 -29t83 -77t47 -104.5t16 -116.5q0 -80 -26 -151t-86.5 -121t-145.5 -50zM303 -8l771 1437h169l-771 -1437h-169zM367 921q56 0 87 57t31 133
q0 78 -31.5 133.5t-89.5 55.5q-59 0 -90 -55.5t-31 -133.5t32 -134t92 -56zM1197 -3q-59 0 -106 21.5t-76 55t-48.5 78t-27 86.5t-7.5 84t7.5 84.5t26.5 86.5t47.5 78t74.5 55.5t103 21.5q66 0 118 -29t83.5 -77t47.5 -104.5t16 -116.5q0 -81 -26.5 -152.5t-87 -121.5
t-145.5 -50zM1195 130q56 0 87 58t31 135q0 78 -31.5 134t-90.5 56q-57 0 -88.5 -56.5t-31.5 -134.5q0 -79 31.5 -135.5t92.5 -56.5z" />
    <glyph glyph-name="ampersand" unicode="&#x26;" horiz-adv-x="1379" 
d="M1297 53l-133 -117l-190 221q-179 -179 -437 -179q-188 0 -310 88.5t-122 248.5q0 78 27 145.5t79.5 123t104.5 95t127 85.5q-34 39 -58 69.5t-55 79t-48 99t-17 99.5q0 96 52.5 170.5t135 111.5t177.5 37q144 0 244 -91.5t100 -226.5q0 -62 -21 -117.5t-61 -102.5
t-83.5 -83.5t-103.5 -76.5l251 -288q46 112 54 250l182 -20q-14 -208 -110 -375zM445 1108q0 -96 141 -258q106 67 162 126.5t56 133.5q0 70 -49 117.5t-123 47.5q-76 0 -131.5 -44.5t-55.5 -122.5zM535 146q200 0 326 142l-302 351q-51 -32 -85.5 -56t-73 -57.5
t-61.5 -63.5t-38.5 -68.5t-15.5 -79.5q0 -84 70 -126t180 -42z" />
    <glyph glyph-name="quotesingle" unicode="'" horiz-adv-x="608" 
d="M220 958v484h168v-484h-168z" />
    <glyph glyph-name="parenleft" unicode="(" horiz-adv-x="566" 
d="M357 -75q-109 117 -175.5 344t-66.5 437q0 238 62 442t177 337h171q-255 -325 -255 -783q0 -233 62 -421t191 -356h-166z" />
    <glyph glyph-name="parenright" unicode=")" horiz-adv-x="566" 
d="M43 -75q128 168 190.5 357.5t62.5 420.5q0 220 -65 421t-190 361h170q115 -132 177.5 -334t62.5 -444q0 -213 -66.5 -440t-175.5 -342h-166z" />
    <glyph glyph-name="asterisk" unicode="*" horiz-adv-x="884" 
d="M324 842l-123 84l166 180l-239 36l48 138l220 -91l-30 224h152l-30 -224l220 91l47 -138l-239 -36l166 -180l-123 -84l-118 221z" />
    <glyph glyph-name="plus" unicode="+" horiz-adv-x="1259" 
d="M556 106v446h-456v147h456v444h147v-444h457v-147h-457v-446h-147z" />
    <glyph glyph-name="comma" unicode="," horiz-adv-x="627" 
d="M132 -315l139 579h235l-249 -579h-125z" />
    <glyph glyph-name="hyphen" unicode="-" horiz-adv-x="850" 
d="M152 545v147h546v-147h-546z" />
    <glyph glyph-name="period" unicode="." horiz-adv-x="655" 
d="M217 0v227h221v-227h-221z" />
    <glyph glyph-name="slash" unicode="/" horiz-adv-x="930" 
d="M-12 -430l767 1946h187l-765 -1946h-189z" />
    <glyph glyph-name="zero" unicode="0" horiz-adv-x="1170" 
d="M595 -20q-100 0 -184 32t-142.5 88.5t-102.5 127.5t-69.5 154t-37.5 163.5t-12 161.5q0 98 16 195t56 195t99 172t153 120.5t210 46.5q107 0 197.5 -41.5t154 -112t108 -164.5t65.5 -199t21 -215q0 -109 -20.5 -212.5t-64 -196.5t-105 -163t-150 -111t-192.5 -41z
M589 169q86 0 152 51t102.5 133.5t54.5 173t18 182.5q0 95 -18.5 184.5t-56 170t-105 129.5t-155.5 49q-71 0 -129 -33t-95.5 -86.5t-63 -124.5t-36 -143.5t-10.5 -147.5q0 -95 18.5 -185t56.5 -172t107 -131.5t160 -49.5z" />
    <glyph glyph-name="one" unicode="1" horiz-adv-x="1170" 
d="M569 0v1060h-375v157h223q78 0 121 44t43 119v33h189v-1413h-201z" />
    <glyph glyph-name="two" unicode="2" horiz-adv-x="1170" 
d="M65 0v169q306 198 496 388q121 125 184.5 233t63.5 222q0 110 -59 174t-164 64q-87 0 -147 -45t-87.5 -115.5t-32.5 -163.5l-199 16q0 214 126 352t336 138q193 0 313.5 -114.5t120.5 -295.5q0 -152 -86.5 -295.5t-243.5 -298.5q-152 -150 -310 -249h709v-179h-1020z" />
    <glyph glyph-name="three" unicode="3" horiz-adv-x="1170" 
d="M566 -20q-140 0 -251 47.5t-180 149t-69 244.5l190 15q0 -127 89 -200t222 -73q127 0 216.5 67.5t89.5 190.5q0 115 -77 178.5t-201 63.5h-130v173h130q95 0 147.5 53.5t52.5 144.5q0 101 -66.5 158t-165.5 57q-104 0 -172 -61.5t-69 -164.5l-188 17q0 121 58.5 212
t154.5 136.5t214 45.5q115 0 211 -43.5t155.5 -130.5t59.5 -201q0 -90 -38 -167.5t-107 -126.5q109 -48 163.5 -141t57.5 -213q0 -105 -39.5 -188.5t-108.5 -135.5t-158 -79.5t-191 -27.5z" />
    <glyph glyph-name="four" unicode="4" horiz-adv-x="1170" 
d="M680 0v358h-653v117l677 938h175v-875h225v-180h-225v-358h-199zM279 538h401v565z" />
    <glyph glyph-name="five" unicode="5" horiz-adv-x="1170" 
d="M580 -20q-181 0 -313.5 117t-170.5 293l185 56q11 -55 31.5 -102.5t54.5 -91.5t88 -69t123 -25q67 0 122.5 27t91 72t55 100.5t19.5 114.5q0 124 -74.5 211t-206.5 87q-80 0 -151.5 -38.5t-113.5 -106.5l-180 61l130 727h740v-183h-581l-65 -366q104 82 249 82
q196 0 328 -139.5t132 -335.5q0 -131 -64.5 -243.5t-178.5 -180t-250 -67.5z" />
    <glyph glyph-name="six" unicode="6" horiz-adv-x="1170" 
d="M589 -20q-100 0 -191 37.5t-156 101.5t-103.5 152.5t-38.5 185.5q0 137 72 248l417 708h229l-309 -497q47 7 81 7q134 0 245.5 -58.5t177.5 -164.5t66 -237q0 -128 -62 -238t-175.5 -177.5t-252.5 -67.5zM590 167q121 0 207 86.5t86 207.5t-86 207.5t-207 86.5t-207 -86
t-86 -208q0 -121 86 -207.5t207 -86.5z" />
    <glyph glyph-name="seven" unicode="7" horiz-adv-x="1170" 
d="M235 0l600 1231h-736v182h977v-102l-617 -1311h-224z" />
    <glyph glyph-name="eight" unicode="8" horiz-adv-x="1170" 
d="M585 -20q-100 0 -188.5 26.5t-158 77t-110 131.5t-40.5 182q0 124 60 218t169 148q-76 51 -116.5 128.5t-40.5 168.5q0 115 60 201.5t155.5 129.5t210.5 43q114 0 209.5 -43t155.5 -129.5t60 -200.5q0 -93 -40.5 -170t-114.5 -128q109 -54 167.5 -148.5t58.5 -216.5
q0 -102 -40.5 -183.5t-110 -132t-158 -76.5t-188.5 -26zM590 833q100 0 164.5 57.5t64.5 156.5q0 102 -65.5 159.5t-164.5 57.5q-95 0 -162.5 -55t-67.5 -153q0 -101 63.5 -162t167.5 -61zM584 150q126 0 211.5 67.5t85.5 191.5q0 122 -84.5 191t-212.5 69
q-129 0 -213.5 -69t-84.5 -190q0 -125 86.5 -192.5t211.5 -67.5z" />
    <glyph glyph-name="nine" unicode="9" horiz-adv-x="1170" 
d="M355 0l306 497q-46 -7 -81 -7q-204 0 -346.5 131.5t-142.5 328.5q0 95 37 183.5t101 154.5t156 106t197 40q203 0 345.5 -140t142.5 -338q0 -136 -70 -247l-419 -709h-226zM580 658q122 0 208 86t86 208t-86 208.5t-208 86.5q-121 0 -206.5 -86.5t-85.5 -208.5t85.5 -208
t206.5 -86z" />
    <glyph glyph-name="colon" unicode=":" horiz-adv-x="673" 
d="M222 728v226h229v-226h-229zM222 0v227h229v-227h-229z" />
    <glyph glyph-name="semicolon" unicode=";" horiz-adv-x="656" 
d="M228 728v226h229v-226h-229zM118 -315l139 579h235l-249 -579h-125z" />
    <glyph glyph-name="less" unicode="&#x3c;" horiz-adv-x="1223" 
d="M1014 161l-938 513l938 512l85 -146l-706 -366l706 -367z" />
    <glyph glyph-name="equal" unicode="=" horiz-adv-x="1265" 
d="M237 764v169h792v-169h-792zM237 410v170h792v-170h-792z" />
    <glyph glyph-name="greater" unicode="&#x3e;" horiz-adv-x="1223" 
d="M209 161l-85 146l706 367l-706 366l85 146l939 -512z" />
    <glyph glyph-name="question" unicode="?" horiz-adv-x="1010" 
d="M412 399v189q0 63 18.5 109.5t48 73.5t65 48.5t71 41t65 43t48 62t18.5 91.5q0 105 -68 158t-182 53q-115 0 -181 -62.5t-67 -176.5h-178q1 187 118 296t300 109q119 0 216 -42.5t157.5 -130.5t60.5 -208q0 -71 -19 -127t-48.5 -90t-66 -60.5t-73 -46t-66 -38.5
t-48.5 -45t-19 -60v-187h-170zM386 0v227h229v-227h-229z" />
    <glyph glyph-name="at" unicode="@" horiz-adv-x="2042" 
d="M1013 -348q-182 0 -343 60.5t-282 169.5t-191.5 274t-70.5 362q0 191 66 359t182.5 290.5t287 193.5t369.5 71q159 0 299.5 -45t247.5 -126t184.5 -190t117.5 -241.5t40 -276.5q0 -94 -17 -182t-53.5 -167.5t-89 -138.5t-128.5 -94t-167 -35q-132 0 -204 68.5t-69 187.5
q-60 -66 -140.5 -101.5t-165.5 -35.5q-80 0 -143 31.5t-101.5 85.5t-59 123t-20.5 148q0 80 20 164.5t61 163.5t96.5 141t132.5 99.5t163 37.5q96 0 166.5 -45t98.5 -119l23 115h172q-13 -69 -54 -234t-68 -302.5t-27 -223.5q0 -72 24.5 -100.5t87.5 -28.5q80 0 140 40.5
t93 108t48.5 142t15.5 154.5q0 147 -51 277t-143 227t-228.5 153.5t-299.5 56.5q-166 0 -305.5 -58.5t-234.5 -159t-148 -237.5t-53 -293q0 -131 37.5 -244t104 -195.5t157.5 -141.5t198.5 -88.5t225.5 -29.5q121 0 246 39l59 -158q-145 -52 -307 -52zM903 225q65 0 121 28
t95.5 74t67.5 104.5t41.5 119.5t13.5 119q0 208 -180 208q-80 0 -147 -42t-108 -108t-63.5 -142t-22.5 -149q0 -101 45 -156.5t137 -55.5z" />
    <glyph glyph-name="A" unicode="A" horiz-adv-x="1323" 
d="M39 0l547 1413h154l544 -1413h-219l-108 307h-587l-109 -307h-222zM438 486h450l-224 628z" />
    <glyph glyph-name="B" unicode="B" horiz-adv-x="1257" 
d="M198 0v1413h437q87 0 164.5 -20t144 -61t105.5 -114t39 -169q0 -103 -47.5 -179t-123.5 -119q107 -45 173.5 -140t66.5 -219q0 -98 -38 -175t-103 -123.5t-144.5 -70t-168.5 -23.5h-505zM400 816h247q69 0 121.5 19.5t87.5 69.5t35 126q0 105 -69.5 152t-183.5 47h-238
v-414zM400 191h307q114 0 182 52t68 167q0 112 -70.5 170t-182.5 58h-304v-447z" />
    <glyph glyph-name="C" unicode="C" horiz-adv-x="1425" 
d="M760 -20q-131 0 -239 38t-184.5 105t-129 159t-77.5 199.5t-25 226.5t24.5 225.5t77 199t129 159.5t186.5 105.5t244 38.5q206 0 358.5 -98.5t230.5 -291.5l-188 -78q-21 75 -61.5 129.5t-95.5 86t-116.5 46t-132.5 14.5q-117 0 -206.5 -42t-142.5 -116.5t-79.5 -168
t-26.5 -203.5q0 -91 16 -170.5t52 -148.5t88.5 -118.5t130 -77.5t172.5 -28q298 0 405 279l187 -79q-82 -189 -236 -290t-361 -101z" />
    <glyph glyph-name="D" unicode="D" horiz-adv-x="1407" 
d="M198 0v1413h383q352 0 537.5 -185t185.5 -532q0 -333 -188.5 -514.5t-536.5 -181.5h-381zM401 186h154q123 0 221 29.5t172 91t113.5 163t39.5 237.5q0 265 -127 393t-397 128h-176v-1042z" />
    <glyph glyph-name="E" unicode="E" horiz-adv-x="1242" 
d="M198 0v1413h927v-182h-724v-434h649v-180h-649v-428h724v-189h-927z" />
    <glyph glyph-name="F" unicode="F" horiz-adv-x="1214" 
d="M198 0v1413h951v-182h-748v-434h660v-180h-660v-617h-203z" />
    <glyph glyph-name="G" unicode="G" horiz-adv-x="1521" 
d="M762 -20q-163 0 -291 58t-206.5 159.5t-119 230.5t-40.5 279q0 119 25 226t77.5 199t128.5 159.5t184.5 106t239.5 38.5q205 0 358 -100t236 -290l-182 -78q-56 141 -163 213t-251 72q-115 0 -204 -43.5t-142 -119t-79.5 -170t-26.5 -203.5q0 -116 26.5 -213.5t80 -174.5
t143 -120.5t206.5 -43.5q172 0 291.5 110.5t131.5 300.5h-323v162h517v-738h-164l-11 230q-52 -110 -169 -180t-273 -70z" />
    <glyph glyph-name="H" unicode="H" horiz-adv-x="1472" 
d="M198 0v1413h203v-616h669v616h204v-1413h-204v617h-669v-617h-203z" />
    <glyph glyph-name="I" unicode="I" horiz-adv-x="599" 
d="M198 0v1413h203v-1413h-203z" />
    <glyph glyph-name="J" unicode="J" horiz-adv-x="1128" 
d="M503 -20q-197 0 -317 124.5t-134 312.5l200 24q8 -119 70.5 -197.5t180.5 -78.5q76 0 126.5 23.5t77 70t36.5 102.5t10 134v736h-533v182h736v-907q0 -119 -25 -213t-78 -165t-141.5 -109.5t-208.5 -38.5z" />
    <glyph glyph-name="K" unicode="K" horiz-adv-x="1470" 
d="M198 0v1413h203v-786l738 786h268l-549 -567l571 -846h-249l-461 708l-318 -329v-379h-203z" />
    <glyph glyph-name="L" unicode="L" horiz-adv-x="1049" 
d="M198 0v1413h203v-1224h605v-189h-808z" />
    <glyph glyph-name="M" unicode="M" horiz-adv-x="1779" 
d="M198 0v1413h298l392 -1074l395 1074h298v-1413h-198v1173l-390 -1050h-207l-390 1050v-1173h-198z" />
    <glyph glyph-name="N" unicode="N" horiz-adv-x="1435" 
d="M198 0v1413h240l601 -1125v1125h198v-1413h-243l-598 1127v-1127h-198z" />
    <glyph glyph-name="O" unicode="O" horiz-adv-x="1521" 
d="M760 -20q-131 0 -239.5 38.5t-185 105.5t-129 159t-77.5 199t-25 225t25 224.5t77.5 199t129 159.5t185 105.5t239.5 38.5t240 -38.5t185.5 -105.5t129 -159.5t77.5 -199t25 -224.5t-25 -225t-77.5 -199t-129 -159t-185.5 -105.5t-240 -38.5zM760 163q117 0 206 44
t141 121.5t77.5 172.5t25.5 206q0 88 -15.5 166t-50 148t-86 120t-128 79.5t-170.5 29.5t-170 -29.5t-127.5 -79.5t-85.5 -120t-49.5 -148t-15.5 -166q0 -111 25.5 -206t77 -172.5t140 -121.5t205.5 -44z" />
    <glyph glyph-name="P" unicode="P" horiz-adv-x="1157" 
d="M198 0v1413h418q214 0 344 -107.5t130 -295.5t-129.5 -292t-344.5 -104h-216v-614h-202zM400 800h216q273 0 273 210q0 104 -69.5 160.5t-203.5 56.5h-216v-427z" />
    <glyph glyph-name="Q" unicode="Q" horiz-adv-x="1558" 
d="M1340 -107l-197 201q-152 -114 -383 -114q-131 0 -239.5 38.5t-185 105.5t-129 159t-77.5 199t-25 225t25 224.5t77.5 199t129 159.5t185 105.5t239.5 38.5t240 -38.5t185.5 -106t129 -159.5t77.5 -199t25 -226q0 -143 -37.5 -271.5t-110.5 -222.5l199 -195zM760 169
q142 0 240 62l-196 191l126 122l195 -190q89 144 89 353q0 110 -26 204.5t-79 170.5t-142.5 119t-206.5 43q-94 0 -170.5 -28.5t-128.5 -78t-87 -118.5t-51 -146.5t-16 -165.5q0 -111 26 -205.5t78.5 -170t142 -119t206.5 -43.5z" />
    <glyph glyph-name="R" unicode="R" horiz-adv-x="1242" 
d="M198 -2v1414h429q199 0 332 -109.5t133 -293.5q0 -136 -79.5 -234t-210.5 -133l388 -644h-235l-351 621h-203v-621h-203zM403 794h248q110 5 175 61t65 152q0 104 -71.5 164t-190.5 60h-226v-437z" />
    <glyph glyph-name="S" unicode="S" horiz-adv-x="1123" 
d="M578 -16q-123 0 -230 42.5t-184.5 134t-98.5 218.5l197 53q14 -131 102.5 -199t215.5 -68q122 0 192 57.5t70 160.5q0 53 -23.5 95.5t-63 72.5t-90.5 56t-108 49t-113.5 48t-107.5 57.5t-90.5 72.5t-63 98t-23.5 129q0 169 118.5 271t291.5 102q131 0 237 -58t173 -175
l-162 -103q-40 76 -106.5 116.5t-146.5 40.5q-85 0 -144.5 -50t-59.5 -131q0 -47 23.5 -85t63 -65.5t90.5 -51.5t107.5 -47.5t113 -49.5t107.5 -60.5t90.5 -76.5t63 -103t23.5 -135q0 -188 -132 -302t-332 -114z" />
    <glyph glyph-name="T" unicode="T" horiz-adv-x="1208" 
d="M502 0v1237h-461v176h1126v-176h-461v-1237h-204z" />
    <glyph glyph-name="U" unicode="U" horiz-adv-x="1366" 
d="M682 -20q-133 0 -233.5 42t-161 118t-90 174.5t-29.5 219.5v879h203v-842q0 -93 15 -162t49 -123.5t96 -82.5t151 -28t151 28t97 82.5t50 123.5t15 162v842h204v-869q0 -124 -30 -225t-91.5 -178t-162 -119t-233.5 -42z" />
    <glyph glyph-name="V" unicode="V" horiz-adv-x="1333" 
d="M587 0l-548 1413h220l410 -1108l408 1108h217l-545 -1413h-162z" />
    <glyph glyph-name="W" unicode="W" horiz-adv-x="1987" 
d="M461 0l-410 1413h210l319 -1135l334 1053h160l334 -1053l318 1135h211l-410 -1413h-208l-324 1007l-327 -1007h-207z" />
    <glyph glyph-name="X" unicode="X" horiz-adv-x="1299" 
d="M50 0l470 707l-468 706h242l356 -566l357 566h240l-466 -706l468 -707h-240l-361 557l-356 -557h-242z" />
    <glyph glyph-name="Y" unicode="Y" horiz-adv-x="1317" 
d="M556 0v552l-529 861h242l388 -661l390 661h243l-527 -861v-552h-207z" />
    <glyph glyph-name="Z" unicode="Z" horiz-adv-x="1273" 
d="M74 0v148l845 1083h-800v182h1067v-155l-841 -1074h841v-184h-1112z" />
    <glyph glyph-name="bracketleft" unicode="[" horiz-adv-x="637" 
d="M191 -126v1662h395v-124h-236v-1412h236v-126h-395z" />
    <glyph glyph-name="backslash" unicode="\" horiz-adv-x="930" 
d="M755 -430l-767 1946h189l765 -1946h-187z" />
    <glyph glyph-name="bracketright" unicode="]" horiz-adv-x="637" 
d="M51 -126v126h236v1412h-236v124h395v-1662h-395z" />
    <glyph glyph-name="asciicircum" unicode="^" horiz-adv-x="978" 
d="M96 823l392 638l395 -638h-198l-197 319l-195 -319h-197z" />
    <glyph glyph-name="underscore" unicode="_" horiz-adv-x="1241" 
d="M214 -147v147h813v-147h-813z" />
    <glyph glyph-name="grave" unicode="`" horiz-adv-x="534" 
d="M317 1113l-281 300h224l221 -300h-164z" />
    <glyph glyph-name="a" unicode="a" 
d="M409 -20q-151 0 -246.5 83.5t-95.5 228.5q0 291 420 291h243q0 125 -55 196.5t-168 71.5q-162 0 -257 -146l-145 108q149 207 397 207q194 0 302 -112t108 -298v-610h-161l-10 169q-108 -189 -332 -189zM434 144q125 0 209.5 91t86.5 205h-229q-235 0 -235 -154
q0 -69 45.5 -105.5t122.5 -36.5z" />
    <glyph glyph-name="b" unicode="b" horiz-adv-x="1150" 
d="M655 -20q-195 0 -298 140v-120h-197v1413h197v-533q105 140 296 140q131 0 227 -72t142.5 -188t46.5 -260q0 -143 -46.5 -259.5t-142 -188.5t-225.5 -72zM606 153q67 0 119.5 28t84.5 76t48.5 110t16.5 133q0 96 -28 173t-90 126.5t-151 49.5q-131 0 -199 -99.5
t-68 -249.5q0 -97 27.5 -173.5t89 -125t150.5 -48.5z" />
    <glyph glyph-name="c" unicode="c" horiz-adv-x="988" 
d="M533 -20q-111 0 -200 43t-144 116t-84 165t-29 194t28.5 194t83.5 166t143.5 118t199.5 44q142 0 248 -72t161 -207l-183 -75q-22 83 -82.5 133t-143.5 50q-68 0 -119.5 -31t-81 -83t-43.5 -111.5t-14 -125.5t14 -125.5t43 -111t80.5 -81.5t120.5 -30q82 0 143 49t83 130
l172 -69q-47 -132 -151 -206t-245 -74z" />
    <glyph glyph-name="d" unicode="d" horiz-adv-x="1149" 
d="M794 1413h195v-1413h-184l-6 125q-105 -145 -303 -145q-129 0 -225 72t-143 188.5t-47 259.5t47 259.5t142.5 188.5t223.5 72q195 0 300 -140v533zM545 150q90 0 151 49t87.5 125.5t26.5 175.5q0 151 -66.5 250t-198.5 99q-89 0 -151 -49.5t-89 -126.5t-27 -173
q0 -151 67.5 -250.5t199.5 -99.5z" />
    <glyph glyph-name="e" unicode="e" horiz-adv-x="1051" 
d="M551 -17q-117 0 -210 41.5t-150.5 113.5t-87 163t-29.5 194q0 101 28.5 193t83.5 166t145 118t203 44q97 0 175 -30t127 -78.5t81.5 -114.5t45.5 -133t13 -139q0 -53 -6 -85h-691q7 -125 75.5 -202.5t196.5 -77.5q163 0 261 107l134 -113q-82 -86 -177.5 -126.5
t-217.5 -40.5zM279 583h509q-7 122 -70.5 197t-184.5 75q-116 0 -179.5 -76t-74.5 -196z" />
    <glyph glyph-name="f" unicode="f" horiz-adv-x="683" 
d="M209 0v838h-182v161h183v152q0 134 84.5 208.5t208.5 74.5q89 0 172 -40l-56 -157q-54 28 -99 28q-51 0 -82.5 -32.5t-31.5 -97.5v-136h262v-161h-262v-838h-197z" />
    <glyph glyph-name="g" unicode="g" horiz-adv-x="1036" 
d="M562 142q52 -7 84.5 -12.5t80 -16.5t76.5 -24t63 -35t52.5 -49t31.5 -65.5t13 -86.5q0 -104 -58.5 -177.5t-151 -107t-209.5 -33.5q-204 0 -326 98t-122 249q0 23 3 41l126 121q-114 66 -114 201q0 112 83 184q-84 97 -84 230q0 157 113 257t278 100q144 0 249 -78
l150 133l105 -130l-154 -122q40 -75 40 -168q0 -159 -111 -256t-275 -97q-103 0 -189 40q-37 -25 -37 -65q0 -23 8.5 -40.5t30.5 -30.5t41.5 -21.5t60 -16.5t65 -11.5t77.5 -10.5zM504 865q-90 0 -142.5 -59t-52.5 -147q0 -91 52 -146.5t143 -55.5q90 0 142 55.5t52 146.5
q0 89 -52.5 147.5t-141.5 58.5zM551 -305q101 0 167 36.5t66 102.5q0 67 -79 96q-42 14 -189 36q-9 1 -17 2q-93 14 -149 27l-85 -117q5 -80 83 -131.5t203 -51.5z" />
    <glyph glyph-name="h" unicode="h" horiz-adv-x="1145" 
d="M160 0v1413h194v-556q53 77 136 119t172 42q90 0 159.5 -34t110.5 -92.5t61.5 -129.5t20.5 -153v-609h-197v582q0 258 -197 258q-121 0 -193.5 -90.5t-72.5 -226.5v-523h-194z" />
    <glyph glyph-name="i" unicode="i" horiz-adv-x="509" 
d="M150 1205v208h209v-208h-209zM158 0v999h193v-999h-193z" />
    <glyph glyph-name="j" unicode="j" horiz-adv-x="515" 
d="M153 1209v204h212v-204h-212zM84 -438q-84 0 -161 32l45 158q60 -20 103 -20q90 0 90 116v1151h196v-1130q0 -138 -68 -222.5t-205 -84.5z" />
    <glyph glyph-name="k" unicode="k" horiz-adv-x="1081" 
d="M160 0v1413h194v-895l413 481h248l-349 -376l403 -623h-230l-299 499l-186 -206v-293h-194z" />
    <glyph glyph-name="l" unicode="l" horiz-adv-x="544" 
d="M337 -20q-98 0 -141 54t-43 166v1213h194v-1200q0 -18 15.5 -39.5t48.5 -21.5q45 0 83 8v-160q-82 -20 -157 -20z" />
    <glyph glyph-name="m" unicode="m" horiz-adv-x="1719" 
d="M158 0v999h195v-131q39 70 109.5 111t153.5 41q210 0 294 -194q52 95 134.5 144.5t185.5 49.5q91 0 161.5 -34t112.5 -93t63 -132t21 -157v-604h-197v582q0 53 -8.5 96.5t-29 83t-59 62t-92.5 22.5q-72 0 -126 -43t-80.5 -109t-26.5 -143v-551h-196v586q0 260 -186 260
q-107 0 -170.5 -93t-63.5 -219v-534h-195z" />
    <glyph glyph-name="n" unicode="n" horiz-adv-x="1139" 
d="M158 0v999h192v-147q54 80 135 123t174 43q90 0 159 -34t109 -93t60 -131t20 -156v-604h-192v582q0 112 -52 187.5t-158 75.5q-115 0 -185 -79.5t-70 -233.5v-532h-192z" />
    <glyph glyph-name="o" unicode="o" horiz-adv-x="1123" 
d="M560 -20q-144 0 -257 71.5t-173.5 190t-60.5 260.5t60.5 259.5t173.5 188t257 70.5q143 0 257 -70.5t175 -188.5t61 -259q0 -142 -61 -260.5t-175 -190t-257 -71.5zM561 144q74 0 131.5 30t91.5 81t51.5 114t17.5 133q0 71 -17 133t-51.5 112t-92 79t-131.5 29
q-98 0 -165.5 -51t-97 -128.5t-29.5 -173.5q0 -56 10.5 -108t33.5 -97.5t56.5 -79.5t83 -53.5t108.5 -19.5z" />
    <glyph glyph-name="p" unicode="p" horiz-adv-x="1149" 
d="M160 -438v1437h195v-119q50 68 126.5 104t167.5 36q132 0 228.5 -71.5t143.5 -188t47 -260.5q0 -143 -46.5 -259t-143 -188.5t-227.5 -72.5q-90 0 -167.5 35.5t-128.5 104.5v-558h-195zM604 153q132 0 200 98t68 249q0 150 -68 250t-200 100q-89 0 -151 -49.5t-89 -126.5
t-27 -174q0 -151 67.5 -249t199.5 -98z" />
    <glyph glyph-name="q" unicode="q" horiz-adv-x="1149" 
d="M794 -438v558q-107 -140 -294 -140q-132 0 -228.5 71.5t-143.5 188t-47 260.5q0 106 27.5 200t79 165.5t131.5 113t179 41.5q91 0 168.5 -36t127.5 -104v119h195v-1437h-195zM545 153q90 0 151 48.5t87.5 124.5t26.5 174q0 151 -66.5 250t-198.5 99t-199.5 -99.5
t-67.5 -249.5q0 -151 67.5 -249t199.5 -98z" />
    <glyph glyph-name="r" unicode="r" horiz-adv-x="805" 
d="M158 0v999h190v-173q35 90 113 142t169 52q104 0 171 -61l-85 -163q-49 37 -116 37q-113 0 -183.5 -95.5t-70.5 -274.5v-463h-188z" />
    <glyph glyph-name="s" unicode="s" horiz-adv-x="888" 
d="M446 -20q-144 0 -251 75.5t-144 187.5l158 74q61 -177 232 -177q83 0 131.5 40t48.5 103q0 45 -28.5 76t-74 49t-101 33.5t-110.5 36t-100.5 49t-74 79.5t-28.5 121q0 139 99 216t243 77q119 0 209.5 -55t142.5 -153l-147 -81q-70 135 -212 135q-69 0 -111 -32t-42 -82
q0 -39 29 -66.5t75 -44.5t102 -33t112 -38.5t102 -54t75 -87t29 -129.5q0 -79 -31 -141.5t-83.5 -100.5t-116.5 -57.5t-133 -19.5z" />
    <glyph glyph-name="t" unicode="t" horiz-adv-x="711" 
d="M471 -20q-136 0 -205.5 77t-69.5 213v568h-161v161h163v236l190 156v-392h253v-161h-253v-548q0 -74 33 -109t87 -35q57 0 119 31v-172q-60 -25 -156 -25z" />
    <glyph glyph-name="u" unicode="u" horiz-adv-x="1140" 
d="M483 -21q-179 0 -266.5 125t-87.5 340v555h196v-564q0 -62 8.5 -110t29 -89.5t60.5 -64t98 -22.5q113 0 190 88t77 257v505h195v-999h-195v145q-44 -72 -125 -119t-180 -47z" />
    <glyph glyph-name="v" unicode="v" horiz-adv-x="972" 
d="M405 0l-390 999h212l260 -748l262 748h208l-388 -999h-164z" />
    <glyph glyph-name="w" unicode="w" horiz-adv-x="1441" 
d="M324 -2l-293 1001h206l189 -719l210 719h170l210 -717l189 717h206l-293 -999h-180l-216 738l-218 -740h-180z" />
    <glyph glyph-name="x" unicode="x" horiz-adv-x="972" 
d="M29 0l340 504l-340 495h236l221 -351l222 351h234l-338 -495l338 -504h-234l-222 359l-221 -359h-236z" />
    <glyph glyph-name="y" unicode="y" horiz-adv-x="1002" 
d="M226 -430l177 445l-387 984h213l274 -759l271 759h212l-552 -1429h-208z" />
    <glyph glyph-name="z" unicode="z" horiz-adv-x="964" 
d="M890 999v-147l-573 -688h573v-164h-830v136l590 702h-561v161h801z" />
    <glyph glyph-name="braceleft" unicode="{" horiz-adv-x="608" 
d="M406 -136q-105 0 -170 92q-35 48 -35 160v364q0 22 -11 40.5t-33.5 32.5t-40 22t-46.5 19v136q68 21 99.5 54.5t31.5 93.5v426q0 116 53.5 175.5t172.5 59.5h53q43 0 64 -2v-125q-48 10 -82 10q-92 0 -92 -50v-508q0 -74 -40 -122.5t-121 -86.5q161 -62 161 -171v-363
q0 -139 118 -139q28 0 56 9v-125q-42 -2 -67 -2h-71z" />
    <glyph glyph-name="bar" unicode="|" horiz-adv-x="622" 
d="M239 -512v2046h143v-2046h-143z" />
    <glyph glyph-name="braceright" unicode="}" horiz-adv-x="608" 
d="M131 -136q-25 0 -67 2v125q30 -9 56 -9q118 0 118 139v363q0 106 161 171q-83 38 -122 86t-39 123v508q0 50 -92 50q-32 0 -82 -10v125q21 2 65 2h52q119 0 172.5 -59.5t53.5 -175.5v-426q0 -60 31.5 -93.5t99.5 -54.5v-136q-29 -11 -46.5 -19t-40 -22t-33.5 -32.5
t-11 -40.5v-364q0 -114 -33 -161q-66 -91 -171 -91h-72z" />
    <glyph glyph-name="asciitilde" unicode="~" horiz-adv-x="1159" 
d="M737 379q-59 0 -112 22t-84 48t-68.5 48t-69.5 22q-46 0 -62.5 -29t-15.5 -84h-133q0 116 54.5 180.5t154.5 64.5q57 0 104 -14t77.5 -33.5t56 -39.5t52 -34t52.5 -14q49 0 66.5 30.5t17.5 98.5h141q0 -130 -59 -198t-172 -68z" />
    <glyph glyph-name="uni00A0" unicode="&#xa0;" horiz-adv-x="563" 
 />
    <glyph glyph-name="exclamdown" unicode="&#xa1;" horiz-adv-x="631" 
d="M201 773v226h229v-226h-229zM213 -435l29 1032h147l28 -1032h-204z" />
    <glyph glyph-name="cent" unicode="&#xa2;" horiz-adv-x="1126" 
d="M521 -205v187q-124 18 -211.5 95t-127.5 185t-40 236q0 127 40 235t127.5 185.5t211.5 95.5v186h142v-186q237 -34 343 -275l-180 -71q-24 89 -83.5 136t-148.5 47q-69 0 -121.5 -30.5t-82 -82t-44 -112t-14.5 -128.5q0 -69 14 -129.5t43.5 -112t82 -82t122.5 -30.5
q89 0 148.5 48t83.5 136l167 -68q-88 -246 -330 -279v-186h-142z" />
    <glyph glyph-name="sterling" unicode="&#xa3;" horiz-adv-x="1222" 
d="M151 0v160q10 6 26.5 16.5t58.5 44.5t74.5 68t59 83.5t26.5 95.5q0 31 -6 69.5t-12 61.5l-5 23h-219v166h178q-42 107 -42 237q0 176 109.5 295t301.5 119q138 0 239.5 -84t148.5 -213l-156 -58q-32 87 -92.5 137.5t-139.5 50.5q-115 0 -180 -66t-65 -183q0 -54 12 -113
t24 -90l11 -32h474v-166h-434q16 -77 16 -151q0 -58 -15.5 -110.5t-37.5 -86.5t-44 -59.5t-38 -36.5l-15 -11h769v-167h-1027z" />
    <glyph glyph-name="currency" unicode="&#xa4;" horiz-adv-x="1362" 
d="M310 149l-110 115l106 104q-86 116 -86 263t86 263l-104 101l110 116l105 -107q118 86 264.5 86.5t263.5 -84.5l104 103l111 -110l-103 -103q85 -117 85 -264.5t-85 -265.5l103 -102l-109 -115l-106 107q-117 -86 -264.5 -86t-265.5 86zM461 416q91 -92 217.5 -92
t217.5 92q89 90 89 215.5t-90 213.5q-91 89 -216 88.5t-216 -90.5q-86 -88 -87 -214t85 -213z" />
    <glyph glyph-name="yen" unicode="&#xa5;" horiz-adv-x="1314" 
d="M570 0v249h-299v148h299v118h-299v149h230l-474 749h206l425 -686l424 686h206l-474 -750h230v-148h-300v-118h300v-148h-300v-249h-174z" />
    <glyph glyph-name="brokenbar" unicode="&#xa6;" horiz-adv-x="630" 
d="M239 731v744h152v-744h-152zM239 -307v727h152v-727h-152z" />
    <glyph glyph-name="section" unicode="&#xa7;" horiz-adv-x="1119" 
d="M565 -18q-157 0 -273 72.5t-150 215.5l183 58q23 -99 85 -142t164 -43q93 0 153.5 33t60.5 108q0 36 -20.5 62.5t-55 42.5t-79.5 28t-94.5 22.5t-99 23t-94.5 33.5t-79.5 49.5t-55 75t-20.5 106.5q0 124 95 212q-93 72 -93 193q0 71 31 129.5t83 95.5t117 57t136 20
q130 0 229 -59.5t145 -161.5l-164 -77q-21 70 -77 105.5t-138 35.5q-86 0 -141.5 -41.5t-55.5 -107.5q0 -43 33 -71t85.5 -42.5t116.5 -27t128 -31.5t116.5 -48t85.5 -85t33 -135q0 -127 -88 -209q88 -72 88 -196q0 -78 -33.5 -137.5t-90.5 -94.5t-124 -52t-142 -17z
M691 551q97 37 97 137q0 28 -10 51.5t-32 40.5t-43.5 29.5t-57.5 23t-60 16.5t-65.5 15t-61.5 14q-49 -20 -75 -60t-26 -85q0 -27 11 -49t33 -38t45.5 -28t58.5 -22t61.5 -16.5t65.5 -15t59 -13.5z" />
    <glyph glyph-name="dieresis" unicode="&#xa8;" horiz-adv-x="837" 
d="M153 1205v208h186v-208h-186zM498 1205v208h186v-208h-186z" />
    <glyph glyph-name="copyright" unicode="&#xa9;" horiz-adv-x="1745" 
d="M873 -50q-157 0 -299.5 60t-245.5 161.5t-163.5 241.5t-60.5 294t60.5 294t163.5 241t245.5 161t299.5 60q209 0 385.5 -101.5t279.5 -275.5t103 -379q0 -206 -103 -380t-279.5 -275.5t-385.5 -101.5zM873 102q123 0 237 49t197 130.5t132.5 193t49.5 232.5
q0 120 -49.5 232t-132.5 193t-197 130t-237 49t-237 -49t-197.5 -130t-133 -193t-49.5 -232q0 -121 49.5 -232.5t133 -193t197.5 -130.5t237 -49zM889 283q-90 0 -161.5 33.5t-116.5 92t-68.5 134t-23.5 162.5q0 117 40 210.5t125.5 152t204.5 58.5q228 0 329 -215l-139 -59
q-60 122 -190 122q-109 0 -165 -76.5t-56 -192.5t55 -191.5t164 -75.5q131 0 190 122l141 -60q-100 -217 -329 -217z" />
    <glyph glyph-name="ordfeminine" unicode="&#xaa;" horiz-adv-x="899" 
d="M365 709q-99 0 -168.5 59.5t-69.5 154.5q0 109 73.5 161.5t195.5 52.5h204q-3 181 -165 181q-58 0 -104 -29.5t-76 -73.5l-104 68q58 79 126 115t162 36q135 0 210 -77t75 -206v-428h-114l-5 101q-89 -115 -240 -115zM392 827q83 0 143 60t65 136h-194q-62 0 -100 -27
t-38 -73q0 -40 38.5 -68t85.5 -28z" />
    <glyph glyph-name="guillemotleft" unicode="&#xab;" horiz-adv-x="959" 
d="M438 171l-396 340l396 340v-185l-187 -155l187 -155v-185zM802 171l-398 340l398 340v-185l-188 -155l188 -155v-185z" />
    <glyph glyph-name="logicalnot" unicode="&#xac;" horiz-adv-x="1292" 
d="M872 291v333h-727v173h911v-506h-184z" />
    <glyph glyph-name="uni00AD" unicode="&#xad;" horiz-adv-x="993" 
d="M152 545v147h689v-147h-689z" />
    <glyph glyph-name="registered" unicode="&#xae;" horiz-adv-x="1745" 
d="M873 -48q-157 0 -299.5 60t-245.5 161.5t-163.5 241.5t-60.5 294t60.5 294t163.5 241t245.5 161t299.5 60q209 0 385.5 -101.5t279.5 -275.5t103 -379q0 -206 -103 -380t-279.5 -275.5t-385.5 -101.5zM873 96q125 0 240.5 49t199.5 131.5t134 196t50 236.5
q0 164 -84.5 305.5t-228.5 224.5t-311 83q-168 0 -312.5 -83t-229.5 -224.5t-85 -305.5q0 -123 50.5 -236.5t135 -196t200 -131.5t241.5 -49zM615 297v809h311q134 0 203.5 -63.5t69.5 -178.5q0 -91 -43.5 -147t-111.5 -77l201 -343h-175l-174 325h-130v-325h-151zM756 762
h170q70 0 101 24t31 78q0 55 -30 78t-102 23h-170v-203z" />
    <glyph glyph-name="macron" unicode="&#xaf;" horiz-adv-x="851" 
d="M149 1166v134h549v-134h-549z" />
    <glyph glyph-name="degree" unicode="&#xb0;" horiz-adv-x="916" 
d="M458 848q-120 0 -206.5 86t-86.5 207t86.5 207t206.5 86q121 0 206.5 -86t85.5 -207t-85.5 -207t-206.5 -86zM458 974q69 0 118 49t49 118q0 68 -49 117t-118 49q-68 0 -117 -49t-49 -117q0 -69 49 -118t117 -49z" />
    <glyph glyph-name="plusminus" unicode="&#xb1;" horiz-adv-x="1325" 
d="M589 106v446h-457v147h457v444h147v-444h457v-147h-457v-446h-147zM134 -147v147h1058v-147h-1058z" />
    <glyph glyph-name="acute" unicode="&#xb4;" horiz-adv-x="534" 
d="M50 1124l221 289h225l-291 -289h-155z" />
    <glyph glyph-name="uni00B5" unicode="&#xb5;" horiz-adv-x="1296" 
d="M238 -266v1265h190v-589q0 -259 188 -259q114 0 198 85.5t84 198.5v564h190v-999h-190v136q-44 -65 -123.5 -112t-173.5 -47q-98 0 -174 42l-20 -285h-169z" />
    <glyph glyph-name="paragraph" unicode="&#xb6;" horiz-adv-x="1299" 
d="M547 -246v869q-119 0 -221 45.5t-167 137.5t-65 212t65 212t167 137.5t221 45.5h152v-1659h-152zM907 -246v1659h153v-1659h-153z" />
    <glyph glyph-name="periodcentered" unicode="&#xb7;" horiz-adv-x="630" 
d="M314 677q-57 0 -96 39.5t-39 96.5q0 58 39 96.5t96 38.5t97 -39t40 -96q0 -56 -40 -96t-97 -40z" />
    <glyph glyph-name="cedilla" unicode="&#xb8;" horiz-adv-x="569" 
d="M260 -513q-62 0 -114 36t-74 91l116 54q6 -25 28 -43t50 -18q40 0 65 25t25 63q0 49 -47.5 83.5t-130.5 34.5h-54l109 186h131l-72 -108q91 -7 139.5 -58.5t48.5 -129.5q0 -89 -62 -152.5t-158 -63.5z" />
    <glyph glyph-name="ordmasculine" unicode="&#xba;" horiz-adv-x="942" 
d="M471 711q-153 0 -251 105t-98 257q0 151 98 256t251 105q151 0 249 -105t98 -256q0 -152 -98 -257t-249 -105zM471 837q101 0 149.5 65.5t48.5 170.5q0 104 -48.5 170t-149.5 66q-102 0 -151 -66t-49 -170q0 -105 49 -170.5t151 -65.5z" />
    <glyph glyph-name="guillemotright" unicode="&#xbb;" horiz-adv-x="960" 
d="M155 171v185l187 155l-187 155v185l397 -340zM517 171v185l188 155l-188 155v185l398 -340z" />
    <glyph glyph-name="questiondown" unicode="&#xbf;" horiz-adv-x="1007" 
d="M395 773v226h229v-226h-229zM520 -434q-119 0 -215.5 42t-156.5 129.5t-60 208.5q0 72 19 128t48.5 90.5t66 61t73 45.5t66 38t48.5 45t19 60v187h169v-189q0 -63 -18.5 -109.5t-48 -74t-65 -49t-71 -41t-65 -42.5t-48 -62t-18.5 -92q0 -104 68.5 -157.5t180.5 -53.5
q109 0 179 60t71 167h177q-1 -179 -121 -285.5t-298 -106.5z" />
    <glyph glyph-name="Agrave" unicode="&#xc0;" horiz-adv-x="1323" 
d="M593 1526l-281 300h224l221 -300h-164zM39 0l547 1413h154l544 -1413h-219l-108 307h-587l-109 -307h-222zM438 486h450l-224 628z" />
    <glyph glyph-name="Aacute" unicode="&#xc1;" horiz-adv-x="1323" 
d="M555 1537l221 289h225l-291 -289h-155zM39 0l547 1413h154l544 -1413h-219l-108 307h-587l-109 -307h-222zM438 486h450l-224 628z" />
    <glyph glyph-name="Acircumflex" unicode="&#xc2;" horiz-adv-x="1323" 
d="M338 1511l323 354l323 -354h-173l-150 167l-148 -167h-175zM39 0l547 1413h154l544 -1413h-219l-108 307h-587l-109 -307h-222zM438 486h450l-224 628z" />
    <glyph glyph-name="Atilde" unicode="&#xc3;" horiz-adv-x="1323" 
d="M785 1541q-40 0 -74.5 15.5t-57.5 37.5t-42.5 44t-40.5 37.5t-42 15.5q-68 0 -68 -137h-118q0 124 50 195.5t139 71.5q40 0 74 -15.5t57 -37.5t43 -44.5t41 -38t41 -15.5q67 0 67 145h124q0 -132 -51 -203t-142 -71zM39 0l547 1413h154l544 -1413h-219l-108 307h-587
l-109 -307h-222zM438 486h450l-224 628z" />
    <glyph glyph-name="Adieresis" unicode="&#xc4;" horiz-adv-x="1323" 
d="M395 1618v208h186v-208h-186zM740 1618v208h186v-208h-186zM39 0l547 1413h154l544 -1413h-219l-108 307h-587l-109 -307h-222zM438 486h450l-224 628z" />
    <glyph glyph-name="Aring" unicode="&#xc5;" horiz-adv-x="1323" 
d="M39 0l515 1331q-49 28 -78 78t-29 109q0 90 62.5 153t151.5 63t153.5 -63t64.5 -153q0 -59 -29.5 -108.5t-78.5 -76.5l513 -1333h-219l-108 307h-587l-109 -307h-222zM661 1418q43 0 72 29t29 72t-27.5 70t-73.5 27q-44 0 -71 -27t-27 -70q0 -44 28 -72.5t70 -28.5z
M438 486h450l-224 628z" />
    <glyph glyph-name="AE" unicode="&#xc6;" horiz-adv-x="1835" 
d="M39 0l542 1413h1149v-168h-747v-453h659v-171h-659v-446h747v-175h-939v307h-434l-110 -307h-208zM420 474h371v771h-82z" />
    <glyph glyph-name="Ccedilla" unicode="&#xc7;" horiz-adv-x="1425" 
d="M1357 371q-73 -168 -204 -267t-306 -119l-63 -94q91 -7 139.5 -58.5t48.5 -129.5q0 -89 -62 -152.5t-158 -63.5q-62 0 -114 36t-74 91l116 54q6 -25 28 -43t50 -18q40 0 65 25t25 63q0 49 -47.5 83.5t-130.5 34.5h-54l99 168q-122 6 -222.5 47.5t-171.5 108.5
t-120.5 157.5t-72.5 194.5t-23 219q0 119 24.5 225.5t77 199t129 159.5t186.5 105.5t244 38.5q206 0 358.5 -98.5t230.5 -291.5l-188 -78q-21 75 -61.5 129.5t-95.5 86t-116.5 46t-132.5 14.5q-117 0 -206.5 -42t-142.5 -116.5t-79.5 -168t-26.5 -203.5q0 -91 16 -170.5
t52 -148.5t88.5 -118.5t130 -77.5t172.5 -28q298 0 405 279z" />
    <glyph glyph-name="Egrave" unicode="&#xc8;" horiz-adv-x="1242" 
d="M576 1526l-281 300h224l221 -300h-164zM198 0v1413h927v-182h-724v-434h649v-180h-649v-428h724v-189h-927z" />
    <glyph glyph-name="Eacute" unicode="&#xc9;" horiz-adv-x="1242" 
d="M538 1537l221 289h225l-291 -289h-155zM198 0v1413h927v-182h-724v-434h649v-180h-649v-428h724v-189h-927z" />
    <glyph glyph-name="Ecircumflex" unicode="&#xca;" horiz-adv-x="1242" 
d="M321 1511l323 354l323 -354h-173l-150 167l-148 -167h-175zM198 0v1413h927v-182h-724v-434h649v-180h-649v-428h724v-189h-927z" />
    <glyph glyph-name="Edieresis" unicode="&#xcb;" horiz-adv-x="1242" 
d="M378 1618v208h186v-208h-186zM723 1618v208h186v-208h-186zM198 0v1413h927v-182h-724v-434h649v-180h-649v-428h724v-189h-927z" />
    <glyph glyph-name="Igrave" unicode="&#xcc;" horiz-adv-x="599" 
d="M230 1526l-281 300h224l221 -300h-164zM198 0v1413h203v-1413h-203z" />
    <glyph glyph-name="Iacute" unicode="&#xcd;" horiz-adv-x="599" 
d="M192 1537l221 289h225l-291 -289h-155zM198 0v1413h203v-1413h-203z" />
    <glyph glyph-name="Icircumflex" unicode="&#xce;" horiz-adv-x="599" 
d="M-25 1511l323 354l323 -354h-173l-150 167l-148 -167h-175zM198 0v1413h203v-1413h-203z" />
    <glyph glyph-name="Idieresis" unicode="&#xcf;" horiz-adv-x="599" 
d="M32 1618v208h186v-208h-186zM377 1618v208h186v-208h-186zM198 0v1413h203v-1413h-203z" />
    <glyph glyph-name="Eth" unicode="&#xd0;" horiz-adv-x="1426" 
d="M218 0v639h-113v148h113v626h381q349 0 537 -185t188 -532q0 -332 -190.5 -514t-536.5 -182h-379zM413 181h159q123 0 223 30.5t175 93t116 164.5t41 238q0 527 -532 527h-182v-447h381v-148h-381v-458z" />
    <glyph glyph-name="Ntilde" unicode="&#xd1;" horiz-adv-x="1435" 
d="M840 1541q-40 0 -74.5 15.5t-57.5 37.5t-42.5 44t-40.5 37.5t-42 15.5q-68 0 -68 -137h-118q0 124 50 195.5t139 71.5q40 0 74 -15.5t57 -37.5t43 -44.5t41 -38t41 -15.5q67 0 67 145h124q0 -132 -51 -203t-142 -71zM198 0v1413h240l601 -1125v1125h198v-1413h-243
l-598 1127v-1127h-198z" />
    <glyph glyph-name="Ograve" unicode="&#xd2;" horiz-adv-x="1521" 
d="M691 1526l-281 300h224l221 -300h-164zM760 -20q-131 0 -239.5 38.5t-185 105.5t-129 159t-77.5 199t-25 225t25 224.5t77.5 199t129 159.5t185 105.5t239.5 38.5t240 -38.5t185.5 -105.5t129 -159.5t77.5 -199t25 -224.5t-25 -225t-77.5 -199t-129 -159t-185.5 -105.5
t-240 -38.5zM760 163q117 0 206 44t141 121.5t77.5 172.5t25.5 206q0 88 -15.5 166t-50 148t-86 120t-128 79.5t-170.5 29.5t-170 -29.5t-127.5 -79.5t-85.5 -120t-49.5 -148t-15.5 -166q0 -111 25.5 -206t77 -172.5t140 -121.5t205.5 -44z" />
    <glyph glyph-name="Oacute" unicode="&#xd3;" horiz-adv-x="1521" 
d="M653 1537l221 289h225l-291 -289h-155zM760 -20q-131 0 -239.5 38.5t-185 105.5t-129 159t-77.5 199t-25 225t25 224.5t77.5 199t129 159.5t185 105.5t239.5 38.5t240 -38.5t185.5 -105.5t129 -159.5t77.5 -199t25 -224.5t-25 -225t-77.5 -199t-129 -159t-185.5 -105.5
t-240 -38.5zM760 163q117 0 206 44t141 121.5t77.5 172.5t25.5 206q0 88 -15.5 166t-50 148t-86 120t-128 79.5t-170.5 29.5t-170 -29.5t-127.5 -79.5t-85.5 -120t-49.5 -148t-15.5 -166q0 -111 25.5 -206t77 -172.5t140 -121.5t205.5 -44z" />
    <glyph glyph-name="Ocircumflex" unicode="&#xd4;" horiz-adv-x="1521" 
d="M436 1511l323 354l323 -354h-173l-150 167l-148 -167h-175zM760 -20q-131 0 -239.5 38.5t-185 105.5t-129 159t-77.5 199t-25 225t25 224.5t77.5 199t129 159.5t185 105.5t239.5 38.5t240 -38.5t185.5 -105.5t129 -159.5t77.5 -199t25 -224.5t-25 -225t-77.5 -199
t-129 -159t-185.5 -105.5t-240 -38.5zM760 163q117 0 206 44t141 121.5t77.5 172.5t25.5 206q0 88 -15.5 166t-50 148t-86 120t-128 79.5t-170.5 29.5t-170 -29.5t-127.5 -79.5t-85.5 -120t-49.5 -148t-15.5 -166q0 -111 25.5 -206t77 -172.5t140 -121.5t205.5 -44z" />
    <glyph glyph-name="Otilde" unicode="&#xd5;" horiz-adv-x="1521" 
d="M883 1541q-40 0 -74.5 15.5t-57.5 37.5t-42.5 44t-40.5 37.5t-42 15.5q-68 0 -68 -137h-118q0 124 50 195.5t139 71.5q40 0 74 -15.5t57 -37.5t43 -44.5t41 -38t41 -15.5q67 0 67 145h124q0 -132 -51 -203t-142 -71zM760 -20q-131 0 -239.5 38.5t-185 105.5t-129 159
t-77.5 199t-25 225t25 224.5t77.5 199t129 159.5t185 105.5t239.5 38.5t240 -38.5t185.5 -105.5t129 -159.5t77.5 -199t25 -224.5t-25 -225t-77.5 -199t-129 -159t-185.5 -105.5t-240 -38.5zM760 163q117 0 206 44t141 121.5t77.5 172.5t25.5 206q0 88 -15.5 166t-50 148
t-86 120t-128 79.5t-170.5 29.5t-170 -29.5t-127.5 -79.5t-85.5 -120t-49.5 -148t-15.5 -166q0 -111 25.5 -206t77 -172.5t140 -121.5t205.5 -44z" />
    <glyph glyph-name="Odieresis" unicode="&#xd6;" horiz-adv-x="1521" 
d="M493 1618v208h186v-208h-186zM838 1618v208h186v-208h-186zM760 -20q-131 0 -239.5 38.5t-185 105.5t-129 159t-77.5 199t-25 225t25 224.5t77.5 199t129 159.5t185 105.5t239.5 38.5t240 -38.5t185.5 -105.5t129 -159.5t77.5 -199t25 -224.5t-25 -225t-77.5 -199
t-129 -159t-185.5 -105.5t-240 -38.5zM760 163q117 0 206 44t141 121.5t77.5 172.5t25.5 206q0 88 -15.5 166t-50 148t-86 120t-128 79.5t-170.5 29.5t-170 -29.5t-127.5 -79.5t-85.5 -120t-49.5 -148t-15.5 -166q0 -111 25.5 -206t77 -172.5t140 -121.5t205.5 -44z" />
    <glyph glyph-name="multiply" unicode="&#xd7;" horiz-adv-x="1097" 
d="M226 198l-104 103l322 324l-314 314l104 105l315 -315l323 322l104 -103l-323 -323l314 -314l-104 -105l-314 315z" />
    <glyph glyph-name="Oslash" unicode="&#xd8;" horiz-adv-x="1521" 
d="M1180 1294q117 -98 177 -252t60 -335q0 -118 -25 -225t-77.5 -199t-129 -159t-185.5 -105.5t-240 -38.5q-174 0 -310 68l-28 -48h-154l71 121q-116 99 -175.5 252t-59.5 334q0 118 25 224.5t77.5 199t129 159.5t185 105.5t239.5 38.5q175 0 309 -67l27 46h153zM312 707
q0 -266 129 -412l532 907q-91 48 -213 48q-94 0 -170 -29.5t-127.5 -79.5t-85.5 -120t-49.5 -148t-15.5 -166zM760 163q117 0 206 44t141 121.5t77.5 172.5t25.5 206q0 268 -132 414l-532 -909q93 -49 214 -49z" />
    <glyph glyph-name="Ugrave" unicode="&#xd9;" horiz-adv-x="1366" 
d="M614 1526l-281 300h224l221 -300h-164zM682 -20q-133 0 -233.5 42t-161 118t-90 174.5t-29.5 219.5v879h203v-842q0 -93 15 -162t49 -123.5t96 -82.5t151 -28t151 28t97 82.5t50 123.5t15 162v842h204v-869q0 -124 -30 -225t-91.5 -178t-162 -119t-233.5 -42z" />
    <glyph glyph-name="Uacute" unicode="&#xda;" horiz-adv-x="1366" 
d="M576 1537l221 289h225l-291 -289h-155zM682 -20q-133 0 -233.5 42t-161 118t-90 174.5t-29.5 219.5v879h203v-842q0 -93 15 -162t49 -123.5t96 -82.5t151 -28t151 28t97 82.5t50 123.5t15 162v842h204v-869q0 -124 -30 -225t-91.5 -178t-162 -119t-233.5 -42z" />
    <glyph glyph-name="Ucircumflex" unicode="&#xdb;" horiz-adv-x="1366" 
d="M359 1511l323 354l323 -354h-173l-150 167l-148 -167h-175zM682 -20q-133 0 -233.5 42t-161 118t-90 174.5t-29.5 219.5v879h203v-842q0 -93 15 -162t49 -123.5t96 -82.5t151 -28t151 28t97 82.5t50 123.5t15 162v842h204v-869q0 -124 -30 -225t-91.5 -178t-162 -119
t-233.5 -42z" />
    <glyph glyph-name="Udieresis" unicode="&#xdc;" horiz-adv-x="1366" 
d="M416 1618v208h186v-208h-186zM761 1618v208h186v-208h-186zM682 -20q-133 0 -233.5 42t-161 118t-90 174.5t-29.5 219.5v879h203v-842q0 -93 15 -162t49 -123.5t96 -82.5t151 -28t151 28t97 82.5t50 123.5t15 162v842h204v-869q0 -124 -30 -225t-91.5 -178t-162 -119
t-233.5 -42z" />
    <glyph glyph-name="Yacute" unicode="&#xdd;" horiz-adv-x="1317" 
d="M550 1537l221 289h225l-291 -289h-155zM556 0v552l-529 861h242l388 -661l390 661h243l-527 -861v-552h-207z" />
    <glyph glyph-name="Thorn" unicode="&#xde;" horiz-adv-x="1150" 
d="M198 0v1413h193v-197h253q206 0 321.5 -106.5t115.5 -290.5q0 -194 -127.5 -298.5t-341.5 -104.5h-221v-416h-193zM391 593h221q276 0 276 221q0 109 -70.5 168t-205.5 59h-221v-448z" />
    <glyph glyph-name="germandbls" unicode="&#xdf;" horiz-adv-x="1181" 
d="M724 -18q-109 0 -236 52l72 171q85 -41 160 -41q68 0 116.5 41t48.5 101q0 43 -22.5 83t-57 69t-74 63.5t-74 67t-57 79t-22.5 99.5q0 43 16.5 77.5t41.5 55t54.5 42t54.5 40t41.5 47.5t16.5 65q0 70 -57 119.5t-158 49.5q-236 0 -236 -303v-960h-192v961
q0 120 33.5 212.5t92 148t132.5 84t161 28.5q104 0 199 -42t157.5 -124.5t62.5 -186.5q0 -60 -24 -105t-58 -70.5t-68 -46.5t-58 -45t-24 -54q0 -28 23.5 -56.5t58.5 -52.5t76 -57.5t76 -69t58.5 -90.5t23.5 -119q0 -146 -102.5 -239.5t-255.5 -93.5z" />
    <glyph glyph-name="agrave" unicode="&#xe0;" 
d="M434 1113l-281 300h224l221 -300h-164zM409 -20q-151 0 -246.5 83.5t-95.5 228.5q0 291 420 291h243q0 125 -55 196.5t-168 71.5q-162 0 -257 -146l-145 108q149 207 397 207q194 0 302 -112t108 -298v-610h-161l-10 169q-108 -189 -332 -189zM434 144q125 0 209.5 91
t86.5 205h-229q-235 0 -235 -154q0 -69 45.5 -105.5t122.5 -36.5z" />
    <glyph glyph-name="aacute" unicode="&#xe1;" 
d="M396 1124l221 289h225l-291 -289h-155zM409 -20q-151 0 -246.5 83.5t-95.5 228.5q0 291 420 291h243q0 125 -55 196.5t-168 71.5q-162 0 -257 -146l-145 108q149 207 397 207q194 0 302 -112t108 -298v-610h-161l-10 169q-108 -189 -332 -189zM434 144q125 0 209.5 91
t86.5 205h-229q-235 0 -235 -154q0 -69 45.5 -105.5t122.5 -36.5z" />
    <glyph glyph-name="acircumflex" unicode="&#xe2;" 
d="M179 1098l323 354l323 -354h-173l-150 167l-148 -167h-175zM409 -20q-151 0 -246.5 83.5t-95.5 228.5q0 291 420 291h243q0 125 -55 196.5t-168 71.5q-162 0 -257 -146l-145 108q149 207 397 207q194 0 302 -112t108 -298v-610h-161l-10 169q-108 -189 -332 -189z
M434 144q125 0 209.5 91t86.5 205h-229q-235 0 -235 -154q0 -69 45.5 -105.5t122.5 -36.5z" />
    <glyph glyph-name="atilde" unicode="&#xe3;" 
d="M626 1128q-40 0 -74.5 15.5t-57.5 37.5t-42.5 44t-40.5 37.5t-42 15.5q-68 0 -68 -137h-118q0 124 50 195.5t139 71.5q40 0 74 -15.5t57 -38t43 -44.5t41 -37.5t41 -15.5q67 0 67 145h124q0 -132 -51 -203t-142 -71zM409 -20q-151 0 -246.5 83.5t-95.5 228.5
q0 291 420 291h243q0 125 -55 196.5t-168 71.5q-162 0 -257 -146l-145 108q149 207 397 207q194 0 302 -112t108 -298v-610h-161l-10 169q-108 -189 -332 -189zM434 144q125 0 209.5 91t86.5 205h-229q-235 0 -235 -154q0 -69 45.5 -105.5t122.5 -36.5z" />
    <glyph glyph-name="adieresis" unicode="&#xe4;" 
d="M236 1205v208h186v-208h-186zM581 1205v208h186v-208h-186zM409 -20q-151 0 -246.5 83.5t-95.5 228.5q0 291 420 291h243q0 125 -55 196.5t-168 71.5q-162 0 -257 -146l-145 108q149 207 397 207q194 0 302 -112t108 -298v-610h-161l-10 169q-108 -189 -332 -189z
M434 144q125 0 209.5 91t86.5 205h-229q-235 0 -235 -154q0 -69 45.5 -105.5t122.5 -36.5z" />
    <glyph glyph-name="aring" unicode="&#xe5;" 
d="M501 1074q-91 0 -153 64t-62 153t62.5 152t152.5 63q89 0 153 -62.5t64 -152.5t-63 -153.5t-154 -63.5zM501 1191q43 0 72 29t29 72q0 42 -28 69.5t-73 27.5q-44 0 -71 -27t-27 -70q0 -44 28 -72.5t70 -28.5zM409 -20q-151 0 -246.5 83.5t-95.5 228.5q0 291 420 291h243
q0 125 -55 196.5t-168 71.5q-162 0 -257 -146l-145 108q149 207 397 207q194 0 302 -112t108 -298v-610h-161l-10 169q-108 -189 -332 -189zM434 144q125 0 209.5 91t86.5 205h-229q-235 0 -235 -154q0 -69 45.5 -105.5t122.5 -36.5z" />
    <glyph glyph-name="ae" unicode="&#xe6;" horiz-adv-x="1670" 
d="M398 -20q-140 0 -238 84t-98 218q0 80 28.5 139.5t80.5 94t119.5 51t152.5 16.5h291q0 134 -56 203t-182 69q-80 0 -146 -39.5t-104 -97.5l-142 98q76 101 172 150.5t228 49.5q117 0 201 -46t129 -132q112 174 328 174q97 0 173.5 -29t125 -77.5t80.5 -117t45 -141.5
t13 -156l-6 -55h-691q6 -120 75 -195.5t191 -75.5q90 0 152 21t117 77l132 -113q-84 -86 -179.5 -124t-218.5 -38q-270 0 -369 225q-125 -233 -404 -233zM902 583h509q-6 123 -70.5 192.5t-188.5 69.5q-114 0 -177.5 -73t-72.5 -189zM437 142q120 0 207 90.5t90 203.5h-277
q-90 0 -147 -41t-57 -111q0 -63 55 -102.5t129 -39.5z" />
    <glyph glyph-name="ccedilla" unicode="&#xe7;" horiz-adv-x="988" 
d="M531 150q82 0 143 49t83 130l172 -69q-42 -119 -130.5 -191t-209.5 -86l-61 -92q91 -7 139.5 -58.5t48.5 -129.5q0 -89 -62 -152.5t-158 -63.5q-62 0 -114 36t-74 91l116 54q6 -25 28 -43t50 -18q40 0 65 25t25 63q0 49 -47.5 83.5t-130.5 34.5h-54l101 172
q-124 17 -213 94t-130.5 184.5t-41.5 234.5q0 102 28.5 194t83.5 166t143.5 118t199.5 44q142 0 248 -72t161 -207l-183 -75q-22 83 -82.5 133t-143.5 50q-68 0 -119.5 -31t-81 -83t-43.5 -111.5t-14 -125.5t14 -125.5t43 -111t80.5 -81.5t120.5 -30z" />
    <glyph glyph-name="egrave" unicode="&#xe8;" horiz-adv-x="1051" 
d="M450 1113l-281 300h224l221 -300h-164zM551 -17q-117 0 -210 41.5t-150.5 113.5t-87 163t-29.5 194q0 101 28.5 193t83.5 166t145 118t203 44q97 0 175 -30t127 -78.5t81.5 -114.5t45.5 -133t13 -139q0 -53 -6 -85h-691q7 -125 75.5 -202.5t196.5 -77.5q163 0 261 107
l134 -113q-82 -86 -177.5 -126.5t-217.5 -40.5zM279 583h509q-7 122 -70.5 197t-184.5 75q-116 0 -179.5 -76t-74.5 -196z" />
    <glyph glyph-name="eacute" unicode="&#xe9;" horiz-adv-x="1051" 
d="M412 1124l221 289h225l-291 -289h-155zM551 -17q-117 0 -210 41.5t-150.5 113.5t-87 163t-29.5 194q0 101 28.5 193t83.5 166t145 118t203 44q97 0 175 -30t127 -78.5t81.5 -114.5t45.5 -133t13 -139q0 -53 -6 -85h-691q7 -125 75.5 -202.5t196.5 -77.5q163 0 261 107
l134 -113q-82 -86 -177.5 -126.5t-217.5 -40.5zM279 583h509q-7 122 -70.5 197t-184.5 75q-116 0 -179.5 -76t-74.5 -196z" />
    <glyph glyph-name="ecircumflex" unicode="&#xea;" horiz-adv-x="1051" 
d="M195 1098l323 354l323 -354h-173l-150 167l-148 -167h-175zM551 -17q-117 0 -210 41.5t-150.5 113.5t-87 163t-29.5 194q0 101 28.5 193t83.5 166t145 118t203 44q97 0 175 -30t127 -78.5t81.5 -114.5t45.5 -133t13 -139q0 -53 -6 -85h-691q7 -125 75.5 -202.5
t196.5 -77.5q163 0 261 107l134 -113q-82 -86 -177.5 -126.5t-217.5 -40.5zM279 583h509q-7 122 -70.5 197t-184.5 75q-116 0 -179.5 -76t-74.5 -196z" />
    <glyph glyph-name="edieresis" unicode="&#xeb;" horiz-adv-x="1051" 
d="M252 1205v208h186v-208h-186zM597 1205v208h186v-208h-186zM551 -17q-117 0 -210 41.5t-150.5 113.5t-87 163t-29.5 194q0 101 28.5 193t83.5 166t145 118t203 44q97 0 175 -30t127 -78.5t81.5 -114.5t45.5 -133t13 -139q0 -53 -6 -85h-691q7 -125 75.5 -202.5
t196.5 -77.5q163 0 261 107l134 -113q-82 -86 -177.5 -126.5t-217.5 -40.5zM279 583h509q-7 122 -70.5 197t-184.5 75q-116 0 -179.5 -76t-74.5 -196z" />
    <glyph glyph-name="igrave" unicode="&#xec;" horiz-adv-x="508" 
d="M185 1113l-281 300h224l221 -300h-164zM158 0v999h193v-999h-193z" />
    <glyph glyph-name="iacute" unicode="&#xed;" horiz-adv-x="508" 
d="M147 1124l221 289h225l-291 -289h-155zM158 0v999h193v-999h-193z" />
    <glyph glyph-name="icircumflex" unicode="&#xee;" horiz-adv-x="508" 
d="M-70 1098l323 354l323 -354h-173l-150 167l-148 -167h-175zM158 0v999h193v-999h-193z" />
    <glyph glyph-name="idieresis" unicode="&#xef;" horiz-adv-x="508" 
d="M-13 1205v208h186v-208h-186zM332 1205v208h186v-208h-186zM158 0v999h193v-999h-193z" />
    <glyph glyph-name="eth" unicode="&#xf0;" horiz-adv-x="1166" 
d="M636 1390q219 -137 324.5 -341t105.5 -505q0 -252 -130.5 -406t-359.5 -154q-119 0 -216 43.5t-159 118t-95 169.5t-33 201q0 105 32.5 196.5t91.5 160t148.5 108t196.5 39.5q170 0 267 -88q-54 190 -269 318l-86 -126l-96 62l80 118q-67 30 -153 61l92 151
q90 -36 158 -70l65 95l99 -59zM570 165q96 0 164 51t98.5 129t30.5 172q0 96 -32 174t-100 127t-161 49q-142 0 -218 -102.5t-76 -248.5t76 -248.5t218 -102.5z" />
    <glyph glyph-name="ntilde" unicode="&#xf1;" horiz-adv-x="1139" 
d="M691 1128q-40 0 -74.5 15.5t-57.5 37.5t-42.5 44t-40.5 37.5t-42 15.5q-68 0 -68 -137h-118q0 124 50 195.5t139 71.5q40 0 74 -15.5t57 -38t43 -44.5t41 -37.5t41 -15.5q67 0 67 145h124q0 -132 -51 -203t-142 -71zM158 0v999h192v-147q54 80 135 123t174 43
q90 0 159 -34t109 -93t60 -131t20 -156v-604h-192v582q0 112 -52 187.5t-158 75.5q-115 0 -185 -79.5t-70 -233.5v-532h-192z" />
    <glyph glyph-name="ograve" unicode="&#xf2;" horiz-adv-x="1123" 
d="M492 1113l-281 300h224l221 -300h-164zM560 -20q-144 0 -257 71.5t-173.5 190t-60.5 260.5t60.5 259.5t173.5 188t257 70.5q143 0 257 -70.5t175 -188.5t61 -259q0 -142 -61 -260.5t-175 -190t-257 -71.5zM561 144q74 0 131.5 30t91.5 81t51.5 114t17.5 133q0 71 -17 133
t-51.5 112t-92 79t-131.5 29q-98 0 -165.5 -51t-97 -128.5t-29.5 -173.5q0 -56 10.5 -108t33.5 -97.5t56.5 -79.5t83 -53.5t108.5 -19.5z" />
    <glyph glyph-name="oacute" unicode="&#xf3;" horiz-adv-x="1123" 
d="M454 1124l221 289h225l-291 -289h-155zM560 -20q-144 0 -257 71.5t-173.5 190t-60.5 260.5t60.5 259.5t173.5 188t257 70.5q143 0 257 -70.5t175 -188.5t61 -259q0 -142 -61 -260.5t-175 -190t-257 -71.5zM561 144q74 0 131.5 30t91.5 81t51.5 114t17.5 133q0 71 -17 133
t-51.5 112t-92 79t-131.5 29q-98 0 -165.5 -51t-97 -128.5t-29.5 -173.5q0 -56 10.5 -108t33.5 -97.5t56.5 -79.5t83 -53.5t108.5 -19.5z" />
    <glyph glyph-name="ocircumflex" unicode="&#xf4;" horiz-adv-x="1123" 
d="M237 1098l323 354l323 -354h-173l-150 167l-148 -167h-175zM560 -20q-144 0 -257 71.5t-173.5 190t-60.5 260.5t60.5 259.5t173.5 188t257 70.5q143 0 257 -70.5t175 -188.5t61 -259q0 -142 -61 -260.5t-175 -190t-257 -71.5zM561 144q74 0 131.5 30t91.5 81t51.5 114
t17.5 133q0 71 -17 133t-51.5 112t-92 79t-131.5 29q-98 0 -165.5 -51t-97 -128.5t-29.5 -173.5q0 -56 10.5 -108t33.5 -97.5t56.5 -79.5t83 -53.5t108.5 -19.5z" />
    <glyph glyph-name="otilde" unicode="&#xf5;" horiz-adv-x="1123" 
d="M684 1128q-40 0 -74.5 15.5t-57.5 37.5t-42.5 44t-40.5 37.5t-42 15.5q-68 0 -68 -137h-118q0 124 50 195.5t139 71.5q40 0 74 -15.5t57 -38t43 -44.5t41 -37.5t41 -15.5q67 0 67 145h124q0 -132 -51 -203t-142 -71zM560 -20q-144 0 -257 71.5t-173.5 190t-60.5 260.5
t60.5 259.5t173.5 188t257 70.5q143 0 257 -70.5t175 -188.5t61 -259q0 -142 -61 -260.5t-175 -190t-257 -71.5zM561 144q74 0 131.5 30t91.5 81t51.5 114t17.5 133q0 71 -17 133t-51.5 112t-92 79t-131.5 29q-98 0 -165.5 -51t-97 -128.5t-29.5 -173.5q0 -56 10.5 -108
t33.5 -97.5t56.5 -79.5t83 -53.5t108.5 -19.5z" />
    <glyph glyph-name="odieresis" unicode="&#xf6;" horiz-adv-x="1123" 
d="M294 1205v208h186v-208h-186zM639 1205v208h186v-208h-186zM560 -20q-144 0 -257 71.5t-173.5 190t-60.5 260.5t60.5 259.5t173.5 188t257 70.5q143 0 257 -70.5t175 -188.5t61 -259q0 -142 -61 -260.5t-175 -190t-257 -71.5zM561 144q74 0 131.5 30t91.5 81t51.5 114
t17.5 133q0 71 -17 133t-51.5 112t-92 79t-131.5 29q-98 0 -165.5 -51t-97 -128.5t-29.5 -173.5q0 -56 10.5 -108t33.5 -97.5t56.5 -79.5t83 -53.5t108.5 -19.5z" />
    <glyph glyph-name="divide" unicode="&#xf7;" horiz-adv-x="1102" 
d="M434 870v227h229v-227h-229zM106 555v147h886v-147h-886zM434 142v227h229v-227h-229z" />
    <glyph glyph-name="oslash" unicode="&#xf8;" horiz-adv-x="1123" 
d="M860 920q91 -72 142 -181.5t51 -236.5q0 -142 -61 -260.5t-175 -190t-257 -71.5q-121 0 -220 51l-18 -31h-109l48 81q-91 72 -141.5 182.5t-50.5 238.5q0 142 60.5 259.5t173.5 188t257 70.5q119 0 221 -50l17 29h108zM269 502q0 -166 83 -265l344 587q-59 31 -135 31
q-98 0 -165.5 -51t-97 -128.5t-29.5 -173.5zM561 144q74 0 131.5 30t91.5 81t51.5 114t17.5 133q0 167 -84 263l-344 -589q61 -32 136 -32z" />
    <glyph glyph-name="ugrave" unicode="&#xf9;" horiz-adv-x="1140" 
d="M498 1113l-281 300h224l221 -300h-164zM483 -21q-179 0 -266.5 125t-87.5 340v555h196v-564q0 -62 8.5 -110t29 -89.5t60.5 -64t98 -22.5q113 0 190 88t77 257v505h195v-999h-195v145q-44 -72 -125 -119t-180 -47z" />
    <glyph glyph-name="uacute" unicode="&#xfa;" horiz-adv-x="1140" 
d="M460 1124l221 289h225l-291 -289h-155zM483 -21q-179 0 -266.5 125t-87.5 340v555h196v-564q0 -62 8.5 -110t29 -89.5t60.5 -64t98 -22.5q113 0 190 88t77 257v505h195v-999h-195v145q-44 -72 -125 -119t-180 -47z" />
    <glyph glyph-name="ucircumflex" unicode="&#xfb;" horiz-adv-x="1140" 
d="M243 1098l323 354l323 -354h-173l-150 167l-148 -167h-175zM483 -21q-179 0 -266.5 125t-87.5 340v555h196v-564q0 -62 8.5 -110t29 -89.5t60.5 -64t98 -22.5q113 0 190 88t77 257v505h195v-999h-195v145q-44 -72 -125 -119t-180 -47z" />
    <glyph glyph-name="udieresis" unicode="&#xfc;" horiz-adv-x="1140" 
d="M300 1205v208h186v-208h-186zM645 1205v208h186v-208h-186zM483 -21q-179 0 -266.5 125t-87.5 340v555h196v-564q0 -62 8.5 -110t29 -89.5t60.5 -64t98 -22.5q113 0 190 88t77 257v505h195v-999h-195v145q-44 -72 -125 -119t-180 -47z" />
    <glyph glyph-name="yacute" unicode="&#xfd;" horiz-adv-x="1002" 
d="M392 1124l221 289h225l-291 -289h-155zM226 -430l177 445l-387 984h213l274 -759l271 759h212l-552 -1429h-208z" />
    <glyph glyph-name="thorn" unicode="&#xfe;" horiz-adv-x="1147" 
d="M161 -438v1851h193v-526q107 133 296 133q131 0 227 -72t142.5 -188t46.5 -260t-46.5 -260t-142.5 -188t-227 -72q-188 0 -296 132v-550h-193zM609 152q133 0 201.5 97.5t68.5 250.5q0 151 -68.5 248.5t-201.5 97.5q-132 0 -202 -97.5t-70 -248.5q0 -152 69.5 -250
t202.5 -98z" />
    <glyph glyph-name="ydieresis" unicode="&#xff;" horiz-adv-x="1002" 
d="M232 1205v208h186v-208h-186zM577 1205v208h186v-208h-186zM226 -430l177 445l-387 984h213l274 -759l271 759h212l-552 -1429h-208z" />
    <glyph glyph-name="Amacron" unicode="&#x100;" horiz-adv-x="1323" 
d="M388 1579v134h549v-134h-549zM39 0l547 1413h154l544 -1413h-219l-108 307h-587l-109 -307h-222zM438 486h450l-224 628z" />
    <glyph glyph-name="amacron" unicode="&#x101;" 
d="M229 1166v134h549v-134h-549zM409 -20q-151 0 -246.5 83.5t-95.5 228.5q0 291 420 291h243q0 125 -55 196.5t-168 71.5q-162 0 -257 -146l-145 108q149 207 397 207q194 0 302 -112t108 -298v-610h-161l-10 169q-108 -189 -332 -189zM434 144q125 0 209.5 91t86.5 205
h-229q-235 0 -235 -154q0 -69 45.5 -105.5t122.5 -36.5z" />
    <glyph glyph-name="Abreve" unicode="&#x102;" horiz-adv-x="1323" 
d="M662 1556q-150 0 -230.5 70t-80.5 200h153q0 -66 45 -104.5t113 -38.5q69 0 113 38.5t44 104.5h153q0 -132 -81.5 -201t-228.5 -69zM39 0l547 1413h154l544 -1413h-219l-108 307h-587l-109 -307h-222zM438 486h450l-224 628z" />
    <glyph glyph-name="abreve" unicode="&#x103;" 
d="M503 1143q-150 0 -230.5 70t-80.5 200h153q0 -66 45 -104.5t113 -38.5q69 0 113 38.5t44 104.5h153q0 -132 -81.5 -201t-228.5 -69zM409 -20q-151 0 -246.5 83.5t-95.5 228.5q0 291 420 291h243q0 125 -55 196.5t-168 71.5q-162 0 -257 -146l-145 108q149 207 397 207
q194 0 302 -112t108 -298v-610h-161l-10 169q-108 -189 -332 -189zM434 144q125 0 209.5 91t86.5 205h-229q-235 0 -235 -154q0 -69 45.5 -105.5t122.5 -36.5z" />
    <glyph glyph-name="Aogonek" unicode="&#x104;" horiz-adv-x="1323" 
d="M1259 -259l107 -74q-79 -118 -212 -118q-94 0 -154.5 56.5t-60.5 148.5q0 55 24 102.5t59 76.5t62.5 45.5t44.5 21.5h-64l-108 307h-587l-109 -307h-222l547 1413h154l544 -1413q-11 -4 -27.5 -11t-53 -28t-64.5 -45t-50.5 -61t-22.5 -77q0 -50 22.5 -74t57.5 -24
q70 0 113 61zM438 486h450l-224 628z" />
    <glyph glyph-name="aogonek" unicode="&#x105;" 
d="M887 -259l107 -74q-79 -118 -212 -118q-94 0 -154.5 56.5t-60.5 148.5q0 55 24 102.5t59 76.5t62.5 45.5t44.5 21.5h-6l-10 169q-108 -189 -332 -189q-151 0 -246.5 83.5t-95.5 228.5q0 291 420 291h243q0 125 -55 196.5t-168 71.5q-162 0 -257 -146l-145 108
q149 207 397 207q194 0 302 -112t108 -298v-610q-11 -4 -27.5 -11t-53 -28t-64.5 -45t-50.5 -61t-22.5 -77q0 -50 22.5 -74t57.5 -24q70 0 113 61zM434 144q125 0 209.5 91t86.5 205h-229q-235 0 -235 -154q0 -69 45.5 -105.5t122.5 -36.5z" />
    <glyph glyph-name="Cacute" unicode="&#x106;" horiz-adv-x="1425" 
d="M608 1537l221 289h225l-291 -289h-155zM760 -20q-131 0 -239 38t-184.5 105t-129 159t-77.5 199.5t-25 226.5t24.5 225.5t77 199t129 159.5t186.5 105.5t244 38.5q206 0 358.5 -98.5t230.5 -291.5l-188 -78q-21 75 -61.5 129.5t-95.5 86t-116.5 46t-132.5 14.5
q-117 0 -206.5 -42t-142.5 -116.5t-79.5 -168t-26.5 -203.5q0 -91 16 -170.5t52 -148.5t88.5 -118.5t130 -77.5t172.5 -28q298 0 405 279l187 -79q-82 -189 -236 -290t-361 -101z" />
    <glyph glyph-name="cacute" unicode="&#x107;" horiz-adv-x="988" 
d="M425 1124l221 289h225l-291 -289h-155zM533 -20q-111 0 -200 43t-144 116t-84 165t-29 194t28.5 194t83.5 166t143.5 118t199.5 44q142 0 248 -72t161 -207l-183 -75q-22 83 -82.5 133t-143.5 50q-68 0 -119.5 -31t-81 -83t-43.5 -111.5t-14 -125.5t14 -125.5t43 -111
t80.5 -81.5t120.5 -30q82 0 143 49t83 130l172 -69q-47 -132 -151 -206t-245 -74z" />
    <glyph glyph-name="Cdotaccent" unicode="&#x10a;" horiz-adv-x="1425" 
d="M607 1618v208h212v-208h-212zM760 -20q-131 0 -239 38t-184.5 105t-129 159t-77.5 199.5t-25 226.5t24.5 225.5t77 199t129 159.5t186.5 105.5t244 38.5q206 0 358.5 -98.5t230.5 -291.5l-188 -78q-21 75 -61.5 129.5t-95.5 86t-116.5 46t-132.5 14.5q-117 0 -206.5 -42
t-142.5 -116.5t-79.5 -168t-26.5 -203.5q0 -91 16 -170.5t52 -148.5t88.5 -118.5t130 -77.5t172.5 -28q298 0 405 279l187 -79q-82 -189 -236 -290t-361 -101z" />
    <glyph glyph-name="cdotaccent" unicode="&#x10b;" horiz-adv-x="988" 
d="M424 1205v208h212v-208h-212zM533 -20q-111 0 -200 43t-144 116t-84 165t-29 194t28.5 194t83.5 166t143.5 118t199.5 44q142 0 248 -72t161 -207l-183 -75q-22 83 -82.5 133t-143.5 50q-68 0 -119.5 -31t-81 -83t-43.5 -111.5t-14 -125.5t14 -125.5t43 -111t80.5 -81.5
t120.5 -30q82 0 143 49t83 130l172 -69q-47 -132 -151 -206t-245 -74z" />
    <glyph glyph-name="Ccaron" unicode="&#x10c;" horiz-adv-x="1425" 
d="M714 1493l-322 332h174l148 -160l150 160h174zM760 -20q-131 0 -239 38t-184.5 105t-129 159t-77.5 199.5t-25 226.5t24.5 225.5t77 199t129 159.5t186.5 105.5t244 38.5q206 0 358.5 -98.5t230.5 -291.5l-188 -78q-21 75 -61.5 129.5t-95.5 86t-116.5 46t-132.5 14.5
q-117 0 -206.5 -42t-142.5 -116.5t-79.5 -168t-26.5 -203.5q0 -91 16 -170.5t52 -148.5t88.5 -118.5t130 -77.5t172.5 -28q298 0 405 279l187 -79q-82 -189 -236 -290t-361 -101z" />
    <glyph glyph-name="ccaron" unicode="&#x10d;" horiz-adv-x="988" 
d="M531 1080l-322 332h174l148 -160l150 160h174zM533 -20q-111 0 -200 43t-144 116t-84 165t-29 194t28.5 194t83.5 166t143.5 118t199.5 44q142 0 248 -72t161 -207l-183 -75q-22 83 -82.5 133t-143.5 50q-68 0 -119.5 -31t-81 -83t-43.5 -111.5t-14 -125.5t14 -125.5
t43 -111t80.5 -81.5t120.5 -30q82 0 143 49t83 130l172 -69q-47 -132 -151 -206t-245 -74z" />
    <glyph glyph-name="Dcaron" unicode="&#x10e;" horiz-adv-x="1407" 
d="M720 1493l-322 332h174l148 -160l150 160h174zM198 0v1413h383q352 0 537.5 -185t185.5 -532q0 -333 -188.5 -514.5t-536.5 -181.5h-381zM401 186h154q123 0 221 29.5t172 91t113.5 163t39.5 237.5q0 265 -127 393t-397 128h-176v-1042z" />
    <glyph glyph-name="dcaron" unicode="&#x10f;" horiz-adv-x="1234" 
d="M500 -20q-132 0 -228.5 71.5t-143.5 188t-47 260.5q0 106 27.5 200t79 165.5t131.5 113t179 41.5q91 0 168.5 -36t127.5 -104v533h195v-1413h-195v120q-107 -140 -294 -140zM1100 990l108 423h233l-217 -423h-124zM545 155q90 0 151 48t87.5 123.5t26.5 173.5
q0 97 -26.5 172t-87.5 123t-151 48q-132 0 -199.5 -96.5t-67.5 -246.5t67.5 -247.5t199.5 -97.5z" />
    <glyph glyph-name="Dcroat" unicode="&#x110;" horiz-adv-x="1426" 
d="M218 0v639h-113v148h113v626h381q349 0 537 -185t188 -532q0 -332 -190.5 -514t-536.5 -182h-379zM413 181h159q123 0 223 30.5t175 93t116 164.5t41 238q0 527 -532 527h-182v-447h381v-148h-381v-458z" />
    <glyph glyph-name="dcroat" unicode="&#x111;" horiz-adv-x="1149" 
d="M1150 1288v-139h-161v-1149h-184l-6 125q-105 -145 -303 -145q-129 0 -225 72t-143 188.5t-47 259.5t47 259.5t142.5 188.5t223.5 72q195 0 300 -140v269h-278v139h278v125h195v-125h161zM545 150q90 0 151 49t87.5 125.5t26.5 175.5q0 151 -66.5 250t-198.5 99
q-89 0 -151 -49.5t-89 -126.5t-27 -173q0 -151 67.5 -250.5t199.5 -99.5z" />
    <glyph glyph-name="Emacron" unicode="&#x112;" horiz-adv-x="1242" 
d="M371 1579v134h549v-134h-549zM198 0v1413h927v-182h-724v-434h649v-180h-649v-428h724v-189h-927z" />
    <glyph glyph-name="emacron" unicode="&#x113;" horiz-adv-x="1051" 
d="M245 1166v134h549v-134h-549zM551 -17q-117 0 -210 41.5t-150.5 113.5t-87 163t-29.5 194q0 101 28.5 193t83.5 166t145 118t203 44q97 0 175 -30t127 -78.5t81.5 -114.5t45.5 -133t13 -139q0 -53 -6 -85h-691q7 -125 75.5 -202.5t196.5 -77.5q163 0 261 107l134 -113
q-82 -86 -177.5 -126.5t-217.5 -40.5zM279 583h509q-7 122 -70.5 197t-184.5 75q-116 0 -179.5 -76t-74.5 -196z" />
    <glyph glyph-name="Edotaccent" unicode="&#x116;" horiz-adv-x="1242" 
d="M537 1618v208h212v-208h-212zM198 0v1413h927v-182h-724v-434h649v-180h-649v-428h724v-189h-927z" />
    <glyph glyph-name="edotaccent" unicode="&#x117;" horiz-adv-x="1051" 
d="M411 1205v208h212v-208h-212zM551 -17q-117 0 -210 41.5t-150.5 113.5t-87 163t-29.5 194q0 101 28.5 193t83.5 166t145 118t203 44q97 0 175 -30t127 -78.5t81.5 -114.5t45.5 -133t13 -139q0 -53 -6 -85h-691q7 -125 75.5 -202.5t196.5 -77.5q163 0 261 107l134 -113
q-82 -86 -177.5 -126.5t-217.5 -40.5zM279 583h509q-7 122 -70.5 197t-184.5 75q-116 0 -179.5 -76t-74.5 -196z" />
    <glyph glyph-name="Eogonek" unicode="&#x118;" horiz-adv-x="1242" 
d="M1100 -259l107 -74q-79 -118 -212 -118q-94 0 -154.5 56.5t-60.5 148.5q0 55 24 102.5t59 76.5t62.5 45.5t44.5 21.5h-772v1413h927v-182h-724v-434h649v-180h-649v-428h724v-189q-11 -4 -27.5 -11t-53 -28t-64.5 -45t-50.5 -61t-22.5 -77q0 -50 22.5 -74t57.5 -24
q70 0 113 61z" />
    <glyph glyph-name="eogonek" unicode="&#x119;" horiz-adv-x="1051" 
d="M976 521q0 -53 -6 -85h-691q7 -125 75.5 -202.5t196.5 -77.5q163 0 261 107l134 -113q-100 -105 -224 -144q-136 -79 -136 -182q0 -50 22.5 -74t57.5 -24q70 0 113 61l107 -74q-79 -118 -212 -118q-94 0 -154.5 56.5t-60.5 148.5q0 105 88 183q-116 1 -208 43t-149 113.5
t-86.5 162t-29.5 193.5q0 101 28.5 193t83.5 166t145 118t203 44q97 0 175 -30t127 -78.5t81.5 -114.5t45.5 -133t13 -139zM279 583h509q-7 122 -70.5 197t-184.5 75q-116 0 -179.5 -76t-74.5 -196z" />
    <glyph glyph-name="Ecaron" unicode="&#x11a;" horiz-adv-x="1242" 
d="M644 1493l-322 332h174l148 -160l150 160h174zM198 0v1413h927v-182h-724v-434h649v-180h-649v-428h724v-189h-927z" />
    <glyph glyph-name="ecaron" unicode="&#x11b;" horiz-adv-x="1051" 
d="M518 1080l-322 332h174l148 -160l150 160h174zM551 -17q-117 0 -210 41.5t-150.5 113.5t-87 163t-29.5 194q0 101 28.5 193t83.5 166t145 118t203 44q97 0 175 -30t127 -78.5t81.5 -114.5t45.5 -133t13 -139q0 -53 -6 -85h-691q7 -125 75.5 -202.5t196.5 -77.5
q163 0 261 107l134 -113q-82 -86 -177.5 -126.5t-217.5 -40.5zM279 583h509q-7 122 -70.5 197t-184.5 75q-116 0 -179.5 -76t-74.5 -196z" />
    <glyph glyph-name="Gbreve" unicode="&#x11e;" horiz-adv-x="1521" 
d="M761 1556q-150 0 -230.5 70t-80.5 200h153q0 -66 45 -104.5t113 -38.5q69 0 113 38.5t44 104.5h153q0 -132 -81.5 -201t-228.5 -69zM762 -20q-163 0 -291 58t-206.5 159.5t-119 230.5t-40.5 279q0 119 25 226t77.5 199t128.5 159.5t184.5 106t239.5 38.5q205 0 358 -100
t236 -290l-182 -78q-56 141 -163 213t-251 72q-115 0 -204 -43.5t-142 -119t-79.5 -170t-26.5 -203.5q0 -116 26.5 -213.5t80 -174.5t143 -120.5t206.5 -43.5q172 0 291.5 110.5t131.5 300.5h-323v162h517v-738h-164l-11 230q-52 -110 -169 -180t-273 -70z" />
    <glyph glyph-name="gbreve" unicode="&#x11f;" horiz-adv-x="1036" 
d="M504 1143q-150 0 -230.5 70t-80.5 200h153q0 -66 45 -104.5t113 -38.5q69 0 113 38.5t44 104.5h153q0 -132 -81.5 -201t-228.5 -69zM562 142q52 -7 84.5 -12.5t80 -16.5t76.5 -24t63 -35t52.5 -49t31.5 -65.5t13 -86.5q0 -104 -58.5 -177.5t-151 -107t-209.5 -33.5
q-204 0 -326 98t-122 249q0 23 3 41l126 121q-114 66 -114 201q0 112 83 184q-84 97 -84 230q0 157 113 257t278 100q144 0 249 -78l150 133l105 -130l-154 -122q40 -75 40 -168q0 -159 -111 -256t-275 -97q-103 0 -189 40q-37 -25 -37 -65q0 -23 8.5 -40.5t30.5 -30.5
t41.5 -21.5t60 -16.5t65 -11.5t77.5 -10.5zM504 865q-90 0 -142.5 -59t-52.5 -147q0 -91 52 -146.5t143 -55.5q90 0 142 55.5t52 146.5q0 89 -52.5 147.5t-141.5 58.5zM551 -305q101 0 167 36.5t66 102.5q0 67 -79 96q-42 14 -189 36q-9 1 -17 2q-93 14 -149 27l-85 -117
q5 -80 83 -131.5t203 -51.5z" />
    <glyph glyph-name="Gdotaccent" unicode="&#x120;" horiz-adv-x="1521" 
d="M653 1618v208h212v-208h-212zM762 -20q-163 0 -291 58t-206.5 159.5t-119 230.5t-40.5 279q0 119 25 226t77.5 199t128.5 159.5t184.5 106t239.5 38.5q205 0 358 -100t236 -290l-182 -78q-56 141 -163 213t-251 72q-115 0 -204 -43.5t-142 -119t-79.5 -170t-26.5 -203.5
q0 -116 26.5 -213.5t80 -174.5t143 -120.5t206.5 -43.5q172 0 291.5 110.5t131.5 300.5h-323v162h517v-738h-164l-11 230q-52 -110 -169 -180t-273 -70z" />
    <glyph glyph-name="gdotaccent" unicode="&#x121;" horiz-adv-x="1036" 
d="M608 1413v-208h-212v208h212zM562 142q52 -7 84.5 -12.5t80 -16.5t76.5 -24t63 -35t52.5 -49t31.5 -65.5t13 -86.5q0 -104 -58.5 -177.5t-151 -107t-209.5 -33.5q-204 0 -326 98t-122 249q0 23 3 41l126 121q-114 66 -114 201q0 112 83 184q-84 97 -84 230q0 157 113 257
t278 100q144 0 249 -78l150 133l105 -130l-154 -122q40 -75 40 -168q0 -159 -111 -256t-275 -97q-103 0 -189 40q-37 -25 -37 -65q0 -23 8.5 -40.5t30.5 -30.5t41.5 -21.5t60 -16.5t65 -11.5t77.5 -10.5zM504 865q-90 0 -142.5 -59t-52.5 -147q0 -91 52 -146.5t143 -55.5
q90 0 142 55.5t52 146.5q0 89 -52.5 147.5t-141.5 58.5zM551 -305q101 0 167 36.5t66 102.5q0 67 -79 96q-42 14 -189 36q-9 1 -17 2q-93 14 -149 27l-85 -117q5 -80 83 -131.5t203 -51.5z" />
    <glyph glyph-name="Gcommaaccent" unicode="&#x122;" horiz-adv-x="1521" 
d="M762 -20q-163 0 -291 58t-206.5 159.5t-119 230.5t-40.5 279q0 119 25 226t77.5 199t128.5 159.5t184.5 106t239.5 38.5q205 0 358 -100t236 -290l-182 -78q-56 141 -163 213t-251 72q-115 0 -204 -43.5t-142 -119t-79.5 -170t-26.5 -203.5q0 -116 26.5 -213.5t80 -174.5
t143 -120.5t206.5 -43.5q172 0 291.5 110.5t131.5 300.5h-323v162h517v-738h-164l-11 230q-52 -110 -169 -180t-273 -70zM539 -452l129 343h231l-237 -343h-123z" />
    <glyph glyph-name="gcommaaccent" unicode="&#x123;" horiz-adv-x="1036" 
d="M736 1428l-129 -307h-231l237 307h123zM562 142q52 -7 84.5 -12.5t80 -16.5t76.5 -24t63 -35t52.5 -49t31.5 -65.5t13 -86.5q0 -104 -58.5 -177.5t-151 -107t-209.5 -33.5q-204 0 -326 98t-122 249q0 23 3 41l126 121q-114 66 -114 201q0 112 83 184q-84 97 -84 230
q0 157 113 257t278 100q144 0 249 -78l150 133l105 -130l-154 -122q40 -75 40 -168q0 -159 -111 -256t-275 -97q-103 0 -189 40q-37 -25 -37 -65q0 -23 8.5 -40.5t30.5 -30.5t41.5 -21.5t60 -16.5t65 -11.5t77.5 -10.5zM504 865q-90 0 -142.5 -59t-52.5 -147
q0 -91 52 -146.5t143 -55.5q90 0 142 55.5t52 146.5q0 89 -52.5 147.5t-141.5 58.5zM551 -305q101 0 167 36.5t66 102.5q0 67 -79 96q-42 14 -189 36q-9 1 -17 2q-93 14 -149 27l-85 -117q5 -80 83 -131.5t203 -51.5z" />
    <glyph glyph-name="Hbar" unicode="&#x126;" horiz-adv-x="1472" 
d="M1382 1172v-115h-108v-1057h-204v617h-669v-617h-203v1057h-109v115h109v241h203v-241h669v241h204v-241h108zM1070 797v260h-669v-260h669z" />
    <glyph glyph-name="hbar" unicode="&#x127;" horiz-adv-x="1145" 
d="M662 1018q90 0 159.5 -34t110.5 -92.5t61.5 -129.5t20.5 -153v-609h-197v582q0 258 -197 258q-121 0 -193.5 -90.5t-72.5 -226.5v-523h-194v1118h-164v139h164v156h194v-156h276v-139h-276v-261q53 77 136 119t172 42z" />
    <glyph glyph-name="Itilde" unicode="&#x128;" horiz-adv-x="599" 
d="M422 1541q-40 0 -74.5 15.5t-57.5 37.5t-42.5 44t-40.5 37.5t-42 15.5q-68 0 -68 -137h-118q0 124 50 195.5t139 71.5q40 0 74 -15.5t57 -37.5t43 -44.5t41 -38t41 -15.5q67 0 67 145h124q0 -132 -51 -203t-142 -71zM198 0v1413h203v-1413h-203z" />
    <glyph glyph-name="itilde" unicode="&#x129;" horiz-adv-x="508" 
d="M377 1128q-40 0 -74.5 15.5t-57.5 37.5t-42.5 44t-40.5 37.5t-42 15.5q-68 0 -68 -137h-118q0 124 50 195.5t139 71.5q40 0 74 -15.5t57 -38t43 -44.5t41 -37.5t41 -15.5q67 0 67 145h124q0 -132 -51 -203t-142 -71zM158 0v999h193v-999h-193z" />
    <glyph glyph-name="Imacron" unicode="&#x12a;" horiz-adv-x="599" 
d="M25 1579v134h549v-134h-549zM198 0v1413h203v-1413h-203z" />
    <glyph glyph-name="imacron" unicode="&#x12b;" horiz-adv-x="508" 
d="M-20 1166v134h549v-134h-549zM158 0v999h193v-999h-193z" />
    <glyph glyph-name="Iogonek" unicode="&#x12e;" horiz-adv-x="599" 
d="M376 -259l107 -74q-79 -118 -212 -118q-94 0 -154.5 56.5t-60.5 148.5q0 55 24 102.5t59 76.5t62.5 45.5t44.5 21.5h-48v1413h203v-1413q-11 -4 -27.5 -11t-53 -28t-64.5 -45t-50.5 -61t-22.5 -77q0 -50 22.5 -74t57.5 -24q70 0 113 61z" />
    <glyph glyph-name="iogonek" unicode="&#x12f;" horiz-adv-x="508" 
d="M358 1413v-208h-212v208h212zM326 -259l107 -74q-79 -118 -212 -118q-94 0 -154.5 56.5t-60.5 148.5q0 55 24 102.5t59 76.5t62.5 45.5t44.5 21.5h-38v999h193v-999q-11 -4 -27.5 -11t-53 -28t-64.5 -45t-50.5 -61t-22.5 -77q0 -50 22.5 -74t57.5 -24q70 0 113 61z" />
    <glyph glyph-name="Idotaccent" unicode="&#x130;" horiz-adv-x="599" 
d="M191 1618v208h212v-208h-212zM198 0v1413h203v-1413h-203z" />
    <glyph glyph-name="dotlessi" unicode="&#x131;" horiz-adv-x="508" 
d="M158 0v999h193v-999h-193z" />
    <glyph glyph-name="IJ" unicode="&#x132;" horiz-adv-x="1727" 
d="M198 0v1413h203v-1413h-203zM1102 -20q-197 0 -317 124.5t-134 312.5l200 24q8 -119 70.5 -197.5t180.5 -78.5q76 0 126.5 23.5t77 70t36.5 102.5t10 134v736h-533v182h736v-907q0 -119 -25 -213t-78 -165t-141.5 -109.5t-208.5 -38.5z" />
    <glyph glyph-name="Kcommaaccent" unicode="&#x136;" horiz-adv-x="1470" 
d="M198 0v1413h203v-786l738 786h268l-549 -567l571 -846h-249l-461 708l-318 -329v-379h-203zM488 -452l129 343h231l-237 -343h-123z" />
    <glyph glyph-name="kcommaaccent" unicode="&#x137;" horiz-adv-x="1081" 
d="M160 0v1413h194v-895l413 481h248l-349 -376l403 -623h-230l-299 499l-186 -206v-293h-194zM374 -452l129 343h231l-237 -343h-123z" />
    <glyph glyph-name="kgreenlandic" unicode="&#x138;" horiz-adv-x="1078" 
d="M158 0v999h193v-473l413 473h248l-349 -376l403 -623h-230l-299 497l-186 -206v-291h-193z" />
    <glyph glyph-name="Lacute" unicode="&#x139;" horiz-adv-x="1049" 
d="M204 1537l221 289h225l-291 -289h-155zM198 0v1413h203v-1224h605v-189h-808z" />
    <glyph glyph-name="lacute" unicode="&#x13a;" horiz-adv-x="544" 
d="M150 1537l221 289h225l-291 -289h-155zM337 -20q-98 0 -141 54t-43 166v1213h194v-1200q0 -18 15.5 -39.5t48.5 -21.5q45 0 83 8v-160q-82 -20 -157 -20z" />
    <glyph glyph-name="Lcommaaccent" unicode="&#x13b;" horiz-adv-x="1049" 
d="M198 0v1413h203v-1224h605v-189h-808zM305 -452l129 343h231l-237 -343h-123z" />
    <glyph glyph-name="lcommaaccent" unicode="&#x13c;" horiz-adv-x="544" 
d="M337 -20q-98 0 -141 54t-43 166v1213h194v-1200q0 -18 15.5 -39.5t48.5 -21.5q45 0 83 8v-160q-82 -20 -157 -20zM121 -452l129 343h231l-237 -343h-123z" />
    <glyph glyph-name="Lcaron" unicode="&#x13d;" horiz-adv-x="1074" 
d="M198 0v1413h203v-1224h605v-189h-808zM633 990l109 423h232l-217 -423h-124z" />
    <glyph glyph-name="lcaron" unicode="&#x13e;" horiz-adv-x="613" 
d="M340 -20q-100 0 -143.5 53.5t-43.5 166.5v1213h194v-1200q0 -19 15.5 -40t51.5 -21q42 0 80 8v-160q-82 -20 -154 -20zM479 990l109 423h232l-217 -423h-124z" />
    <glyph glyph-name="Lslash" unicode="&#x141;" horiz-adv-x="1073" 
d="M412 189h605v-189h-808v303l-93 -104v225l93 105v884h203v-653l318 360v-235l-318 -355v-341z" />
    <glyph glyph-name="lslash" unicode="&#x142;" horiz-adv-x="544" 
d="M411 152q45 0 83 8v-160q-82 -20 -157 -20q-98 0 -141 54t-43 166v240l-115 -130v185l115 130v788h194v-570l145 164v-185l-145 -164v-445q0 -18 15.5 -39.5t48.5 -21.5z" />
    <glyph glyph-name="Nacute" unicode="&#x143;" horiz-adv-x="1435" 
d="M610 1537l221 289h225l-291 -289h-155zM198 0v1413h240l601 -1125v1125h198v-1413h-243l-598 1127v-1127h-198z" />
    <glyph glyph-name="nacute" unicode="&#x144;" horiz-adv-x="1139" 
d="M461 1124l221 289h225l-291 -289h-155zM158 0v999h192v-147q54 80 135 123t174 43q90 0 159 -34t109 -93t60 -131t20 -156v-604h-192v582q0 112 -52 187.5t-158 75.5q-115 0 -185 -79.5t-70 -233.5v-532h-192z" />
    <glyph glyph-name="Ncommaaccent" unicode="&#x145;" horiz-adv-x="1435" 
d="M198 0v1413h240l601 -1125v1125h198v-1413h-243l-598 1127v-1127h-198zM484 -452l129 343h231l-237 -343h-123z" />
    <glyph glyph-name="ncommaaccent" unicode="&#x146;" horiz-adv-x="1139" 
d="M158 0v999h192v-147q54 80 135 123t174 43q90 0 159 -34t109 -93t60 -131t20 -156v-604h-192v582q0 112 -52 187.5t-158 75.5q-115 0 -185 -79.5t-70 -233.5v-532h-192zM335 -452l129 343h231l-237 -343h-123z" />
    <glyph glyph-name="Ncaron" unicode="&#x147;" horiz-adv-x="1435" 
d="M716 1493l-322 332h174l148 -160l150 160h174zM198 0v1413h240l601 -1125v1125h198v-1413h-243l-598 1127v-1127h-198z" />
    <glyph glyph-name="ncaron" unicode="&#x148;" horiz-adv-x="1139" 
d="M567 1080l-322 332h174l148 -160l150 160h174zM158 0v999h192v-147q54 80 135 123t174 43q90 0 159 -34t109 -93t60 -131t20 -156v-604h-192v582q0 112 -52 187.5t-158 75.5q-115 0 -185 -79.5t-70 -233.5v-532h-192z" />
    <glyph glyph-name="Eng" unicode="&#x14a;" horiz-adv-x="1436" 
d="M835 -369v139q120 -4 175.5 47t21.5 124l-636 1179v-1120h-198v1412h236l605 -1119v1119h197v-1412q0 -369 -302 -369h-99z" />
    <glyph glyph-name="eng" unicode="&#x14b;" horiz-adv-x="1137" 
d="M614 -369v163h65q38 0 65 13t40 29.5t20 44t8 44t1 43.5v615q0 254 -186 254q-114 0 -196 -83t-82 -195v-559h-191v999h191v-143q50 76 132.5 118t170.5 42q92 0 162 -34t110.5 -92.5t60 -130t19.5 -154.5v-680q0 -294 -289 -294h-101z" />
    <glyph glyph-name="Omacron" unicode="&#x14c;" horiz-adv-x="1521" 
d="M486 1579v134h549v-134h-549zM760 -20q-131 0 -239.5 38.5t-185 105.5t-129 159t-77.5 199t-25 225t25 224.5t77.5 199t129 159.5t185 105.5t239.5 38.5t240 -38.5t185.5 -105.5t129 -159.5t77.5 -199t25 -224.5t-25 -225t-77.5 -199t-129 -159t-185.5 -105.5t-240 -38.5
zM760 163q117 0 206 44t141 121.5t77.5 172.5t25.5 206q0 88 -15.5 166t-50 148t-86 120t-128 79.5t-170.5 29.5t-170 -29.5t-127.5 -79.5t-85.5 -120t-49.5 -148t-15.5 -166q0 -111 25.5 -206t77 -172.5t140 -121.5t205.5 -44z" />
    <glyph glyph-name="omacron" unicode="&#x14d;" horiz-adv-x="1123" 
d="M287 1166v134h549v-134h-549zM560 -20q-144 0 -257 71.5t-173.5 190t-60.5 260.5t60.5 259.5t173.5 188t257 70.5q143 0 257 -70.5t175 -188.5t61 -259q0 -142 -61 -260.5t-175 -190t-257 -71.5zM561 144q74 0 131.5 30t91.5 81t51.5 114t17.5 133q0 71 -17 133
t-51.5 112t-92 79t-131.5 29q-98 0 -165.5 -51t-97 -128.5t-29.5 -173.5q0 -56 10.5 -108t33.5 -97.5t56.5 -79.5t83 -53.5t108.5 -19.5z" />
    <glyph glyph-name="Ohungarumlaut" unicode="&#x150;" horiz-adv-x="1521" 
d="M480 1516l221 310h203l-269 -310h-155zM819 1516l221 310h224l-291 -310h-154zM760 -20q-131 0 -239.5 38.5t-185 105.5t-129 159t-77.5 199t-25 225t25 224.5t77.5 199t129 159.5t185 105.5t239.5 38.5t240 -38.5t185.5 -105.5t129 -159.5t77.5 -199t25 -224.5t-25 -225
t-77.5 -199t-129 -159t-185.5 -105.5t-240 -38.5zM760 163q117 0 206 44t141 121.5t77.5 172.5t25.5 206q0 88 -15.5 166t-50 148t-86 120t-128 79.5t-170.5 29.5t-170 -29.5t-127.5 -79.5t-85.5 -120t-49.5 -148t-15.5 -166q0 -111 25.5 -206t77 -172.5t140 -121.5
t205.5 -44z" />
    <glyph glyph-name="ohungarumlaut" unicode="&#x151;" horiz-adv-x="1123" 
d="M281 1103l221 310h203l-269 -310h-155zM620 1103l221 310h224l-291 -310h-154zM560 -20q-144 0 -257 71.5t-173.5 190t-60.5 260.5t60.5 259.5t173.5 188t257 70.5q143 0 257 -70.5t175 -188.5t61 -259q0 -142 -61 -260.5t-175 -190t-257 -71.5zM561 144q74 0 131.5 30
t91.5 81t51.5 114t17.5 133q0 71 -17 133t-51.5 112t-92 79t-131.5 29q-98 0 -165.5 -51t-97 -128.5t-29.5 -173.5q0 -56 10.5 -108t33.5 -97.5t56.5 -79.5t83 -53.5t108.5 -19.5z" />
    <glyph glyph-name="OE" unicode="&#x152;" horiz-adv-x="2249" 
d="M760 -20q-131 0 -239.5 38.5t-185 105.5t-129 159t-77.5 199t-25 225t25 224.5t77.5 199t129 159.5t185 105.5t239.5 38.5q313 0 454 -226v205h918v-182h-715v-434h649v-180h-649v-428h715v-189h-918v205q-142 -225 -454 -225zM760 169q117 0 206.5 43.5t142.5 119
t79 170t26 205.5q0 110 -26 204.5t-79 170.5t-142.5 119t-206.5 43q-94 0 -170.5 -28.5t-128.5 -78t-87 -118.5t-51 -146.5t-16 -165.5q0 -111 26 -205.5t78.5 -170t142 -119t206.5 -43.5z" />
    <glyph glyph-name="oe" unicode="&#x153;" horiz-adv-x="1805" 
d="M560 -20q-144 0 -257.5 70t-173.5 187t-60 259q0 141 60 258t173.5 187.5t257.5 70.5q120 0 215.5 -51t156.5 -141q120 192 353 192q100 0 178.5 -29t128 -77.5t81.5 -117t45 -141t13 -155.5l-5 -58h-691q7 -116 78 -191.5t193 -75.5q86 0 149.5 24t119.5 82l135 -115
q-84 -89 -181.5 -129.5t-220.5 -40.5q-127 0 -221 50.5t-152 137.5q-62 -93 -157.5 -144.5t-217.5 -51.5zM1035 583h505q-6 122 -70 191t-185 69q-113 0 -176 -72.5t-74 -187.5zM557 150q98 0 163.5 48t93 123.5t27.5 174.5q0 73 -16 133.5t-48 109t-87.5 75.5t-129.5 27
q-97 0 -162.5 -48.5t-93.5 -124t-28 -174.5q0 -73 16 -133.5t48.5 -108.5t88 -75t128.5 -27z" />
    <glyph glyph-name="Racute" unicode="&#x154;" horiz-adv-x="1242" 
d="M509 1537l221 289h225l-291 -289h-155zM198 -2v1414h429q199 0 332 -109.5t133 -293.5q0 -136 -79.5 -234t-210.5 -133l388 -644h-235l-351 621h-203v-621h-203zM403 794h248q110 5 175 61t65 152q0 104 -71.5 164t-190.5 60h-226v-437z" />
    <glyph glyph-name="racute" unicode="&#x155;" horiz-adv-x="805" 
d="M290 1124l221 289h225l-291 -289h-155zM158 0v999h190v-173q35 90 113 142t169 52q104 0 171 -61l-85 -163q-49 37 -116 37q-113 0 -183.5 -95.5t-70.5 -274.5v-463h-188z" />
    <glyph glyph-name="Rcommaaccent" unicode="&#x156;" horiz-adv-x="1242" 
d="M198 -2v1414h429q199 0 332 -109.5t133 -293.5q0 -136 -79.5 -234t-210.5 -133l388 -644h-235l-351 621h-203v-621h-203zM403 794h248q110 5 175 61t65 152q0 104 -71.5 164t-190.5 60h-226v-437zM455 -452l129 343h231l-237 -343h-123z" />
    <glyph glyph-name="rcommaaccent" unicode="&#x157;" horiz-adv-x="805" 
d="M158 0v999h190v-173q35 90 113 142t169 52q104 0 171 -61l-85 -163q-49 37 -116 37q-113 0 -183.5 -95.5t-70.5 -274.5v-463h-188zM21 -452l129 343h231l-237 -343h-123z" />
    <glyph glyph-name="Rcaron" unicode="&#x158;" horiz-adv-x="1242" 
d="M615 1493l-322 332h174l148 -160l150 160h174zM198 -2v1414h429q199 0 332 -109.5t133 -293.5q0 -136 -79.5 -234t-210.5 -133l388 -644h-235l-351 621h-203v-621h-203zM403 794h248q110 5 175 61t65 152q0 104 -71.5 164t-190.5 60h-226v-437z" />
    <glyph glyph-name="rcaron" unicode="&#x159;" horiz-adv-x="805" 
d="M396 1080l-322 332h174l148 -160l150 160h174zM158 0v999h190v-173q35 90 113 142t169 52q104 0 171 -61l-85 -163q-49 37 -116 37q-113 0 -183.5 -95.5t-70.5 -274.5v-463h-188z" />
    <glyph glyph-name="Sacute" unicode="&#x15a;" horiz-adv-x="1123" 
d="M450 1537l221 289h225l-291 -289h-155zM578 -16q-123 0 -230 42.5t-184.5 134t-98.5 218.5l197 53q14 -131 102.5 -199t215.5 -68q122 0 192 57.5t70 160.5q0 53 -23.5 95.5t-63 72.5t-90.5 56t-108 49t-113.5 48t-107.5 57.5t-90.5 72.5t-63 98t-23.5 129
q0 169 118.5 271t291.5 102q131 0 237 -58t173 -175l-162 -103q-40 76 -106.5 116.5t-146.5 40.5q-85 0 -144.5 -50t-59.5 -131q0 -47 23.5 -85t63 -65.5t90.5 -51.5t107.5 -47.5t113 -49.5t107.5 -60.5t90.5 -76.5t63 -103t23.5 -135q0 -188 -132 -302t-332 -114z" />
    <glyph glyph-name="sacute" unicode="&#x15b;" horiz-adv-x="888" 
d="M322 1124l221 289h225l-291 -289h-155zM446 -20q-144 0 -251 75.5t-144 187.5l158 74q61 -177 232 -177q83 0 131.5 40t48.5 103q0 45 -28.5 76t-74 49t-101 33.5t-110.5 36t-100.5 49t-74 79.5t-28.5 121q0 139 99 216t243 77q119 0 209.5 -55t142.5 -153l-147 -81
q-70 135 -212 135q-69 0 -111 -32t-42 -82q0 -39 29 -66.5t75 -44.5t102 -33t112 -38.5t102 -54t75 -87t29 -129.5q0 -79 -31 -141.5t-83.5 -100.5t-116.5 -57.5t-133 -19.5z" />
    <glyph glyph-name="Scedilla" unicode="&#x15e;" horiz-adv-x="1123" 
d="M1042 400q0 -178 -120.5 -290.5t-305.5 -124.5l-63 -94q91 -7 139.5 -58.5t48.5 -129.5q0 -89 -62 -152.5t-158 -63.5q-62 0 -114 36t-74 91l116 54q6 -25 28 -43t50 -18q40 0 65 25t25 63q0 49 -47.5 83.5t-130.5 34.5h-54l104 177q-163 23 -280 123t-144 266l197 53
q14 -131 102.5 -199t215.5 -68q122 0 192 57.5t70 160.5q0 53 -23.5 95.5t-63 72.5t-90.5 56t-108 49t-113.5 48t-107.5 57.5t-90.5 72.5t-63 98t-23.5 129q0 169 118.5 271t291.5 102q131 0 237 -58t173 -175l-162 -103q-40 76 -106.5 116.5t-146.5 40.5q-85 0 -144.5 -50
t-59.5 -131q0 -47 23.5 -85t63 -65.5t90.5 -51.5t107.5 -47.5t113 -49.5t107.5 -60.5t90.5 -76.5t63 -103t23.5 -135z" />
    <glyph glyph-name="scedilla" unicode="&#x15f;" horiz-adv-x="888" 
d="M810 299q0 -128 -76.5 -207.5t-194.5 -102.5l-65 -98q91 -7 139.5 -58.5t48.5 -129.5q0 -89 -62 -152.5t-158 -63.5q-62 0 -114 36t-74 91l116 54q6 -25 28 -43t50 -18q40 0 65 25t25 63q0 49 -47.5 83.5t-130.5 34.5h-54l99 169q-129 11 -224.5 84t-129.5 177l158 74
q61 -177 232 -177q83 0 131.5 40t48.5 103q0 45 -28.5 76t-74 49t-101 33.5t-110.5 36t-100.5 49t-74 79.5t-28.5 121q0 139 99 216t243 77q119 0 209.5 -55t142.5 -153l-147 -81q-70 135 -212 135q-69 0 -111 -32t-42 -82q0 -39 29 -66.5t75 -44.5t102 -33t112 -38.5
t102 -54t75 -87t29 -129.5z" />
    <glyph glyph-name="Scaron" unicode="&#x160;" horiz-adv-x="1123" 
d="M556 1493l-322 332h174l148 -160l150 160h174zM578 -16q-123 0 -230 42.5t-184.5 134t-98.5 218.5l197 53q14 -131 102.5 -199t215.5 -68q122 0 192 57.5t70 160.5q0 53 -23.5 95.5t-63 72.5t-90.5 56t-108 49t-113.5 48t-107.5 57.5t-90.5 72.5t-63 98t-23.5 129
q0 169 118.5 271t291.5 102q131 0 237 -58t173 -175l-162 -103q-40 76 -106.5 116.5t-146.5 40.5q-85 0 -144.5 -50t-59.5 -131q0 -47 23.5 -85t63 -65.5t90.5 -51.5t107.5 -47.5t113 -49.5t107.5 -60.5t90.5 -76.5t63 -103t23.5 -135q0 -188 -132 -302t-332 -114z" />
    <glyph glyph-name="scaron" unicode="&#x161;" horiz-adv-x="888" 
d="M428 1080l-322 332h174l148 -160l150 160h174zM446 -20q-144 0 -251 75.5t-144 187.5l158 74q61 -177 232 -177q83 0 131.5 40t48.5 103q0 45 -28.5 76t-74 49t-101 33.5t-110.5 36t-100.5 49t-74 79.5t-28.5 121q0 139 99 216t243 77q119 0 209.5 -55t142.5 -153
l-147 -81q-70 135 -212 135q-69 0 -111 -32t-42 -82q0 -39 29 -66.5t75 -44.5t102 -33t112 -38.5t102 -54t75 -87t29 -129.5q0 -79 -31 -141.5t-83.5 -100.5t-116.5 -57.5t-133 -19.5z" />
    <glyph glyph-name="uni0162" unicode="&#x162;" horiz-adv-x="1208" 
d="M502 0v1237h-461v176h1126v-176h-461v-1237h-204zM570 -513q-62 0 -114 36t-74 91l116 54q6 -25 28 -43t50 -18q40 0 65 25t25 63q0 49 -47.5 83.5t-130.5 34.5h-54l109 186h131l-72 -108q91 -7 139.5 -58.5t48.5 -129.5q0 -89 -62 -152.5t-158 -63.5z" />
    <glyph glyph-name="uni0163" unicode="&#x163;" horiz-adv-x="711" 
d="M464 -109q91 -7 139.5 -58.5t48.5 -129.5q0 -89 -62 -152.5t-158 -63.5q-62 0 -114 36t-74 91l116 54q6 -25 28 -43t50 -18q40 0 65 25t25 63q0 49 -47.5 83.5t-130.5 34.5h-54l102 174q-100 20 -151 93.5t-51 189.5v568h-161v161h163v236l190 156v-392h253v-161h-253
v-548q0 -74 33 -109t87 -35q57 0 119 31v-172q-38 -16 -102 -22z" />
    <glyph glyph-name="Tcaron" unicode="&#x164;" horiz-adv-x="1208" 
d="M605 1493l-322 332h174l148 -160l150 160h174zM502 0v1237h-461v176h1126v-176h-461v-1237h-204z" />
    <glyph glyph-name="tcaron" unicode="&#x165;" horiz-adv-x="715" 
d="M504 1123l127 411h224l-235 -411h-116zM463 -20q-136 0 -202 77.5t-66 212.5v559h-159v170h162v236l186 156v-392h258v-170h-258v-563q0 -116 101 -116q41 0 77 7t51 13l15 7v-172q-59 -25 -165 -25z" />
    <glyph glyph-name="Tbar" unicode="&#x166;" horiz-adv-x="1208" 
d="M1167 1237h-461v-461h217v-139h-217v-637h-204v637h-213v139h213v461h-461v176h1126v-176z" />
    <glyph glyph-name="tbar" unicode="&#x167;" horiz-adv-x="711" 
d="M655 430h-267v-140q0 -74 33 -109t87 -35q57 0 119 31v-172q-60 -25 -156 -25q-136 0 -205.5 77t-69.5 213v160h-175v139h175v269h-161v161h163v236l190 156v-392h253v-161h-253v-269h267v-139z" />
    <glyph glyph-name="Utilde" unicode="&#x168;" horiz-adv-x="1366" 
d="M806 1541q-40 0 -74.5 15.5t-57.5 37.5t-42.5 44t-40.5 37.5t-42 15.5q-68 0 -68 -137h-118q0 124 50 195.5t139 71.5q40 0 74 -15.5t57 -37.5t43 -44.5t41 -38t41 -15.5q67 0 67 145h124q0 -132 -51 -203t-142 -71zM682 -20q-133 0 -233.5 42t-161 118t-90 174.5
t-29.5 219.5v879h203v-842q0 -93 15 -162t49 -123.5t96 -82.5t151 -28t151 28t97 82.5t50 123.5t15 162v842h204v-869q0 -124 -30 -225t-91.5 -178t-162 -119t-233.5 -42z" />
    <glyph glyph-name="utilde" unicode="&#x169;" horiz-adv-x="1140" 
d="M690 1128q-40 0 -74.5 15.5t-57.5 37.5t-42.5 44t-40.5 37.5t-42 15.5q-68 0 -68 -137h-118q0 124 50 195.5t139 71.5q40 0 74 -15.5t57 -38t43 -44.5t41 -37.5t41 -15.5q67 0 67 145h124q0 -132 -51 -203t-142 -71zM483 -21q-179 0 -266.5 125t-87.5 340v555h196v-564
q0 -62 8.5 -110t29 -89.5t60.5 -64t98 -22.5q113 0 190 88t77 257v505h195v-999h-195v145q-44 -72 -125 -119t-180 -47z" />
    <glyph glyph-name="Umacron" unicode="&#x16a;" horiz-adv-x="1366" 
d="M409 1579v134h549v-134h-549zM682 -20q-133 0 -233.5 42t-161 118t-90 174.5t-29.5 219.5v879h203v-842q0 -93 15 -162t49 -123.5t96 -82.5t151 -28t151 28t97 82.5t50 123.5t15 162v842h204v-869q0 -124 -30 -225t-91.5 -178t-162 -119t-233.5 -42z" />
    <glyph glyph-name="umacron" unicode="&#x16b;" horiz-adv-x="1140" 
d="M293 1166v134h549v-134h-549zM483 -21q-179 0 -266.5 125t-87.5 340v555h196v-564q0 -62 8.5 -110t29 -89.5t60.5 -64t98 -22.5q113 0 190 88t77 257v505h195v-999h-195v145q-44 -72 -125 -119t-180 -47z" />
    <glyph glyph-name="Uring" unicode="&#x16e;" horiz-adv-x="1366" 
d="M681 1487q-91 0 -153 64t-62 153t62.5 152t152.5 63q89 0 153 -62.5t64 -152.5t-63 -153.5t-154 -63.5zM681 1604q43 0 72 29t29 72q0 42 -28 69.5t-73 27.5q-44 0 -71 -27t-27 -70q0 -44 28 -72.5t70 -28.5zM682 -20q-133 0 -233.5 42t-161 118t-90 174.5t-29.5 219.5
v879h203v-842q0 -93 15 -162t49 -123.5t96 -82.5t151 -28t151 28t97 82.5t50 123.5t15 162v842h204v-869q0 -124 -30 -225t-91.5 -178t-162 -119t-233.5 -42z" />
    <glyph glyph-name="uring" unicode="&#x16f;" horiz-adv-x="1140" 
d="M565 1074q-91 0 -153 64t-62 153t62.5 152t152.5 63q89 0 153 -62.5t64 -152.5t-63 -153.5t-154 -63.5zM565 1191q43 0 72 29t29 72q0 42 -28 69.5t-73 27.5q-44 0 -71 -27t-27 -70q0 -44 28 -72.5t70 -28.5zM483 -21q-179 0 -266.5 125t-87.5 340v555h196v-564
q0 -62 8.5 -110t29 -89.5t60.5 -64t98 -22.5q113 0 190 88t77 257v505h195v-999h-195v145q-44 -72 -125 -119t-180 -47z" />
    <glyph glyph-name="Uhungarumlaut" unicode="&#x170;" horiz-adv-x="1366" 
d="M403 1516l221 310h203l-269 -310h-155zM742 1516l221 310h224l-291 -310h-154zM682 -20q-133 0 -233.5 42t-161 118t-90 174.5t-29.5 219.5v879h203v-842q0 -93 15 -162t49 -123.5t96 -82.5t151 -28t151 28t97 82.5t50 123.5t15 162v842h204v-869q0 -124 -30 -225
t-91.5 -178t-162 -119t-233.5 -42z" />
    <glyph glyph-name="uhungarumlaut" unicode="&#x171;" horiz-adv-x="1140" 
d="M287 1103l221 310h203l-269 -310h-155zM626 1103l221 310h224l-291 -310h-154zM483 -21q-179 0 -266.5 125t-87.5 340v555h196v-564q0 -62 8.5 -110t29 -89.5t60.5 -64t98 -22.5q113 0 190 88t77 257v505h195v-999h-195v145q-44 -72 -125 -119t-180 -47z" />
    <glyph glyph-name="Uogonek" unicode="&#x172;" horiz-adv-x="1366" 
d="M995 1413h204v-869q0 -198 -76.5 -337.5t-232.5 -194.5q-65 -32 -116 -82.5t-51 -116.5q0 -50 22.5 -74t57.5 -24q70 0 113 61l107 -74q-79 -118 -212 -118q-94 0 -154.5 56.5t-60.5 148.5q0 110 97 191h-11q-133 0 -233.5 42t-161 118t-90 174.5t-29.5 219.5v879h203
v-842q0 -93 15 -162t49 -123.5t96 -82.5t151 -28t151 28t97 82.5t50 123.5t15 162v842z" />
    <glyph glyph-name="uogonek" unicode="&#x173;" horiz-adv-x="1140" 
d="M958 -259l107 -74q-79 -118 -212 -118q-94 0 -154.5 56.5t-60.5 148.5q0 55 24 102.5t59 76.5t62.5 45.5t44.5 21.5h-40v145q-44 -72 -125 -119t-180 -47q-179 0 -266.5 125t-87.5 340v555h196v-564q0 -62 8.5 -110t29 -89.5t60.5 -64t98 -22.5q113 0 190 88t77 257v505
h195v-999q-11 -4 -27.5 -11t-53 -28t-64.5 -45t-50.5 -61t-22.5 -77q0 -50 22.5 -74t57.5 -24q70 0 113 61z" />
    <glyph glyph-name="Wcircumflex" unicode="&#x174;" horiz-adv-x="1987" 
d="M671 1498l323 354l323 -354h-173l-150 167l-148 -167h-175zM461 0l-410 1413h210l319 -1135l334 1053h160l334 -1053l318 1135h211l-410 -1413h-208l-324 1007l-327 -1007h-207z" />
    <glyph glyph-name="wcircumflex" unicode="&#x175;" horiz-adv-x="1441" 
d="M399 1098l323 354l323 -354h-173l-150 167l-148 -167h-175zM324 -2l-293 1001h206l189 -719l210 719h170l210 -717l189 717h206l-293 -999h-180l-216 738l-218 -740h-180z" />
    <glyph glyph-name="Ycircumflex" unicode="&#x176;" horiz-adv-x="1317" 
d="M333 1511l323 354l323 -354h-173l-150 167l-148 -167h-175zM556 0v552l-529 861h242l388 -661l390 661h243l-527 -861v-552h-207z" />
    <glyph glyph-name="ycircumflex" unicode="&#x177;" horiz-adv-x="1002" 
d="M175 1098l323 354l323 -354h-173l-150 167l-148 -167h-175zM226 -430l177 445l-387 984h213l274 -759l271 759h212l-552 -1429h-208z" />
    <glyph glyph-name="Ydieresis" unicode="&#x178;" horiz-adv-x="1317" 
d="M390 1618v208h186v-208h-186zM735 1618v208h186v-208h-186zM556 0v552l-529 861h242l388 -661l390 661h243l-527 -861v-552h-207z" />
    <glyph glyph-name="Zacute" unicode="&#x179;" horiz-adv-x="1273" 
d="M526 1537l221 289h225l-291 -289h-155zM74 0v148l845 1083h-800v182h1067v-155l-841 -1074h841v-184h-1112z" />
    <glyph glyph-name="zacute" unicode="&#x17a;" horiz-adv-x="964" 
d="M813 1413l-291 -289h-155l221 289h225zM890 999v-147l-573 -688h573v-164h-830v136l590 702h-561v161h801z" />
    <glyph glyph-name="Zdotaccent" unicode="&#x17b;" horiz-adv-x="1273" 
d="M525 1618v208h212v-208h-212zM74 0v148l845 1083h-800v182h1067v-155l-841 -1074h841v-184h-1112z" />
    <glyph glyph-name="zdotaccent" unicode="&#x17c;" horiz-adv-x="964" 
d="M578 1413v-208h-212v208h212zM890 999v-147l-573 -688h573v-164h-830v136l590 702h-561v161h801z" />
    <glyph glyph-name="Zcaron" unicode="&#x17d;" horiz-adv-x="1273" 
d="M632 1493l-322 332h174l148 -160l150 160h174zM74 0v148l845 1083h-800v182h1067v-155l-841 -1074h841v-184h-1112z" />
    <glyph glyph-name="zcaron" unicode="&#x17e;" horiz-adv-x="964" 
d="M797 1412l-324 -332l-322 332h174l148 -160l150 160h174zM890 999v-147l-573 -688h573v-164h-830v136l590 702h-561v161h801z" />
    <glyph glyph-name="florin" unicode="&#x192;" horiz-adv-x="1038" 
d="M90 -457v168q184 0 261 67.5t77 233.5v822h-178v165h178v145q0 132 82.5 218.5t200.5 86.5q116 0 221 -90l-109 -128q-57 50 -112 50q-48 0 -81.5 -34.5t-33.5 -102.5v-145h305v-165h-305v-822q0 -227 -132.5 -348t-373.5 -121z" />
    <glyph glyph-name="uni01C3" unicode="&#x1c3;" horiz-adv-x="622" 
d="M238 402l-29 1032h204l-29 -1032h-146zM197 0v226h228v-226h-228z" />
    <glyph glyph-name="uni01C4" unicode="&#x1c4;" horiz-adv-x="2660" 
d="M2019 1493l-322 332h174l148 -160l150 160h174zM198 0v1413h383q352 0 537.5 -185t185.5 -532q0 -333 -188.5 -514.5t-536.5 -181.5h-381zM1461 0v148l845 1083h-800v182h1067v-155l-841 -1074h841v-184h-1112zM401 186h154q123 0 221 29.5t172 91t113.5 163t39.5 237.5
q0 265 -127 393t-397 128h-176v-1042z" />
    <glyph glyph-name="uni01C5" unicode="&#x1c5;" horiz-adv-x="2375" 
d="M581 1413q352 0 537.5 -185t185.5 -532q0 -333 -188.5 -514.5t-536.5 -181.5h-381v1413h383zM2208 1412l-324 -332l-322 332h174l148 -160l150 160h174zM555 186q123 0 221 29.5t172 91t113.5 163t39.5 237.5q0 265 -127 393t-397 128h-176v-1042h154zM2301 999v-147
l-573 -688h573v-164h-830v136l590 702h-561v161h801z" />
    <glyph glyph-name="uni01C6" unicode="&#x1c6;" horiz-adv-x="2113" 
d="M794 880v533h195v-1413h-184l-6 125q-105 -145 -303 -145q-129 0 -225 72t-143 188.5t-47 259.5t47 259.5t142.5 188.5t223.5 72q195 0 300 -140zM1946 1412l-324 -332l-322 332h174l148 -160l150 160h174zM2039 999v-147l-573 -688h573v-164h-830v136l590 702h-561v161
h801zM545 150q90 0 151 49t87.5 125.5t26.5 175.5q0 151 -66.5 250t-198.5 99q-89 0 -151 -49.5t-89 -126.5t-27 -173q0 -151 67.5 -250.5t199.5 -99.5z" />
    <glyph glyph-name="uni01C7" unicode="&#x1c7;" horiz-adv-x="2214" 
d="M198 0v1413h203v-1224h605v-189h-808zM1589 -20q-197 0 -317 124.5t-134 312.5l200 24q8 -119 70.5 -197.5t180.5 -78.5q76 0 126.5 23.5t77 70t36.5 102.5t10 134v736h-533v182h736v-907q0 -119 -25 -213t-78 -165t-141.5 -109.5t-208.5 -38.5z" />
    <glyph glyph-name="uni01C8" unicode="&#x1c8;" horiz-adv-x="1570" 
d="M198 0v1413h203v-1224h605v-189h-808zM1208 1209v204h212v-204h-212zM1139 -438q-84 0 -161 32l45 158q60 -20 103 -20q90 0 90 116v1151h196v-1130q0 -138 -68 -222.5t-205 -84.5z" />
    <glyph glyph-name="uni01C9" unicode="&#x1c9;" horiz-adv-x="1059" 
d="M337 -20q-98 0 -141 54t-43 166v1213h194v-1200q0 -18 15.5 -39.5t48.5 -21.5q45 0 83 8v-160q-82 -20 -157 -20zM697 1209v204h212v-204h-212zM628 -438q-84 0 -161 32l45 158q60 -20 103 -20q90 0 90 116v1151h196v-1130q0 -138 -68 -222.5t-205 -84.5z" />
    <glyph glyph-name="uni01CA" unicode="&#x1ca;" horiz-adv-x="2563" 
d="M198 0v1413h240l601 -1125v1125h198v-1413h-243l-598 1127v-1127h-198zM1938 -20q-197 0 -317 124.5t-134 312.5l200 24q8 -119 70.5 -197.5t180.5 -78.5q76 0 126.5 23.5t77 70t36.5 102.5t10 134v736h-533v182h736v-907q0 -119 -25 -213t-78 -165t-141.5 -109.5
t-208.5 -38.5z" />
    <glyph glyph-name="uni01CB" unicode="&#x1cb;" horiz-adv-x="1950" 
d="M198 0v1413h240l601 -1125v1125h198v-1413h-243l-598 1127v-1127h-198zM1588 1209v204h212v-204h-212zM1519 -438q-84 0 -161 32l45 158q60 -20 103 -20q90 0 90 116v1151h196v-1130q0 -138 -68 -222.5t-205 -84.5z" />
    <glyph glyph-name="uni01CC" unicode="&#x1cc;" horiz-adv-x="1654" 
d="M1292 1209v204h212v-204h-212zM158 0v999h192v-147q54 80 135 123t174 43q90 0 159 -34t109 -93t60 -131t20 -156v-604h-192v582q0 112 -52 187.5t-158 75.5q-115 0 -185 -79.5t-70 -233.5v-532h-192zM1223 -438q-84 0 -161 32l45 158q60 -20 103 -20q90 0 90 116v1151
h196v-1130q0 -138 -68 -222.5t-205 -84.5z" />
    <glyph glyph-name="uni01CD" unicode="&#x1cd;" horiz-adv-x="1323" 
d="M661 1493l-322 332h174l148 -160l150 160h174zM39 0l547 1413h154l544 -1413h-219l-108 307h-587l-109 -307h-222zM438 486h450l-224 628z" />
    <glyph glyph-name="uni01CE" unicode="&#x1ce;" 
d="M502 1080l-322 332h174l148 -160l150 160h174zM409 -20q-151 0 -246.5 83.5t-95.5 228.5q0 291 420 291h243q0 125 -55 196.5t-168 71.5q-162 0 -257 -146l-145 108q149 207 397 207q194 0 302 -112t108 -298v-610h-161l-10 169q-108 -189 -332 -189zM434 144
q125 0 209.5 91t86.5 205h-229q-235 0 -235 -154q0 -69 45.5 -105.5t122.5 -36.5z" />
    <glyph glyph-name="uni01CF" unicode="&#x1cf;" horiz-adv-x="599" 
d="M298 1493l-322 332h174l148 -160l150 160h174zM198 0v1413h203v-1413h-203z" />
    <glyph glyph-name="uni01D0" unicode="&#x1d0;" horiz-adv-x="508" 
d="M253 1080l-322 332h174l148 -160l150 160h174zM158 0v999h193v-999h-193z" />
    <glyph glyph-name="uni01D1" unicode="&#x1d1;" horiz-adv-x="1521" 
d="M759 1493l-322 332h174l148 -160l150 160h174zM760 -20q-131 0 -239.5 38.5t-185 105.5t-129 159t-77.5 199t-25 225t25 224.5t77.5 199t129 159.5t185 105.5t239.5 38.5t240 -38.5t185.5 -105.5t129 -159.5t77.5 -199t25 -224.5t-25 -225t-77.5 -199t-129 -159
t-185.5 -105.5t-240 -38.5zM760 163q117 0 206 44t141 121.5t77.5 172.5t25.5 206q0 88 -15.5 166t-50 148t-86 120t-128 79.5t-170.5 29.5t-170 -29.5t-127.5 -79.5t-85.5 -120t-49.5 -148t-15.5 -166q0 -111 25.5 -206t77 -172.5t140 -121.5t205.5 -44z" />
    <glyph glyph-name="uni01D2" unicode="&#x1d2;" horiz-adv-x="1123" 
d="M560 1080l-322 332h174l148 -160l150 160h174zM560 -20q-144 0 -257 71.5t-173.5 190t-60.5 260.5t60.5 259.5t173.5 188t257 70.5q143 0 257 -70.5t175 -188.5t61 -259q0 -142 -61 -260.5t-175 -190t-257 -71.5zM561 144q74 0 131.5 30t91.5 81t51.5 114t17.5 133
q0 71 -17 133t-51.5 112t-92 79t-131.5 29q-98 0 -165.5 -51t-97 -128.5t-29.5 -173.5q0 -56 10.5 -108t33.5 -97.5t56.5 -79.5t83 -53.5t108.5 -19.5z" />
    <glyph glyph-name="uni01D3" unicode="&#x1d3;" horiz-adv-x="1366" 
d="M682 1493l-322 332h174l148 -160l150 160h174zM682 -20q-133 0 -233.5 42t-161 118t-90 174.5t-29.5 219.5v879h203v-842q0 -93 15 -162t49 -123.5t96 -82.5t151 -28t151 28t97 82.5t50 123.5t15 162v842h204v-869q0 -124 -30 -225t-91.5 -178t-162 -119t-233.5 -42z" />
    <glyph glyph-name="uni01D4" unicode="&#x1d4;" horiz-adv-x="1140" 
d="M566 1080l-322 332h174l148 -160l150 160h174zM483 -21q-179 0 -266.5 125t-87.5 340v555h196v-564q0 -62 8.5 -110t29 -89.5t60.5 -64t98 -22.5q113 0 190 88t77 257v505h195v-999h-195v145q-44 -72 -125 -119t-180 -47z" />
    <glyph glyph-name="uni01D5" unicode="&#x1d5;" horiz-adv-x="1366" 
d="M409 1993v134h549v-134h-549zM416 1618v208h186v-208h-186zM761 1618v208h186v-208h-186zM682 -20q-133 0 -233.5 42t-161 118t-90 174.5t-29.5 219.5v879h203v-842q0 -93 15 -162t49 -123.5t96 -82.5t151 -28t151 28t97 82.5t50 123.5t15 162v842h204v-869
q0 -124 -30 -225t-91.5 -178t-162 -119t-233.5 -42z" />
    <glyph glyph-name="uni01D6" unicode="&#x1d6;" horiz-adv-x="1140" 
d="M293 1580v134h549v-134h-549zM300 1205v208h186v-208h-186zM645 1205v208h186v-208h-186zM483 -21q-179 0 -266.5 125t-87.5 340v555h196v-564q0 -62 8.5 -110t29 -89.5t60.5 -64t98 -22.5q113 0 190 88t77 257v505h195v-999h-195v145q-44 -72 -125 -119t-180 -47z" />
    <glyph glyph-name="uni01D7" unicode="&#x1d7;" horiz-adv-x="1366" 
d="M576 1951l221 289h225l-291 -289h-155zM416 1618v208h186v-208h-186zM761 1618v208h186v-208h-186zM682 -20q-133 0 -233.5 42t-161 118t-90 174.5t-29.5 219.5v879h203v-842q0 -93 15 -162t49 -123.5t96 -82.5t151 -28t151 28t97 82.5t50 123.5t15 162v842h204v-869
q0 -124 -30 -225t-91.5 -178t-162 -119t-233.5 -42z" />
    <glyph glyph-name="uni01D8" unicode="&#x1d8;" horiz-adv-x="1140" 
d="M460 1538l221 289h225l-291 -289h-155zM300 1205v208h186v-208h-186zM645 1205v208h186v-208h-186zM483 -21q-179 0 -266.5 125t-87.5 340v555h196v-564q0 -62 8.5 -110t29 -89.5t60.5 -64t98 -22.5q113 0 190 88t77 257v505h195v-999h-195v145q-44 -72 -125 -119
t-180 -47z" />
    <glyph glyph-name="uni01D9" unicode="&#x1d9;" horiz-adv-x="1366" 
d="M682 1907l-322 332h174l148 -160l150 160h174zM416 1618v208h186v-208h-186zM761 1618v208h186v-208h-186zM682 -20q-133 0 -233.5 42t-161 118t-90 174.5t-29.5 219.5v879h203v-842q0 -93 15 -162t49 -123.5t96 -82.5t151 -28t151 28t97 82.5t50 123.5t15 162v842h204
v-869q0 -124 -30 -225t-91.5 -178t-162 -119t-233.5 -42z" />
    <glyph glyph-name="uni01DA" unicode="&#x1da;" horiz-adv-x="1140" 
d="M566 1494l-322 332h174l148 -160l150 160h174zM300 1205v208h186v-208h-186zM645 1205v208h186v-208h-186zM483 -21q-179 0 -266.5 125t-87.5 340v555h196v-564q0 -62 8.5 -110t29 -89.5t60.5 -64t98 -22.5q113 0 190 88t77 257v505h195v-999h-195v145q-44 -72 -125 -119
t-180 -47z" />
    <glyph glyph-name="uni01DB" unicode="&#x1db;" horiz-adv-x="1366" 
d="M614 1940l-281 300h224l221 -300h-164zM416 1618v208h186v-208h-186zM761 1618v208h186v-208h-186zM682 -20q-133 0 -233.5 42t-161 118t-90 174.5t-29.5 219.5v879h203v-842q0 -93 15 -162t49 -123.5t96 -82.5t151 -28t151 28t97 82.5t50 123.5t15 162v842h204v-869
q0 -124 -30 -225t-91.5 -178t-162 -119t-233.5 -42z" />
    <glyph glyph-name="uni01DC" unicode="&#x1dc;" horiz-adv-x="1140" 
d="M498 1527l-281 300h224l221 -300h-164zM300 1205v208h186v-208h-186zM645 1205v208h186v-208h-186zM483 -21q-179 0 -266.5 125t-87.5 340v555h196v-564q0 -62 8.5 -110t29 -89.5t60.5 -64t98 -22.5q113 0 190 88t77 257v505h195v-999h-195v145q-44 -72 -125 -119
t-180 -47z" />
    <glyph glyph-name="uni01DD" unicode="&#x1dd;" 
d="M514 -12q-100 0 -178 29t-127.5 77.5t-81.5 117t-45 141.5t-13 158q0 12 1.5 24.5t3 20t1.5 8.5h691q-6 125 -76.5 198.5t-190.5 73.5q-89 0 -150.5 -21.5t-116.5 -78.5l-133 112q83 87 178.5 125.5t218.5 38.5q116 0 208 -41t149.5 -111t87.5 -160.5t30 -193.5
q0 -81 -17.5 -156.5t-54.5 -141.5t-90 -114.5t-129 -77t-166 -28.5zM514 154q116 0 179 73t73 189h-509q6 -123 70.5 -192.5t186.5 -69.5z" />
    <glyph glyph-name="uni01E3" unicode="&#x1e3;" horiz-adv-x="1679" 
d="M562 1173v129h546v-129h-546zM402 -20q-139 0 -237 84t-98 220q0 155 102.5 227.5t277.5 72.5h293q0 132 -56.5 201.5t-183.5 69.5q-79 0 -145 -39.5t-106 -97.5l-141 98q74 101 171 150.5t229 49.5q117 0 201.5 -46.5t129.5 -131.5q114 174 327 174q97 0 173.5 -29
t125.5 -77.5t80.5 -117t44.5 -142t13 -157.5q0 -30 -5 -53h-692q7 -125 77.5 -198.5t190.5 -73.5q88 0 150.5 22t116.5 79l133 -114q-83 -87 -178.5 -125t-219.5 -38q-268 0 -369 224q-127 -232 -405 -232zM907 584h509q-7 125 -72.5 193t-185.5 68q-116 0 -179 -72.5
t-72 -188.5zM441 142q119 0 205.5 88t93.5 206h-279q-90 0 -146.5 -41t-56.5 -111q0 -64 54.5 -103t128.5 -39z" />
    <glyph glyph-name="uni01EB" unicode="&#x1eb;" horiz-adv-x="1123" 
d="M687 -4q-19 -8 -39 -17.5t-52 -31t-56 -44t-42 -56.5t-18 -69q0 -50 22.5 -74t57.5 -24q70 0 113 61l107 -74q-79 -118 -212 -118q-94 0 -154.5 56.5t-60.5 148.5q0 81 46.5 139t105.5 90q-195 20 -315.5 168t-120.5 351q0 142 60.5 259.5t173.5 188t257 70.5
q143 0 257 -70.5t175 -188.5t61 -259q0 -182 -100 -322.5t-266 -183.5zM269 502q0 -56 10.5 -108t33.5 -97.5t56.5 -79.5t83 -53.5t108.5 -19.5q74 0 131.5 30t91.5 81t51.5 114t17.5 133q0 71 -17 133t-51.5 112t-92 79t-131.5 29q-98 0 -165.5 -51t-97 -128.5
t-29.5 -173.5z" />
    <glyph glyph-name="uni01F1" unicode="&#x1f1;" horiz-adv-x="2660" 
d="M198 0v1413h383q352 0 537.5 -185t185.5 -532q0 -333 -188.5 -514.5t-536.5 -181.5h-381zM1461 0v148l845 1083h-800v182h1067v-155l-841 -1074h841v-184h-1112zM401 186h154q123 0 221 29.5t172 91t113.5 163t39.5 237.5q0 265 -127 393t-397 128h-176v-1042z" />
    <glyph glyph-name="uni01F2" unicode="&#x1f2;" horiz-adv-x="2375" 
d="M581 1413q352 0 537.5 -185t185.5 -532q0 -333 -188.5 -514.5t-536.5 -181.5h-381v1413h383zM555 186q123 0 221 29.5t172 91t113.5 163t39.5 237.5q0 265 -127 393t-397 128h-176v-1042h154zM2301 999v-147l-573 -688h573v-164h-830v136l590 702h-561v161h801z" />
    <glyph glyph-name="uni01F3" unicode="&#x1f3;" horiz-adv-x="2113" 
d="M794 880v533h195v-1413h-184l-6 125q-105 -145 -303 -145q-129 0 -225 72t-143 188.5t-47 259.5t47 259.5t142.5 188.5t223.5 72q195 0 300 -140zM2039 999v-147l-573 -688h573v-164h-830v136l590 702h-561v161h801zM545 150q90 0 151 49t87.5 125.5t26.5 175.5
q0 151 -66.5 250t-198.5 99q-89 0 -151 -49.5t-89 -126.5t-27 -173q0 -151 67.5 -250.5t199.5 -99.5z" />
    <glyph glyph-name="Scommaaccent" unicode="&#x218;" horiz-adv-x="1123" 
d="M578 -16q-123 0 -230 42.5t-184.5 134t-98.5 218.5l197 53q14 -131 102.5 -199t215.5 -68q122 0 192 57.5t70 160.5q0 53 -23.5 95.5t-63 72.5t-90.5 56t-108 49t-113.5 48t-107.5 57.5t-90.5 72.5t-63 98t-23.5 129q0 169 118.5 271t291.5 102q131 0 237 -58t173 -175
l-162 -103q-40 76 -106.5 116.5t-146.5 40.5q-85 0 -144.5 -50t-59.5 -131q0 -47 23.5 -85t63 -65.5t90.5 -51.5t107.5 -47.5t113 -49.5t107.5 -60.5t90.5 -76.5t63 -103t23.5 -135q0 -188 -132 -302t-332 -114zM324 -452l129 343h231l-237 -343h-123z" />
    <glyph glyph-name="scommaaccent" unicode="&#x219;" horiz-adv-x="888" 
d="M446 -20q-144 0 -251 75.5t-144 187.5l158 74q61 -177 232 -177q83 0 131.5 40t48.5 103q0 45 -28.5 76t-74 49t-101 33.5t-110.5 36t-100.5 49t-74 79.5t-28.5 121q0 139 99 216t243 77q119 0 209.5 -55t142.5 -153l-147 -81q-70 135 -212 135q-69 0 -111 -32t-42 -82
q0 -39 29 -66.5t75 -44.5t102 -33t112 -38.5t102 -54t75 -87t29 -129.5q0 -79 -31 -141.5t-83.5 -100.5t-116.5 -57.5t-133 -19.5zM245 -452l129 343h231l-237 -343h-123z" />
    <glyph glyph-name="uni021A" unicode="&#x21a;" horiz-adv-x="1208" 
d="M502 0v1237h-461v176h1126v-176h-461v-1237h-204zM373 -452l129 343h231l-237 -343h-123z" />
    <glyph glyph-name="uni021B" unicode="&#x21b;" horiz-adv-x="711" 
d="M471 -20q-136 0 -205.5 77t-69.5 213v568h-161v161h163v236l190 156v-392h253v-161h-253v-548q0 -74 33 -109t87 -35q57 0 119 31v-172q-60 -25 -156 -25zM235 -452l129 343h231l-237 -343h-123z" />
    <glyph glyph-name="uni0237" unicode="&#x237;" horiz-adv-x="510" 
d="M75 -438q-79 0 -157 32l42 152q58 -15 112 -15q89 0 89 117v1151h189v-1136q0 -136 -69 -218.5t-206 -82.5z" />
    <glyph glyph-name="uni0250" unicode="&#x250;" horiz-adv-x="1074" 
d="M564 -20q-191 0 -298.5 110t-107.5 295v610h154l17 -161q65 97 146.5 139.5t195.5 42.5q140 0 239.5 -85.5t99.5 -221.5q0 -80 -29 -138.5t-82 -92.5t-121 -50t-153 -16h-287q0 -262 234 -262q78 0 144 40.5t104 100.5l145 -109q-74 -102 -170.5 -152t-230.5 -50z
M338 560h273q88 0 144 41t56 108q0 68 -51 103t-131 35q-120 0 -204.5 -87t-86.5 -200z" />
    <glyph glyph-name="uni0254" unicode="&#x254;" horiz-adv-x="984" 
d="M458 -20q-140 0 -247 72.5t-163 202.5l184 74q22 -80 82.5 -127t143.5 -47q55 0 99.5 20t73.5 53t48.5 78t28 92.5t8.5 99.5q0 66 -14 124.5t-43 108.5t-80.5 79.5t-120.5 29.5q-83 0 -143.5 -47t-82.5 -127l-172 69q47 134 150.5 207.5t245.5 73.5q111 0 200 -43
t144 -115.5t84 -164.5t29 -195q0 -81 -17.5 -156.5t-54.5 -141.5t-90 -114.5t-128 -77t-165 -28.5z" />
    <glyph glyph-name="uni0258" unicode="&#x258;" 
d="M496 -12q-123 0 -218.5 38t-178.5 125l133 114q55 -57 116.5 -79t150.5 -22q120 0 190.5 73.5t76.5 198.5h-691q-6 33 -6 53q0 84 13 157.5t45 142t81.5 117t127.5 77.5t178 29q90 0 166 -28.5t129 -77t90 -114.5t54.5 -141.5t17.5 -156.5q0 -103 -30 -193.5
t-87.5 -160.5t-149.5 -111t-208 -41zM257 584h509q-10 116 -73.5 188.5t-178.5 72.5q-122 0 -186.5 -69t-70.5 -192z" />
    <glyph glyph-name="uni0259" unicode="&#x259;" 
d="M514 -12q-100 0 -178 29t-127.5 77.5t-81.5 117t-45 141.5t-13 158q0 12 1.5 24.5t3 20t1.5 8.5h691q-6 125 -76.5 198.5t-190.5 73.5q-89 0 -150.5 -21.5t-116.5 -78.5l-133 112q83 87 178.5 125.5t218.5 38.5q116 0 208 -41t149.5 -111t87.5 -160.5t30 -193.5
q0 -81 -17.5 -156.5t-54.5 -141.5t-90 -114.5t-129 -77t-166 -28.5zM514 154q116 0 179 73t73 189h-509q6 -123 70.5 -192.5t186.5 -69.5z" />
    <glyph glyph-name="uni0261" unicode="&#x261;" horiz-adv-x="1135" 
d="M977 0q0 -204 -116.5 -320t-327.5 -116q-279 0 -418 206l149 109q40 -68 109.5 -107t160.5 -39q120 0 184 69.5t64 197.5v131q-98 -131 -291 -131q-101 0 -182.5 40.5t-133 110.5t-79 161.5t-27.5 196.5q0 141 47 255.5t143 185t226 70.5q91 0 169 -36t128 -104v119h195
v-999zM534 176q132 0 198 93.5t66 240.5q0 69 -15.5 128.5t-46.5 106.5t-82.5 74t-119.5 27q-132 0 -199.5 -95.5t-67.5 -240.5q0 -146 67.5 -240t199.5 -94z" />
    <glyph glyph-name="circumflex" unicode="&#x2c6;" horiz-adv-x="705" 
d="M27 1098l323 354l323 -354h-173l-150 167l-148 -167h-175z" />
    <glyph glyph-name="caron" unicode="&#x2c7;" horiz-adv-x="708" 
d="M354 1080l-322 332h174l148 -160l150 160h174z" />
    <glyph glyph-name="uni02D0" unicode="&#x2d0;" horiz-adv-x="545" 
d="M283 583l-240 416l449 20zM53 -20l209 436l241 -416z" />
    <glyph glyph-name="uni02D1" unicode="&#x2d1;" horiz-adv-x="557" 
d="M289 240l-240 417l450 20z" />
    <glyph glyph-name="breve" unicode="&#x2d8;" horiz-adv-x="821" 
d="M409 1143q-150 0 -230.5 70t-80.5 200h153q0 -66 45 -104.5t113 -38.5q69 0 113 38.5t44 104.5h153q0 -132 -81.5 -201t-228.5 -69z" />
    <glyph glyph-name="dotaccent" unicode="&#x2d9;" horiz-adv-x="519" 
d="M159 1205v208h212v-208h-212z" />
    <glyph glyph-name="ring" unicode="&#x2da;" horiz-adv-x="634" 
d="M314 1074q-91 0 -153 64t-62 153t62.5 152t152.5 63q89 0 153 -62.5t64 -152.5t-63 -153.5t-154 -63.5zM314 1191q43 0 72 29t29 72q0 42 -28 69.5t-73 27.5q-44 0 -71 -27t-27 -70q0 -44 28 -72.5t70 -28.5z" />
    <glyph glyph-name="ogonek" unicode="&#x2db;" horiz-adv-x="583" 
d="M312 -451q-94 0 -154.5 56.5t-60.5 148.5q0 55 24 102.5t59 76.5t62.5 45.5t44.5 21.5h155q-11 -4 -27.5 -11t-53 -28t-64.5 -45t-50.5 -61t-22.5 -77q0 -50 22.5 -74t57.5 -24q70 0 113 61l107 -74q-79 -118 -212 -118z" />
    <glyph glyph-name="tilde" unicode="&#x2dc;" horiz-adv-x="865" 
d="M594 1139q-40 0 -74.5 15.5t-57.5 37.5t-42.5 44t-40.5 37.5t-42 15.5q-68 0 -68 -137h-118q0 124 50 195.5t139 71.5q40 0 74 -15.5t57 -37.5t43 -44.5t41 -38t41 -15.5q67 0 67 145h124q0 -132 -51 -203t-142 -71z" />
    <glyph glyph-name="hungarumlaut" unicode="&#x2dd;" horiz-adv-x="873" 
d="M52 1103l221 310h203l-269 -310h-155zM391 1103l221 310h224l-291 -310h-154z" />
    <glyph glyph-name="uni02F5" unicode="&#x2f5;" horiz-adv-x="1174" 
d="M613 999l218 -304h-226l-274 304h282z" />
    <glyph glyph-name="uni02F6" unicode="&#x2f6;" horiz-adv-x="1174" 
d="M843 999l-274 -304h-226l219 304h281z" />
    <glyph glyph-name="gravecomb" unicode="&#x300;" horiz-adv-x="0" 
d="M-215 1113l-281 300h224l221 -300h-164z" />
    <glyph glyph-name="acutecomb" unicode="&#x301;" horiz-adv-x="0" 
d="M-484 1124l221 289h225l-291 -289h-155z" />
    <glyph glyph-name="uni0302" unicode="&#x302;" horiz-adv-x="0" 
d="M-676 1098l323 354l323 -354h-173l-150 167l-148 -167h-175z" />
    <glyph glyph-name="tildecomb" unicode="&#x303;" horiz-adv-x="0" 
d="M-308 1139q-40 0 -74.5 15.5t-57.5 37.5t-42.5 44t-40.5 37.5t-42 15.5q-68 0 -68 -137h-118q0 124 50 195.5t139 71.5q40 0 74 -15.5t57 -37.5t43 -44.5t41 -38t41 -15.5q67 0 67 145h124q0 -132 -51 -203t-142 -71z" />
    <glyph glyph-name="uni0304" unicode="&#x304;" horiz-adv-x="0" 
d="M-700 1166v134h549v-134h-549z" />
    <glyph glyph-name="uni0306" unicode="&#x306;" horiz-adv-x="0" 
d="M-410 1143q-150 0 -230.5 70t-80.5 200h153q0 -66 45 -104.5t113 -38.5q69 0 113 38.5t44 104.5h153q0 -132 -81.5 -201t-228.5 -69z" />
    <glyph glyph-name="uni0307" unicode="&#x307;" horiz-adv-x="0" 
d="M-366 1205v208h212v-208h-212z" />
    <glyph glyph-name="uni0308" unicode="&#x308;" horiz-adv-x="0" 
d="M-684 1205v208h186v-208h-186zM-339 1205v208h186v-208h-186z" />
    <glyph glyph-name="uni030A" unicode="&#x30a;" horiz-adv-x="0" 
d="M-318 1074q-91 0 -153 64t-62 153t62.5 152t152.5 63q89 0 153 -62.5t64 -152.5t-63 -153.5t-154 -63.5zM-318 1191q43 0 72 29t29 72q0 42 -28 69.5t-73 27.5q-44 0 -71 -27t-27 -70q0 -44 28 -72.5t70 -28.5z" />
    <glyph glyph-name="uni030B" unicode="&#x30b;" horiz-adv-x="0" 
d="M-821 1103l221 310h203l-269 -310h-155zM-482 1103l221 310h224l-291 -310h-154z" />
    <glyph glyph-name="uni030C" unicode="&#x30c;" horiz-adv-x="0" 
d="M-354 1080l-322 332h174l148 -160l150 160h174z" />
    <glyph glyph-name="uni030F" unicode="&#x30f;" horiz-adv-x="0" 
d="M-575 1103l-281 310h234l221 -310h-174zM-227 1103l-280 310h234l221 -310h-175z" />
    <glyph glyph-name="uni0312" unicode="&#x312;" horiz-adv-x="0" 
d="M-94 1428l-129 -307h-231l237 307h123z" />
    <glyph glyph-name="uni031B" unicode="&#x31b;" horiz-adv-x="0" 
d="M-409 999l130 414h231l-238 -414h-123z" />
    <glyph glyph-name="uni0326" unicode="&#x326;" horiz-adv-x="0" 
d="M-408 -452l129 343h231l-237 -343h-123z" />
    <glyph glyph-name="uni0327" unicode="&#x327;" horiz-adv-x="0" 
d="M-309 -513q-62 0 -114 36t-74 91l116 54q6 -25 28 -43t50 -18q40 0 65 25t25 63q0 49 -47.5 83.5t-130.5 34.5h-54l109 186h131l-72 -108q91 -7 139.5 -58.5t48.5 -129.5q0 -89 -62 -152.5t-158 -63.5z" />
    <glyph glyph-name="uni0328" unicode="&#x328;" horiz-adv-x="0" 
d="M-271 -451q-94 0 -154.5 56.5t-60.5 148.5q0 55 24 102.5t59 76.5t62.5 45.5t44.5 21.5h155q-11 -4 -27.5 -11t-53 -28t-64.5 -45t-50.5 -61t-22.5 -77q0 -50 22.5 -74t57.5 -24q70 0 113 61l107 -74q-79 -118 -212 -118z" />
    <glyph glyph-name="pi" unicode="&#x3c0;" horiz-adv-x="996" 
d="M830 -20q-99 0 -159 69t-60 174v600h-257v-823h-176v823h-82v176h773v-176h-82v-581q0 -111 59 -111q24 0 48 16l52 -134q-52 -33 -116 -33z" />
    <glyph glyph-name="uni0400" unicode="&#x400;" horiz-adv-x="1242" 
d="M576 1526l-281 300h224l221 -300h-164zM198 0v1413h927v-182h-724v-434h649v-180h-649v-428h724v-189h-927z" />
    <glyph glyph-name="uni0401" unicode="&#x401;" horiz-adv-x="1242" 
d="M378 1618v208h186v-208h-186zM723 1618v208h186v-208h-186zM198 0v1413h927v-182h-724v-434h649v-180h-649v-428h724v-189h-927z" />
    <glyph glyph-name="uni0402" unicode="&#x402;" horiz-adv-x="1621" 
d="M1118 -19q-86 0 -174.5 35.5t-144.5 91.5l111 139q71 -77 186 -77q105 0 169.5 72t64.5 193q0 191 -69 281t-244 90q-103 0 -183 -38t-128 -95v-673h-203v1237h-462v175h1126v-175h-461v-336q138 100 311 100q264 0 390.5 -143.5t126.5 -412.5q0 -218 -114 -341
t-302 -123z" />
    <glyph glyph-name="uni0403" unicode="&#x403;" horiz-adv-x="1067" 
d="M460 1537l219 289h213l-286 -289h-146zM198 0v1412h827v-181h-624v-1231h-203z" />
    <glyph glyph-name="uni0404" unicode="&#x404;" horiz-adv-x="1425" 
d="M762 -20q-163 0 -290.5 58t-206.5 159t-119.5 230.5t-40.5 279.5q0 119 25 226.5t77.5 199.5t128.5 159.5t184.5 105.5t239.5 38q205 0 358.5 -100t236.5 -290l-188 -76q-41 142 -148.5 208t-260.5 66q-105 0 -187.5 -35t-135.5 -97t-84 -141.5t-40 -175.5h601v-171h-600
q20 -205 132.5 -329t317.5 -124q148 0 249 66t158 212l188 -78q-81 -190 -235.5 -290.5t-359.5 -100.5z" />
    <glyph glyph-name="uni0405" unicode="&#x405;" horiz-adv-x="1123" 
d="M578 -16q-123 0 -230 42.5t-184.5 134t-98.5 218.5l197 53q14 -131 102.5 -199t215.5 -68q122 0 192 57.5t70 160.5q0 53 -23.5 95.5t-63 72.5t-90.5 56t-108 49t-113.5 48t-107.5 57.5t-90.5 72.5t-63 98t-23.5 129q0 169 118.5 271t291.5 102q131 0 237 -58t173 -175
l-162 -103q-40 76 -106.5 116.5t-146.5 40.5q-85 0 -144.5 -50t-59.5 -131q0 -47 23.5 -85t63 -65.5t90.5 -51.5t107.5 -47.5t113 -49.5t107.5 -60.5t90.5 -76.5t63 -103t23.5 -135q0 -188 -132 -302t-332 -114z" />
    <glyph glyph-name="uni0406" unicode="&#x406;" horiz-adv-x="599" 
d="M198 0v1412h203v-1412h-203z" />
    <glyph glyph-name="uni0407" unicode="&#x407;" horiz-adv-x="598" 
d="M37 1583v180h179v-180h-179zM379 1583v180h179v-180h-179zM198 0v1412h203v-1412h-203z" />
    <glyph glyph-name="uni0408" unicode="&#x408;" horiz-adv-x="1128" 
d="M504 -20q-133 0 -234 60t-155 157.5t-63 219.5l200 25q5 -77 31.5 -137t83 -100t137.5 -40q60 0 104.5 16t72 43.5t44 70.5t22.5 90.5t6 109.5v736h-533v181h736v-909q0 -118 -25 -211t-77.5 -164.5t-141 -109.5t-208.5 -38z" />
    <glyph glyph-name="uni0409" unicode="&#x409;" horiz-adv-x="1980" 
d="M221 -20q-101 0 -189 51l66 165q69 -23 112 -23q39 0 67.5 72.5t42 189.5t19 228t5.5 224v525h878v-613h217q215 0 344 -104t129 -292t-129.5 -295.5t-343.5 -107.5h-418v1231h-474v-343q0 -72 -0.5 -120.5t-4 -128.5t-9 -136.5t-17 -130t-27.5 -125t-41 -105.5
t-56.5 -87t-75 -54t-95.5 -21zM1222 186h217q134 0 204 56.5t70 160.5q0 210 -274 210h-217v-427z" />
    <glyph glyph-name="uni040A" unicode="&#x40a;" horiz-adv-x="2030" 
d="M198 0v1412h203v-615h669v615h204v-613h215q215 0 344.5 -104t129.5 -292t-130 -295.5t-344 -107.5h-419v616h-669v-616h-203zM1274 186h215q134 0 203.5 56.5t69.5 160.5q0 210 -273 210h-215v-427z" />
    <glyph glyph-name="uni040B" unicode="&#x40b;" horiz-adv-x="1643" 
d="M503 0v1237h-462v175h1126v-175h-461v-336q128 100 311 100q134 0 234.5 -42.5t161.5 -121.5t91 -185t30 -240v-412h-204v401q0 97 -15 168t-49.5 126t-96.5 83t-152 28q-103 0 -183 -38t-128 -95v-673h-203z" />
    <glyph glyph-name="uni040C" unicode="&#x40c;" horiz-adv-x="1306" 
d="M519 1537l219 289h214l-287 -289h-146zM198 0v1412h203v-544h159l359 544h266l-416 -588q42 0 82.5 -21.5t70.5 -55.5t51 -67t34 -63l252 -617h-248l-185 521q-21 58 -71 111t-119 53h-235v-685h-203z" />
    <glyph glyph-name="uni040D" unicode="&#x40d;" horiz-adv-x="1471" 
d="M861 1529h-159l-273 297h214zM1029 1412h244v-1412h-203v1066q0 27 2 85l-631 -1151h-243v1412h203v-1049q0 -51 -3 -103z" />
    <glyph glyph-name="uni040E" unicode="&#x40e;" horiz-adv-x="1113" 
d="M550 1555q-145 0 -226.5 70.5t-81.5 200.5h146q0 -68 46.5 -107.5t115.5 -39.5q70 0 116.5 40t46.5 107h146q0 -131 -82.5 -201t-226.5 -70zM242 0l195 457l-398 955h218l287 -736l310 736h219l-616 -1412h-215z" />
    <glyph glyph-name="uni040F" unicode="&#x40f;" horiz-adv-x="1471" 
d="M634 -307v307h-436v1412h203v-1230h669v1230h203v-1412h-436v-307h-203z" />
    <glyph glyph-name="uni0410" unicode="&#x410;" horiz-adv-x="1323" 
d="M39 0l546 1412h154l544 -1412h-218l-110 307h-584l-111 -307h-221zM438 486h450l-225 628z" />
    <glyph glyph-name="uni0411" unicode="&#x411;" horiz-adv-x="1258" 
d="M198 0v1412h782v-183h-579v-412h317q213 0 326.5 -111t113.5 -308q0 -183 -130 -290.5t-325 -107.5h-505zM401 191h306q109 0 179 61t70 166q0 98 -72 158.5t-180 60.5h-303v-446z" />
    <glyph glyph-name="uni0412" unicode="&#x412;" horiz-adv-x="1257" 
d="M198 0v1413h437q87 0 164.5 -20t144 -61t105.5 -114t39 -169q0 -103 -47.5 -179t-123.5 -119q107 -45 173.5 -140t66.5 -219q0 -98 -38 -175t-103 -123.5t-144.5 -70t-168.5 -23.5h-505zM400 816h247q69 0 121.5 19.5t87.5 69.5t35 126q0 105 -69.5 152t-183.5 47h-238
v-414zM400 191h307q114 0 182 52t68 167q0 112 -70.5 170t-182.5 58h-304v-447z" />
    <glyph glyph-name="uni0413" unicode="&#x413;" horiz-adv-x="1067" 
d="M198 0v1412h827v-181h-624v-1231h-203z" />
    <glyph glyph-name="uni0414" unicode="&#x414;" horiz-adv-x="1469" 
d="M41 -278v452h136l475 1239h162l477 -1239h136v-452h-202v278h-981v-278h-203zM392 174h682l-341 935z" />
    <glyph glyph-name="uni0415" unicode="&#x415;" horiz-adv-x="1242" 
d="M198 0v1413h927v-182h-724v-434h649v-180h-649v-428h724v-189h-927z" />
    <glyph glyph-name="uni0416" unicode="&#x416;" horiz-adv-x="2019" 
d="M50 0l252 617q13 31 34 63.5t51 66.5t70.5 55.5t82.5 21.5l-416 588h265l360 -544h159v544h203v-544h159l359 544h266l-416 -588q42 0 82.5 -21.5t70.5 -55.5t51.5 -66.5t34.5 -63.5l251 -617h-248l-184 521q-22 63 -71.5 113.5t-118.5 50.5h-236v-685h-203v685h-235
q-70 0 -118 -49t-72 -115l-185 -521h-248z" />
    <glyph glyph-name="uni0417" unicode="&#x417;" horiz-adv-x="1113" 
d="M513 -20q-149 0 -268.5 56.5t-178.5 164.5l164 109q33 -78 108.5 -116t174.5 -38q125 0 211 68t86 190q0 119 -84 183.5t-213 64.5h-150l-2 176h158q100 0 165 54.5t65 147.5q0 99 -66 156t-166 57q-89 0 -155.5 -47.5t-72.5 -131.5h-199q6 166 128.5 263t296.5 97
q114 0 209.5 -43t155 -129.5t59.5 -201.5q0 -100 -44.5 -177.5t-126.5 -119.5q109 -40 176 -132.5t67 -231.5q0 -103 -40.5 -185t-110.5 -132t-158.5 -76t-188.5 -26z" />
    <glyph glyph-name="uni0418" unicode="&#x418;" horiz-adv-x="1435" 
d="M1237 0h-198v1127l-598 -1127h-243v1413h198v-1125l601 1125h240v-1413z" />
    <glyph glyph-name="uni0419" unicode="&#x419;" horiz-adv-x="1471" 
d="M756 1555q-145 0 -226.5 70.5t-81.5 200.5h146q0 -68 46.5 -107.5t115.5 -39.5q70 0 116.5 40t46.5 107h146q0 -131 -82.5 -201t-226.5 -70zM1029 1412h244v-1412h-203v1066q0 27 2 85l-631 -1151h-243v1412h203v-1049q0 -51 -3 -103z" />
    <glyph glyph-name="uni041A" unicode="&#x41a;" horiz-adv-x="1306" 
d="M198 0v1412h203v-544h159l359 544h266l-416 -588q42 0 82.5 -21.5t70.5 -55.5t51 -67t34 -63l252 -617h-248l-185 521q-21 58 -71 111t-119 53h-235v-685h-203z" />
    <glyph glyph-name="uni041B" unicode="&#x41b;" horiz-adv-x="1334" 
d="M39 0l546 1413h162l548 -1413h-219l-410 1109l-407 -1109h-220z" />
    <glyph glyph-name="uni041C" unicode="&#x41c;" horiz-adv-x="1779" 
d="M198 0v1413h298l392 -1074l395 1074h298v-1413h-198v1173l-390 -1050h-207l-390 1050v-1173h-198z" />
    <glyph glyph-name="uni041D" unicode="&#x41d;" horiz-adv-x="1472" 
d="M198 0v1413h203v-616h669v616h204v-1413h-204v617h-669v-617h-203z" />
    <glyph glyph-name="uni041E" unicode="&#x41e;" horiz-adv-x="1521" 
d="M760 -20q-131 0 -239.5 38.5t-185 105.5t-129 159t-77.5 199t-25 225t25 224.5t77.5 199t129 159.5t185 105.5t239.5 38.5t240 -38.5t185.5 -105.5t129 -159.5t77.5 -199t25 -224.5t-25 -225t-77.5 -199t-129 -159t-185.5 -105.5t-240 -38.5zM760 163q117 0 206 44
t141 121.5t77.5 172.5t25.5 206q0 88 -15.5 166t-50 148t-86 120t-128 79.5t-170.5 29.5t-170 -29.5t-127.5 -79.5t-85.5 -120t-49.5 -148t-15.5 -166q0 -111 25.5 -206t77 -172.5t140 -121.5t205.5 -44z" />
    <glyph glyph-name="uni041F" unicode="&#x41f;" horiz-adv-x="1471" 
d="M198 0v1412h1075v-1412h-203v1231h-669v-1231h-203z" />
    <glyph glyph-name="uni0420" unicode="&#x420;" horiz-adv-x="1157" 
d="M198 0v1412h418q214 0 344 -107t130 -295t-129.5 -292.5t-344.5 -104.5h-216v-613h-202zM400 800h216q274 0 274 210q0 103 -70 160t-204 57h-216v-427z" />
    <glyph glyph-name="uni0421" unicode="&#x421;" horiz-adv-x="1425" 
d="M762 -20q-163 0 -290.5 58t-206.5 159t-119.5 230.5t-40.5 279.5q0 119 25 226.5t77.5 199.5t128.5 159.5t184.5 105.5t239.5 38q205 0 358.5 -100t236.5 -290l-188 -76q-41 142 -148.5 208t-260.5 66q-116 0 -204.5 -42t-141.5 -115.5t-79.5 -167t-26.5 -202.5
q0 -116 26.5 -213t80 -172.5t143 -118t206.5 -42.5q148 0 249 66t158 212l188 -78q-81 -190 -235.5 -290.5t-359.5 -100.5z" />
    <glyph glyph-name="uni0422" unicode="&#x422;" horiz-adv-x="1208" 
d="M503 0v1237h-462v175h1126v-175h-462v-1237h-202z" />
    <glyph glyph-name="uni0423" unicode="&#x423;" horiz-adv-x="1113" 
d="M242 0l195 457l-398 955h218l287 -736l310 736h219l-616 -1412h-215z" />
    <glyph glyph-name="uni0424" unicode="&#x424;" horiz-adv-x="1733" 
d="M765 0v109q-325 0 -493 156.5t-168 439.5q0 284 169 445.5t492 161.5v100h203v-100q324 0 492.5 -161.5t168.5 -445.5q0 -283 -168 -439.5t-493 -156.5v-109h-203zM765 292v837q-224 0 -338.5 -111t-114.5 -313q0 -200 114 -306.5t339 -106.5zM968 292q224 0 338.5 106.5
t114.5 306.5q0 202 -115 313t-338 111v-837z" />
    <glyph glyph-name="uni0425" unicode="&#x425;" horiz-adv-x="1299" 
d="M50 0l469 707l-467 706h242l355 -567l357 567h241l-466 -706l468 -707h-241l-361 558l-355 -558h-242z" />
    <glyph glyph-name="uni0426" unicode="&#x426;" horiz-adv-x="1502" 
d="M1218 -278v278h-1020v1412h203v-1230h669v1230h203v-1230h147v-460h-202z" />
    <glyph glyph-name="uni0427" unicode="&#x427;" horiz-adv-x="1338" 
d="M936 0v511q-127 -101 -312 -101q-133 0 -233 42.5t-161 122t-91 185.5t-30 240v412h203v-401q0 -97 15 -168t49.5 -126t96.5 -83t151 -28q104 0 184.5 38t127.5 95v673h204v-1412h-204z" />
    <glyph glyph-name="uni0428" unicode="&#x428;" horiz-adv-x="1772" 
d="M198 0v1412h203v-1230h382v1230h203v-1230h385v1230h203v-1412h-1376z" />
    <glyph glyph-name="uni0429" unicode="&#x429;" horiz-adv-x="1803" 
d="M1519 -278v278h-1321v1412h203v-1230h382v1230h203v-1230h385v1230h203v-1230h147v-460h-202z" />
    <glyph glyph-name="uni042A" unicode="&#x42a;" horiz-adv-x="1386" 
d="M427 0v1238h-386v174h587v-613h217q215 0 344 -104t129 -292t-129.5 -295.5t-343.5 -107.5h-418zM628 186h217q134 0 204 56.5t70 160.5q0 210 -274 210h-217v-427z" />
    <glyph glyph-name="uni042B" unicode="&#x42b;" horiz-adv-x="1682" 
d="M198 0v1412h202v-613h216q215 0 344.5 -104t129.5 -292t-130 -295.5t-344 -107.5h-418zM1282 0v1412h202v-1412h-202zM400 186h216q134 0 204 56.5t70 160.5q0 210 -274 210h-216v-427z" />
    <glyph glyph-name="uni042C" unicode="&#x42c;" horiz-adv-x="1157" 
d="M198 0v1412h202v-613h216q215 0 344.5 -104t129.5 -292t-130 -295.5t-344 -107.5h-418zM400 186h216q134 0 204 56.5t70 160.5q0 210 -274 210h-216v-427z" />
    <glyph glyph-name="uni042D" unicode="&#x42d;" horiz-adv-x="1425" 
d="M663 -20q-205 0 -359.5 100.5t-235.5 290.5l189 78q56 -146 157 -212t249 -66q205 0 317.5 124t133.5 329h-600v171h600q-9 96 -39.5 175.5t-84 141.5t-136 97t-187.5 35q-152 0 -259.5 -66t-148.5 -208l-189 76q83 190 236.5 290t358.5 100q163 0 290.5 -58.5
t206 -159.5t119 -231t40.5 -280t-41 -279.5t-120 -230.5t-206.5 -159t-290.5 -58z" />
    <glyph glyph-name="uni042E" unicode="&#x42e;" horiz-adv-x="1945" 
d="M1183 -20q-151 0 -271.5 49.5t-199 137t-124.5 201t-58 248.5h-129v-616h-203v1412h203v-615h129q12 134 58 247.5t124.5 201.5t199.5 138t271 50q132 0 241 -38t185 -105.5t129 -159.5t77.5 -198.5t24.5 -225.5t-24.5 -225.5t-77.5 -198.5t-129 -159.5t-185 -105.5
t-241 -38zM1183 163q94 0 170 29t127 79.5t85.5 120t50 148.5t15.5 167t-15.5 166.5t-50 148t-85.5 120t-127 79.5t-170 29t-170 -29t-127 -79.5t-85.5 -120t-50 -148t-15.5 -166.5t15.5 -167t50 -148.5t85.5 -120t127 -79.5t170 -29z" />
    <glyph glyph-name="uni042F" unicode="&#x42f;" horiz-adv-x="1242" 
d="M1044 -2h-203v621h-203l-351 -621h-235l388 644q-131 35 -210.5 133t-79.5 234q0 184 133 293.5t332 109.5h429v-1414zM839 794v437h-226q-119 0 -190.5 -60t-71.5 -164q0 -96 65 -152t175 -61h248z" />
    <glyph glyph-name="uni0430" unicode="&#x430;" 
d="M409 -20q-151 0 -246.5 83.5t-95.5 228.5q0 291 420 291h243q0 125 -55 196.5t-168 71.5q-162 0 -257 -146l-145 108q149 207 397 207q194 0 302 -112t108 -298v-610h-161l-10 169q-108 -189 -332 -189zM434 144q125 0 209.5 91t86.5 205h-229q-235 0 -235 -154
q0 -69 45.5 -105.5t122.5 -36.5z" />
    <glyph glyph-name="uni0431" unicode="&#x431;" horiz-adv-x="1157" 
d="M649 960q140 0 240.5 -64.5t148.5 -171t48 -241.5q0 -138 -61 -252.5t-174 -182.5t-255 -68q-217 0 -350 141t-133 373v257q0 343 219 488q56 37 122 67.5t146 55t133 38t141 34.5v-190q-318 -76 -427 -139q-56 -32 -87.5 -65t-52 -98.5t-20.5 -164.5q56 81 151 132
t211 51zM596 144q136 0 207.5 93t71.5 236t-68 232t-211 89q-90 0 -155 -49t-94 -120t-29 -152q0 -70 15.5 -128t48 -104t87 -71.5t127.5 -25.5z" />
    <glyph glyph-name="uni0432" unicode="&#x432;" horiz-adv-x="1168" 
d="M609 -20q-109 0 -195.5 27t-152 82t-101 145t-35.5 211v529q0 123 36.5 214t102.5 143.5t149 77.5t186 25q184 0 300.5 -95t116.5 -271q0 -78 -44.5 -158t-123.5 -121q107 -34 163.5 -134t56.5 -227q0 -213 -127 -330.5t-332 -117.5zM603 156q261 0 261 280
q0 128 -68 193t-183 65q-110 0 -184 -52v173q71 45 210 47q85 1 131.5 58.5t46.5 136.5q0 97 -55 146.5t-161 49.5q-66 0 -114 -14t-87 -47t-58.5 -95t-19.5 -152v-491q0 -160 71 -229t210 -69z" />
    <glyph glyph-name="uni0433" unicode="&#x433;" horiz-adv-x="886" 
d="M437 -20q-72 0 -136 18t-116.5 53.5t-83.5 95t-31 135.5t29 132.5t75 89t101.5 56t111.5 40t102 34.5t75 46t29 67q0 53 -39.5 79t-107.5 26q-139 0 -208 -125l-143 80q51 91 140.5 149t211.5 58q137 0 235.5 -75t98.5 -209q0 -74 -28.5 -127.5t-74.5 -83.5t-101 -51.5
t-110.5 -37.5t-101.5 -33.5t-74.5 -48t-28.5 -73.5q0 -63 48.5 -96.5t130.5 -33.5q87 0 147 50.5t85 122.5l157 -76q-36 -111 -143 -186.5t-250 -75.5z" />
    <glyph glyph-name="uni0434" unicode="&#x434;" horiz-adv-x="1135" 
d="M977 0q0 -204 -116.5 -320t-327.5 -116q-279 0 -418 206l149 109q40 -68 109.5 -107t160.5 -39q120 0 184 69.5t64 197.5v131q-98 -131 -291 -131q-101 0 -182.5 40.5t-133 110.5t-79 161.5t-27.5 196.5q0 141 47 255.5t143 185t226 70.5q91 0 169 -36t128 -104v119h195
v-999zM534 176q132 0 198 93.5t66 240.5q0 69 -15.5 128.5t-46.5 106.5t-82.5 74t-119.5 27q-132 0 -199.5 -95.5t-67.5 -240.5q0 -146 67.5 -240t199.5 -94z" />
    <glyph glyph-name="uni0435" unicode="&#x435;" horiz-adv-x="1051" 
d="M551 -17q-117 0 -210 41.5t-150.5 113.5t-87 163t-29.5 194q0 101 28.5 193t83.5 166t145 118t203 44q97 0 175 -30t127 -78.5t81.5 -114.5t45.5 -133t13 -139q0 -53 -6 -85h-691q7 -125 75.5 -202.5t196.5 -77.5q163 0 261 107l134 -113q-82 -86 -177.5 -126.5
t-217.5 -40.5zM279 583h509q-7 122 -70.5 197t-184.5 75q-116 0 -179.5 -76t-74.5 -196z" />
    <glyph glyph-name="uni0436" unicode="&#x436;" horiz-adv-x="1478" 
d="M29 0l170 444q24 61 67 110.5t94 49.5l-273 395h229l227 -364h99v777h194v-777h99l227 364h230l-273 -395q50 0 92 -49.5t68 -110.5l169 -444h-227l-121 356q-23 64 -57 96t-91 32h-116v-484h-194v484h-116q-56 0 -90.5 -32.5t-56.5 -95.5l-122 -356h-228z" />
    <glyph glyph-name="uni0437" unicode="&#x437;" horiz-adv-x="968" 
d="M414 -450q-132 0 -237.5 54t-175.5 158l159 118q31 -73 98 -113t149 -40q131 0 206.5 78t75.5 209q0 122 -62 190t-166 68h-195v170h221q80 9 123.5 63t43.5 130q0 102 -59.5 152.5t-167.5 50.5q-159 0 -250 -172l-172 85q61 134 165 197.5t255 63.5q120 0 213.5 -40
t150.5 -124t57 -202q0 -82 -45 -161t-138 -118q80 -22 132.5 -79t73.5 -127t21 -155q0 -142 -64.5 -247t-171 -157t-240.5 -52z" />
    <glyph glyph-name="uni0438" unicode="&#x438;" horiz-adv-x="1140" 
d="M483 -21q-179 0 -266.5 125t-87.5 340v555h196v-564q0 -62 8.5 -110t29 -89.5t60.5 -64t98 -22.5q113 0 190 88t77 257v505h195v-999h-195v145q-44 -72 -125 -119t-180 -47z" />
    <glyph glyph-name="uni0439" unicode="&#x439;" horiz-adv-x="1168" 
d="M581 1143q-145 0 -226.5 70t-81.5 200h145q0 -67 47 -107t116 -40q70 0 116 40t46 107h146q0 -131 -82 -200.5t-226 -69.5zM514 -23q-75 0 -135.5 23.5t-101 64t-68 96t-39.5 117.5t-12 130v591h195v-586q0 -259 185 -259q112 0 195 85.5t83 196.5v563h195v-999h-195v144
q-44 -71 -125.5 -119t-176.5 -48z" />
    <glyph glyph-name="uni043A" unicode="&#x43a;" horiz-adv-x="998" 
d="M158 0v1412h194v-777h98l228 364h229l-273 -395q50 0 93 -49.5t68 -110.5l170 -444h-228l-122 356q-22 63 -56.5 95.5t-91.5 32.5h-115v-484h-194z" />
    <glyph glyph-name="uni043B" unicode="&#x43b;" horiz-adv-x="971" 
d="M14 0l389 999h165l388 -999h-211l-260 748l-261 -748h-210z" />
    <glyph glyph-name="uni043C" unicode="&#x43c;" horiz-adv-x="1430" 
d="M158 0v999h253l305 -765l301 766h255v-1000h-183v751l-301 -751h-145l-302 749v-749h-183z" />
    <glyph glyph-name="uni043D" unicode="&#x43d;" horiz-adv-x="1168" 
d="M158 0v999h196v-373h461v373h196v-999h-196v478h-461v-478h-196z" />
    <glyph glyph-name="uni043E" unicode="&#x43e;" horiz-adv-x="1123" 
d="M560 -20q-144 0 -257 71.5t-173.5 190t-60.5 260.5t60.5 259.5t173.5 188t257 70.5q143 0 257 -70.5t175 -188.5t61 -259q0 -142 -61 -260.5t-175 -190t-257 -71.5zM561 144q74 0 131.5 30t91.5 81t51.5 114t17.5 133q0 71 -17 133t-51.5 112t-92 79t-131.5 29
q-98 0 -165.5 -51t-97 -128.5t-29.5 -173.5q0 -56 10.5 -108t33.5 -97.5t56.5 -79.5t83 -53.5t108.5 -19.5z" />
    <glyph glyph-name="uni043F" unicode="&#x43f;" horiz-adv-x="1142" 
d="M158 0v999h195v-139q52 75 132.5 115.5t168.5 40.5q93 0 163.5 -34t111.5 -92.5t61.5 -130t20.5 -154.5v-605h-196v581q0 253 -187 253q-112 0 -193.5 -83.5t-81.5 -193.5v-557h-195z" />
    <glyph glyph-name="uni0440" unicode="&#x440;" horiz-adv-x="1137" 
d="M158 -438v1437h195v-120q105 141 300 141q128 0 223.5 -71.5t143 -188t47.5 -260.5t-47.5 -260.5t-143 -188t-223.5 -71.5q-197 0 -300 140v-558h-195zM604 155q130 0 197.5 97t67.5 247q0 97 -27.5 174t-88.5 125.5t-149 48.5q-67 0 -118.5 -27.5t-82 -76t-46 -110.5
t-15.5 -134t15.5 -133t46 -109t82 -75t118.5 -27z" />
    <glyph glyph-name="uni0441" unicode="&#x441;" horiz-adv-x="988" 
d="M533 -20q-111 0 -200 43t-144 116t-84 165t-29 194t28.5 194t83.5 166t143.5 118t199.5 44q142 0 248 -72t161 -207l-183 -75q-22 83 -82.5 133t-143.5 50q-68 0 -119.5 -31t-81 -83t-43.5 -111.5t-14 -125.5t14 -125.5t43 -111t80.5 -81.5t120.5 -30q82 0 143 49t83 130
l172 -69q-47 -132 -151 -206t-245 -74z" />
    <glyph glyph-name="uni0442" unicode="&#x442;" horiz-adv-x="1719" 
d="M158 0v999h195v-140q40 76 109.5 117.5t150.5 41.5q208 0 298 -180q51 87 134 132.5t184 45.5q93 0 163.5 -34t112.5 -92.5t62.5 -130t20.5 -154.5v-605h-197v581q0 53 -9 97t-29 83t-58 61t-92 22q-107 0 -170.5 -83.5t-63.5 -201.5v-559h-196v585q0 259 -187 259
q-107 0 -170 -83.5t-63 -201.5v-559h-195z" />
    <glyph glyph-name="uni0443" unicode="&#x443;" horiz-adv-x="1002" 
d="M228 -430l174 446l-386 983h213l272 -759l272 759h213l-552 -1429h-206z" />
    <glyph glyph-name="uni0444" unicode="&#x444;" horiz-adv-x="1444" 
d="M625 -430v414q-36 -4 -59 -4q-108 0 -201.5 41t-158 110.5t-101 164t-36.5 200.5q0 141 62 258.5t176.5 187.5t258.5 70q40 -2 59 -5v405h194v-405q30 5 59 5q144 0 258.5 -70t176.5 -187.5t62 -258.5q0 -106 -36.5 -200.5t-101 -164t-158 -110.5t-201.5 -41q-23 0 -59 4
v-414h-194zM566 149q41 0 59 4v685q-45 5 -59 5q-144 0 -214 -98.5t-70 -248.5q0 -72 16 -132.5t48.5 -109.5t89 -77t130.5 -28zM878 149q98 0 163.5 49.5t93 125t27.5 172.5q0 71 -16 132t-49 110t-89 77t-130 28q-14 0 -59 -5v-685q18 -4 59 -4z" />
    <glyph glyph-name="uni0445" unicode="&#x445;" horiz-adv-x="973" 
d="M29 0l339 504l-339 495h236l221 -352l222 352h235l-338 -495l338 -504h-235l-222 359l-221 -359h-236z" />
    <glyph glyph-name="uni0446" unicode="&#x446;" horiz-adv-x="1171" 
d="M938 -307v284q-53 0 -97 47t-52 120q-44 -71 -125.5 -119t-176.5 -48q-93 0 -163.5 35.5t-112 97t-62 137t-20.5 161.5v591h197v-586q0 -259 185 -259q112 0 195 85.5t83 196.5v563h196v-772q0 -71 42 -109.5t106 -38.5l-37 -386h-158z" />
    <glyph glyph-name="uni0447" unicode="&#x447;" horiz-adv-x="1095" 
d="M741 0v409q-44 -70 -125.5 -118t-176.5 -48q-93 0 -163.5 35.5t-111.5 97t-61.5 136.5t-20.5 161v326h196v-321q0 -259 185 -259q112 0 195 85.5t83 196.5v298h197v-999h-197z" />
    <glyph glyph-name="uni0448" unicode="&#x448;" horiz-adv-x="1745" 
d="M1133 -18q-209 0 -298 179q-52 -87 -134.5 -132t-184.5 -45q-93 0 -163.5 34t-112 92.5t-62 130t-20.5 154.5v604h196v-580q0 -53 9 -97t29 -83t58 -61t92 -22q107 0 170.5 83t63.5 201v559h197v-584q0 -259 185 -259q108 0 171.5 83t63.5 201v559h195v-999h-195v140
q-41 -75 -110.5 -116.5t-149.5 -41.5z" />
    <glyph glyph-name="uni0449" unicode="&#x449;" horiz-adv-x="1746" 
d="M1513 -307v284q-52 0 -96.5 48.5t-52.5 120.5q-41 -76 -110.5 -120t-148.5 -44q-208 0 -298 179q-52 -87 -134.5 -132t-183.5 -45q-93 0 -163.5 34t-112.5 92.5t-62.5 130t-20.5 154.5v604h197v-580q0 -53 9 -97t29 -83t58 -61t92 -22q107 0 170.5 83t63.5 201v559h196
v-584q0 -259 186 -259q107 0 170.5 83t63.5 201v559h196v-772q0 -71 42 -109.5t106 -38.5l-38 -386h-158z" />
    <glyph glyph-name="uni044A" unicode="&#x44a;" horiz-adv-x="1190" 
d="M659 -20q-196 0 -309 113t-113 316v438h-224v152h408v-297q49 51 120.5 83.5t155.5 32.5q198 0 310 -111t112 -308q0 -194 -125.5 -306.5t-334.5 -112.5zM668 149q113 0 175.5 69.5t62.5 180.5q0 104 -65.5 177t-176.5 73q-108 0 -175.5 -63.5t-67.5 -162.5v-41
q0 -103 66 -168t181 -65z" />
    <glyph glyph-name="uni044B" unicode="&#x44b;" horiz-adv-x="1449" 
d="M594 -20q-196 0 -311 113t-115 316v590h184v-297q110 116 260 116q200 0 319 -112t119 -307q0 -193 -127 -306t-329 -113zM1194 0v999h184v-999h-184zM594 149q112 0 177.5 70t65.5 180q0 104 -66 177t-177 73q-107 0 -172 -63.5t-70 -162.5v-41q5 -104 69 -168.5
t173 -64.5z" />
    <glyph glyph-name="uni044C" unicode="&#x44c;" horiz-adv-x="1116" 
d="M579 -20q-196 0 -311 113t-115 316v590h185v-297q109 116 259 116q200 0 319 -112t119 -307q0 -193 -126.5 -306t-329.5 -113zM579 149q113 0 178 69.5t65 180.5q0 104 -66 177t-177 73q-106 0 -171 -63.5t-70 -162.5v-41q5 -104 69 -168.5t172 -64.5z" />
    <glyph glyph-name="uni044D" unicode="&#x44d;" horiz-adv-x="983" 
d="M455 -20q-142 0 -246 73.5t-150 206.5l172 69q22 -79 83 -126.5t143 -47.5q111 0 173.5 74.5t78.5 188.5h-377v145h378q-13 118 -76 197.5t-177 79.5q-84 0 -144 -46.5t-82 -127.5l-183 75q55 129 162 202t247 73q90 0 165 -28.5t128 -77t90 -114.5t54.5 -141.5
t17.5 -156.5q0 -103 -29 -195t-84 -164.5t-144 -115.5t-200 -43z" />
    <glyph glyph-name="uni044E" unicode="&#x44e;" horiz-adv-x="1518" 
d="M951 -20q-140 0 -252.5 67t-176 180t-67.5 251h-101v-478h-196v1413h196v-787h115q40 170 170 278t312 108q144 0 258 -70t176 -187.5t62 -258.5q0 -142 -62 -259.5t-176 -187t-258 -69.5zM951 149q74 0 130.5 28t89 77t48.5 109.5t16 132.5q0 150 -70 248.5t-214 98.5
q-74 0 -130 -28t-89 -77t-49 -110t-16 -132q0 -97 27.5 -172.5t93 -125t163.5 -49.5z" />
    <glyph glyph-name="uni044F" unicode="&#x44f;" horiz-adv-x="1026" 
d="M65 0l120 318q26 61 68 110t92 49q-51 11 -88.5 27t-73 44t-54.5 74.5t-19 110.5q0 39 10 74.5t36 71.5t66 62t104.5 42t147.5 16h395v-999h-194v431h-119q-56 0 -91 -32.5t-56 -95.5l-117 -303h-227zM481 583h194v252h-226q-63 0 -97 -33.5t-34 -84.5q0 -134 163 -134z
" />
    <glyph glyph-name="uni0450" unicode="&#x450;" horiz-adv-x="1051" 
d="M450 1113l-281 300h224l221 -300h-164zM551 -17q-117 0 -210 41.5t-150.5 113.5t-87 163t-29.5 194q0 101 28.5 193t83.5 166t145 118t203 44q97 0 175 -30t127 -78.5t81.5 -114.5t45.5 -133t13 -139q0 -53 -6 -85h-691q7 -125 75.5 -202.5t196.5 -77.5q163 0 261 107
l134 -113q-82 -86 -177.5 -126.5t-217.5 -40.5zM279 583h509q-7 122 -70.5 197t-184.5 75q-116 0 -179.5 -76t-74.5 -196z" />
    <glyph glyph-name="uni0451" unicode="&#x451;" horiz-adv-x="1051" 
d="M252 1205v208h186v-208h-186zM597 1205v208h186v-208h-186zM551 -17q-117 0 -210 41.5t-150.5 113.5t-87 163t-29.5 194q0 101 28.5 193t83.5 166t145 118t203 44q97 0 175 -30t127 -78.5t81.5 -114.5t45.5 -133t13 -139q0 -53 -6 -85h-691q7 -125 75.5 -202.5
t196.5 -77.5q163 0 261 107l134 -113q-82 -86 -177.5 -126.5t-217.5 -40.5zM279 583h509q-7 122 -70.5 197t-184.5 75q-116 0 -179.5 -76t-74.5 -196z" />
    <glyph glyph-name="uni0452" unicode="&#x452;" horiz-adv-x="1143" 
d="M611 -448q-153 0 -295 117l100 145q97 -84 186 -84q118 0 165.5 82t47.5 228v542q0 249 -187 249q-112 0 -192 -83t-80 -216v-532h-196v1138h-167v139h167v136h196v-136h272v-139h-272v-275q50 75 127 115t163 40q96 0 168.5 -34.5t114 -94.5t62 -132t20.5 -156v-518
q0 -267 -97.5 -399t-302.5 -132z" />
    <glyph glyph-name="uni0453" unicode="&#x453;" horiz-adv-x="778" 
d="M323 1124l218 289h213l-285 -289h-146zM153 0v999h613v-148h-417v-851h-196z" />
    <glyph glyph-name="uni0454" unicode="&#x454;" horiz-adv-x="982" 
d="M527 -20q-112 0 -201 43t-144 115.5t-84 164.5t-29 195q0 102 28.5 194t83.5 165t143.5 116t200.5 43q140 0 247 -73t162 -202l-183 -75q-22 81 -82.5 127.5t-143.5 46.5q-114 0 -177 -79.5t-76 -197.5h378v-145h-377q16 -114 78 -188.5t174 -74.5q82 0 142.5 47.5
t83.5 126.5l172 -69q-46 -133 -150 -206.5t-246 -73.5z" />
    <glyph glyph-name="uni0455" unicode="&#x455;" horiz-adv-x="883" 
d="M444 -20q-143 0 -250 75.5t-143 186.5l157 76q24 -72 84 -122.5t147 -50.5q81 0 131.5 38.5t50.5 105.5q0 43 -29 72t-75 44.5t-101.5 29t-111 32.5t-101.5 47t-75 80.5t-29 126.5q0 90 48.5 158.5t123.5 101.5t163 33q122 0 211.5 -58t140.5 -149l-144 -80
q-67 125 -207 125q-68 0 -110.5 -30.5t-42.5 -83.5q0 -37 29 -62.5t75.5 -40t103 -28t113 -35t103 -52.5t75.5 -87.5t29 -134.5q0 -100 -53.5 -174t-135.5 -109t-177 -35z" />
    <glyph glyph-name="uni0456" unicode="&#x456;" horiz-adv-x="513" 
d="M150 1205v207h213v-207h-213zM158 0v999h193v-999h-193z" />
    <glyph glyph-name="uni0457" unicode="&#x457;" horiz-adv-x="499" 
d="M-13 1171v180h179v-180h-179zM329 1171v180h179v-180h-179zM152 0v999h193v-999h-193z" />
    <glyph glyph-name="uni0458" unicode="&#x458;" horiz-adv-x="516" 
d="M153 1197v219h213v-219h-213zM82 -438q-34 0 -74 8t-63 16l-23 8l45 158q58 -15 109 -15q48 0 66.5 29t18.5 83v1150h195v-1130q0 -138 -68.5 -222.5t-205.5 -84.5z" />
    <glyph glyph-name="uni0459" unicode="&#x459;" horiz-adv-x="1653" 
d="M218 -21q-79 0 -179 49l56 131q48 -28 81 -28q48 0 75.5 125.5t27.5 359.5v383h705v-315h168q210 0 315 -76.5t105 -264.5q0 -166 -109.5 -254.5t-309.5 -88.5h-365v851h-314v-234q0 -152 -13 -265.5t-35.5 -184t-56 -113.5t-69.5 -59t-82 -16zM984 164h168
q95 0 150 39.5t55 139.5q0 98 -55 137.5t-150 39.5h-168v-356z" />
    <glyph glyph-name="uni045A" unicode="&#x45a;" horiz-adv-x="1681" 
d="M158 0v999h195v-373h463v373h195v-373h169q105 0 178.5 -13.5t130.5 -47.5t84.5 -96t27.5 -155q0 -314 -420 -314h-365v478h-463v-478h-195zM1011 164h169q38 0 65.5 3t55 12t45 25t28.5 44t11 66q0 41 -11.5 69.5t-27.5 43.5t-46 23t-54.5 10t-65.5 2h-169v-298z" />
    <glyph glyph-name="uni045B" unicode="&#x45b;" horiz-adv-x="1145" 
d="M662 1018q90 0 159.5 -34t110.5 -92.5t61.5 -129.5t20.5 -153v-609h-197v582q0 258 -197 258q-121 0 -193.5 -90.5t-72.5 -226.5v-523h-194v1118h-164v139h164v156h194v-156h276v-139h-276v-261q53 77 136 119t172 42z" />
    <glyph glyph-name="uni045C" unicode="&#x45c;" horiz-adv-x="994" 
d="M419 1124l219 289h214l-287 -289h-146zM158 0v999h194v-364h98l228 364h229l-273 -395q50 0 93 -49.5t68 -110.5l170 -444h-228l-122 356q-22 63 -56.5 95.5t-91.5 32.5h-115v-484h-194z" />
    <glyph glyph-name="uni045D" unicode="&#x45d;" horiz-adv-x="1168" 
d="M524 1116l-272 297h213l218 -297h-159zM514 -23q-75 0 -135.5 23.5t-101 64t-68 96t-39.5 117.5t-12 130v591h195v-586q0 -259 185 -259q112 0 195 85.5t83 196.5v563h195v-999h-195v144q-44 -71 -125.5 -119t-176.5 -48z" />
    <glyph glyph-name="uni045E" unicode="&#x45e;" horiz-adv-x="1002" 
d="M498 1143q-145 0 -227 70t-82 200h146q0 -67 46.5 -107t116.5 -40t116 40t46 107h146q0 -131 -82 -200.5t-226 -69.5zM228 -430l174 446l-386 983h213l272 -759l272 759h213l-552 -1429h-206z" />
    <glyph glyph-name="uni045F" unicode="&#x45f;" horiz-adv-x="1168" 
d="M486 -307v307h-328v999h195v-850h463v850h195v-999h-330v-307h-195z" />
    <glyph glyph-name="uni0462" unicode="&#x462;" horiz-adv-x="1283" 
d="M324 0v1079h-272v181h272v152h202v-152h322v-181h-322v-280h216q215 0 344.5 -104t129.5 -292t-130 -295.5t-344 -107.5h-418zM526 186h216q134 0 203.5 56.5t69.5 160.5q0 210 -273 210h-216v-427z" />
    <glyph glyph-name="uni0463" unicode="&#x463;" horiz-adv-x="1025" 
d="M160 0v1138h-192v139h192v135h194v-135h253v-139h-253v-454h169q211 0 316 -76.5t105 -264.5q0 -166 -109.5 -254.5t-310.5 -88.5h-364zM354 164h169q95 0 150.5 39.5t55.5 139.5q0 98 -55.5 137.5t-150.5 39.5h-169v-356z" />
    <glyph glyph-name="uni0464" unicode="&#x464;" horiz-adv-x="1872" 
d="M1209 -20q-150 0 -271 49.5t-200.5 137t-126 201t-57.5 248.5h-153v-616h-203v1412h203v-615h153q11 135 57.5 249t125 202t199.5 138t271 50q205 0 358.5 -100t235.5 -290l-189 -76q-40 142 -147.5 208t-259.5 66q-105 0 -188 -34.5t-136 -96.5t-84 -141t-40 -175h601
v-181h-599q20 -203 132 -324t318 -121q148 0 248.5 66t157.5 212l188 -78q-80 -190 -234.5 -290.5t-359.5 -100.5z" />
    <glyph glyph-name="uni0465" unicode="&#x465;" horiz-adv-x="1412" 
d="M957 -20q-104 0 -188.5 37t-139.5 102t-87 147.5t-39 178.5h-150v-445h-195v999h195v-406h154q12 88 46 163t88 134t135 92.5t179 33.5q140 0 247.5 -73t162.5 -202l-184 -75q-22 82 -82.5 128t-143.5 46q-58 0 -106.5 -24t-78 -62t-47 -79.5t-21.5 -81.5h378v-145h-377
q9 -132 73 -212.5t179 -80.5q82 0 142.5 47.5t83.5 126.5l172 -69q-46 -133 -150 -206.5t-246 -73.5z" />
    <glyph glyph-name="uni0466" unicode="&#x466;" horiz-adv-x="1323" 
d="M39 0l546 1412h154l544 -1412h-218l-165 466h-137v-466h-201v466h-137l-165 -466h-221zM491 638h343l-171 476z" />
    <glyph glyph-name="uni0467" unicode="&#x467;" horiz-adv-x="992" 
d="M39 0l381 999h154l379 -999h-197l-84 269h-98v-269h-153v269h-96l-96 -269h-190zM371 413h256l-129 351z" />
    <glyph glyph-name="uni0468" unicode="&#x468;" horiz-adv-x="1760" 
d="M198 0v1412h203v-615h384l238 615h154l544 -1412h-219l-164 466h-137v-466h-202v466h-136l-166 -466h-220l237 616h-313v-616h-203zM929 638h343l-171 476z" />
    <glyph glyph-name="uni0469" unicode="&#x469;" horiz-adv-x="1387" 
d="M158 0v999h195v-454h288l173 454h155l379 -999h-198l-83 269h-98v-269h-154v269h-95l-96 -269h-191l151 397h-231v-397h-195zM766 413h256l-129 351z" />
    <glyph glyph-name="uni046A" unicode="&#x46a;" horiz-adv-x="1570" 
d="M47 0l219 585q33 89 107.5 151.5t167.5 62.5l-315 432v181h1097v-181l-316 -432q97 0 169.5 -62.5t108.5 -151.5l235 -585h-232l-185 489q-57 164 -170 164h-57v-653h-202v653h-57q-111 0 -170 -164l-185 -489h-215zM776 822l297 409h-598z" />
    <glyph glyph-name="uni046B" unicode="&#x46b;" horiz-adv-x="1268" 
d="M1060 444l169 -444h-228l-122 356q-20 60 -56 85.5t-100 27.5v-469h-178v469q-66 -3 -100.5 -27.5t-55.5 -85.5l-122 -356h-228l169 444q66 160 189 160l-202 247v148h877v-148l-200 -247q122 0 188 -160zM633 611l197 240h-388z" />
    <glyph glyph-name="uni046C" unicode="&#x46c;" horiz-adv-x="1994" 
d="M198 0v1412h203v-618h578l-320 437v181h1096v-181l-315 -432q95 0 163.5 -61.5t105.5 -152.5l235 -585h-223l-185 489q-59 164 -170 164h-56v-653h-204v653h-55q-110 0 -172 -164l-184 -489h-206l204 543q16 41 30 71h-322v-614h-203zM1208 822l298 409h-598z" />
    <glyph glyph-name="uni046D" unicode="&#x46d;" horiz-adv-x="1644" 
d="M1436 444l169 -444h-227l-122 356q-25 71 -58.5 95.5t-99.5 23.5v-475h-177v475q-66 0 -101 -28.5t-55 -90.5l-122 -356h-228l144 375q13 41 34 76h-240v-451h-195v999h195v-399h421l-203 251v148h877v-148l-194 -239q38 0 69 -15.5t53 -45.5t33.5 -51.5t26.5 -55.5z
M1008 610l198 241h-389z" />
    <glyph glyph-name="uni0472" unicode="&#x472;" horiz-adv-x="1521" 
d="M760 -20q-131 0 -240 38t-185 105.5t-129 159.5t-77.5 198.5t-24.5 225.5t24.5 225.5t77.5 198.5t129 159.5t185 105.5t240 38q132 0 241 -38t185 -105.5t129 -159.5t77.5 -198.5t24.5 -225.5t-24.5 -225.5t-77.5 -198.5t-129 -159.5t-185 -105.5t-241 -38zM315 789h889
q-9 98 -39 179t-82.5 145.5t-135 100.5t-187.5 36q-106 0 -188.5 -36t-135.5 -100.5t-82.5 -145.5t-38.5 -179zM760 163q108 0 192 38t136.5 105t81.5 151.5t36 185.5h-892q7 -101 36 -185.5t81 -151.5t136.5 -105t192.5 -38z" />
    <glyph glyph-name="uni0473" unicode="&#x473;" horiz-adv-x="1133" 
d="M566 -20q-108 0 -201.5 41t-158 110.5t-101 164t-36.5 200.5q0 141 62 258.5t176.5 187.5t258.5 70t258.5 -70t176.5 -187.5t62 -258.5q0 -106 -36.5 -200.5t-101 -164t-158 -110.5t-201.5 -41zM287 578h555q-17 119 -85.5 192t-190.5 73q-123 0 -192 -73t-87 -192z
M566 149q127 0 195 78.5t82 204.5h-557q14 -126 83 -204.5t197 -78.5z" />
    <glyph glyph-name="uni0474" unicode="&#x474;" horiz-adv-x="1319" 
d="M542 0l-519 1413h219l381 -1108l260 697q79 212 176.5 304t234.5 107v-190q-83 -34 -131 -98.5t-90 -166.5l-369 -958h-162z" />
    <glyph glyph-name="uni0475" unicode="&#x475;" horiz-adv-x="982" 
d="M385 0l-370 999h212l241 -747l131 368q37 104 82 177.5t93.5 114.5t94 61t98.5 26v-187q-28 -10 -42 -17t-39 -27.5t-47.5 -58.5t-45.5 -96l-243 -613h-165z" />
    <glyph glyph-name="uni0478" unicode="&#x478;" horiz-adv-x="2523" 
d="M760 -20q-131 0 -239.5 38.5t-185 105.5t-129 159t-77.5 199t-25 225t25 224.5t77.5 199t129 159.5t185 105.5t239.5 38.5t240 -38.5t185.5 -105.5t129 -159.5t77.5 -199t25 -224.5t-25 -225t-77.5 -199t-129 -159t-185.5 -105.5t-240 -38.5zM760 163q117 0 206 44
t141 121.5t77.5 172.5t25.5 206q0 88 -15.5 166t-50 148t-86 120t-128 79.5t-170.5 29.5t-170 -29.5t-127.5 -79.5t-85.5 -120t-49.5 -148t-15.5 -166q0 -111 25.5 -206t77 -172.5t140 -121.5t205.5 -44zM1747 -430l177 445l-387 984h213l274 -759l271 759h212l-552 -1429
h-208z" />
    <glyph glyph-name="uni0479" unicode="&#x479;" horiz-adv-x="2080" 
d="M560 -20q-144 0 -257 71.5t-173.5 190t-60.5 260.5t60.5 259.5t173.5 188t257 70.5q143 0 257 -70.5t175 -188.5t61 -259q0 -142 -61 -260.5t-175 -190t-257 -71.5zM1304 -430l177 445l-387 984h213l274 -759l271 759h212l-552 -1429h-208zM561 144q74 0 131.5 30
t91.5 81t51.5 114t17.5 133q0 71 -17 133t-51.5 112t-92 79t-131.5 29q-98 0 -165.5 -51t-97 -128.5t-29.5 -173.5q0 -56 10.5 -108t33.5 -97.5t56.5 -79.5t83 -53.5t108.5 -19.5z" />
    <glyph glyph-name="uni0483" unicode="&#x483;" horiz-adv-x="0" 
d="M-953 1561v305h642v131h186v-297h-648v-139h-180z" />
    <glyph glyph-name="uni0490" unicode="&#x490;" horiz-adv-x="1067" 
d="M198 0v1412h626v307h201v-488h-624v-1231h-203z" />
    <glyph glyph-name="uni0491" unicode="&#x491;" horiz-adv-x="780" 
d="M153 0v999h418v308h195v-456h-417v-851h-196z" />
    <glyph glyph-name="uni0492" unicode="&#x492;" horiz-adv-x="1211" 
d="M1168 1231h-625v-398h205v-169h-205v-664h-202v664h-333v169h333v579h827v-181z" />
    <glyph glyph-name="uni0493" unicode="&#x493;" horiz-adv-x="782" 
d="M158 0v999h612v-148h-417v-851h-195z" />
    <glyph glyph-name="uni0496" unicode="&#x496;" horiz-adv-x="2019" 
d="M1901 168h156v-406h-192v238h-144l-184 521q-22 63 -71.5 113.5t-118.5 50.5h-236v-685h-203v685h-235q-70 0 -118 -49t-72 -115l-185 -521h-248l252 617q13 31 34 63.5t51 66.5t70.5 55.5t82.5 21.5l-416 588h265l360 -544h159v544h203v-544h159l359 544h266l-416 -588
q42 0 82.5 -21.5t70.5 -55.5t51.5 -66.5t34.5 -63.5z" />
    <glyph glyph-name="uni0497" unicode="&#x497;" horiz-adv-x="1479" 
d="M1385 168h160v-406h-192v238h-132l-121 356q-23 64 -57 96t-91 32h-116v-484h-194v484h-115q-57 0 -91.5 -32.5t-56.5 -95.5l-122 -356h-228l170 444q24 61 67 110.5t94 49.5l-273 395h229l228 -364h98v364h194v-364h99l227 364h230l-273 -395q50 0 93 -49.5t68 -110.5z
" />
    <glyph glyph-name="uni049A" unicode="&#x49a;" horiz-adv-x="1306" 
d="M1190 168h154v-406h-192v238h-141l-185 521q-21 58 -71 111t-119 53h-235v-685h-203v1412h203v-544h159l359 544h266l-416 -588q42 0 82.5 -21.5t70.5 -55.5t51 -67t34 -63z" />
    <glyph glyph-name="uni049B" unicode="&#x49b;" horiz-adv-x="998" 
d="M901 168h160v-406h-192v238h-132l-122 356q-22 63 -56.5 95.5t-91.5 32.5h-115v-484h-194v1412h194v-777h98l228 364h229l-273 -395q50 0 93 -49.5t68 -110.5z" />
    <glyph glyph-name="uni04A2" unicode="&#x4a2;" horiz-adv-x="1472" 
d="M1274 168h156v-406h-192v238h-168v617h-669v-617h-203v1413h203v-616h669v616h204v-1245z" />
    <glyph glyph-name="uni04A3" unicode="&#x4a3;" horiz-adv-x="1168" 
d="M1011 168h182v-406h-192v238h-186v478h-461v-478h-196v999h196v-373h461v373h196v-831z" />
    <glyph glyph-name="uni04AE" unicode="&#x4ae;" horiz-adv-x="1317" 
d="M556 0v552l-529 861h242l388 -661l390 661h243l-527 -861v-552h-207z" />
    <glyph glyph-name="uni04AF" unicode="&#x4af;" horiz-adv-x="982" 
d="M395 0v436l-368 563h230l234 -377l235 377h229l-367 -563v-436h-193z" />
    <glyph glyph-name="uni04B0" unicode="&#x4b0;" horiz-adv-x="1319" 
d="M763 552v-88h144v-169h-144v-295h-207v295h-389v169h389v88l-529 861h242l388 -661l390 661h243z" />
    <glyph glyph-name="uni04B1" unicode="&#x4b1;" horiz-adv-x="1031" 
d="M588 436v-76h200v-169h-200v-191h-193v191h-347v169h347v76l-368 563h230l234 -377l235 377h229z" />
    <glyph glyph-name="uni04B2" unicode="&#x4b2;" horiz-adv-x="1299" 
d="M1138 168h174v-406h-192v238h-112l-361 558l-355 -558h-242l469 707l-467 706h242l355 -567l357 567h241l-466 -706z" />
    <glyph glyph-name="uni04B3" unicode="&#x4b3;" horiz-adv-x="973" 
d="M830 168h187v-406h-192v238h-117l-222 359l-221 -359h-236l339 504l-339 495h236l221 -352l222 352h235l-338 -495z" />
    <glyph glyph-name="uni04B6" unicode="&#x4b6;" horiz-adv-x="1338" 
d="M1140 168h166v-406h-192v238h-178v511q-127 -101 -312 -101q-133 0 -233 42.5t-161 122t-91 185.5t-30 240v412h203v-401q0 -97 15 -168t49.5 -126t96.5 -83t151 -28q104 0 184.5 38t127.5 95v673h204v-1244z" />
    <glyph glyph-name="uni04B7" unicode="&#x4b7;" horiz-adv-x="1095" 
d="M938 168h167v-406h-192v238h-172v409q-44 -70 -125.5 -118t-176.5 -48q-93 0 -163.5 35.5t-111.5 97t-61.5 136.5t-20.5 161v326h196v-321q0 -259 185 -259q112 0 195 85.5t83 196.5v298h197v-831z" />
    <glyph glyph-name="uni04BA" unicode="&#x4ba;" horiz-adv-x="1338" 
d="M402 1413v-511q127 101 312 101q133 0 233 -42.5t161 -122t91 -185.5t30 -240v-412h-203v401q0 97 -15 168t-49.5 126t-96.5 83t-151 28q-104 0 -184.5 -38t-127.5 -95v-673h-204v1412h204z" />
    <glyph glyph-name="uni04BB" unicode="&#x4bb;" horiz-adv-x="1145" 
d="M160 0v1413h194v-556q53 77 136 119t172 42q90 0 159.5 -34t110.5 -92.5t61.5 -129.5t20.5 -153v-609h-197v582q0 258 -197 258q-121 0 -193.5 -90.5t-72.5 -226.5v-523h-194z" />
    <glyph glyph-name="uni04C0" unicode="&#x4c0;" horiz-adv-x="599" 
d="M198 0v1412h203v-1412h-203z" />
    <glyph glyph-name="uni04CF" unicode="&#x4cf;" horiz-adv-x="509" 
d="M158 0v1412h194v-1412h-194z" />
    <glyph glyph-name="uni04D8" unicode="&#x4d8;" horiz-adv-x="1521" 
d="M760 -20q-131 0 -240 38t-185 105.5t-129 159.5t-77.5 198.5t-24.5 225.5q0 41 3 82h1097q-9 98 -39 179t-82.5 145.5t-135 100.5t-187.5 36q-247 0 -363 -191l-176 100q84 130 219 202.5t320 72.5q132 0 241 -38t185 -105.5t129 -159.5t77.5 -198.5t24.5 -225.5
t-24.5 -225.5t-77.5 -198.5t-129 -159.5t-185 -105.5t-241 -38zM760 163q108 0 192 38t136.5 105t81.5 151.5t36 185.5h-892q7 -101 36 -185.5t81 -151.5t136.5 -105t192.5 -38z" />
    <glyph glyph-name="uni04D9" unicode="&#x4d9;" horiz-adv-x="1051" 
d="M500 1016q117 0 210 -41.5t150.5 -113.5t87 -163t29.5 -194q0 -101 -28.5 -193t-83.5 -166t-145 -118t-203 -44q-97 0 -175 30t-127 78.5t-81.5 114.5t-45.5 133t-13 139q0 53 6 85h691q-7 125 -75.5 202.5t-196.5 77.5q-163 0 -261 -107l-134 113q82 86 177.5 126.5
t217.5 40.5zM772 416h-509q7 -122 70.5 -197t184.5 -75q116 0 179.5 76t74.5 196z" />
    <glyph glyph-name="uni04E2" unicode="&#x4e2;" horiz-adv-x="1435" 
d="M444 1579v134h549v-134h-549zM1237 0h-198v1127l-598 -1127h-243v1413h198v-1125l601 1125h240v-1413z" />
    <glyph glyph-name="uni04E3" unicode="&#x4e3;" horiz-adv-x="1140" 
d="M293 1166v134h549v-134h-549zM483 -21q-179 0 -266.5 125t-87.5 340v555h196v-564q0 -62 8.5 -110t29 -89.5t60.5 -64t98 -22.5q113 0 190 88t77 257v505h195v-999h-195v145q-44 -72 -125 -119t-180 -47z" />
    <glyph glyph-name="uni04E8" unicode="&#x4e8;" horiz-adv-x="1521" 
d="M760 -20q-131 0 -240 38t-185 105.5t-129 159.5t-77.5 198.5t-24.5 225.5t24.5 225.5t77.5 198.5t129 159.5t185 105.5t240 38q132 0 241 -38t185 -105.5t129 -159.5t77.5 -198.5t24.5 -225.5t-24.5 -225.5t-77.5 -198.5t-129 -159.5t-185 -105.5t-241 -38zM315 789h889
q-9 98 -39 179t-82.5 145.5t-135 100.5t-187.5 36q-106 0 -188.5 -36t-135.5 -100.5t-82.5 -145.5t-38.5 -179zM760 163q108 0 192 38t136.5 105t81.5 151.5t36 185.5h-892q7 -101 36 -185.5t81 -151.5t136.5 -105t192.5 -38z" />
    <glyph glyph-name="uni04E9" unicode="&#x4e9;" horiz-adv-x="1133" 
d="M566 -20q-108 0 -201.5 41t-158 110.5t-101 164t-36.5 200.5q0 141 62 258.5t176.5 187.5t258.5 70t258.5 -70t176.5 -187.5t62 -258.5q0 -106 -36.5 -200.5t-101 -164t-158 -110.5t-201.5 -41zM287 578h555q-17 119 -85.5 192t-190.5 73q-123 0 -192 -73t-87 -192z
M566 149q127 0 195 78.5t82 204.5h-557q14 -126 83 -204.5t197 -78.5z" />
    <glyph glyph-name="uni04EE" unicode="&#x4ee;" horiz-adv-x="1113" 
d="M283 1580v134h549v-134h-549zM242 0l195 457l-398 955h218l287 -736l310 736h219l-616 -1412h-215z" />
    <glyph glyph-name="uni04EF" unicode="&#x4ef;" horiz-adv-x="1002" 
d="M227 1166v134h549v-134h-549zM228 -430l174 446l-386 983h213l272 -759l272 759h213l-552 -1429h-206z" />
    <glyph glyph-name="Wgrave" unicode="&#x1e80;" horiz-adv-x="1987" 
d="M926 1513l-281 300h224l221 -300h-164zM461 0l-410 1413h210l319 -1135l334 1053h160l334 -1053l318 1135h211l-410 -1413h-208l-324 1007l-327 -1007h-207z" />
    <glyph glyph-name="wgrave" unicode="&#x1e81;" horiz-adv-x="1441" 
d="M654 1113l-281 300h224l221 -300h-164zM324 -2l-293 1001h206l189 -719l210 719h170l210 -717l189 717h206l-293 -999h-180l-216 738l-218 -740h-180z" />
    <glyph glyph-name="Wacute" unicode="&#x1e82;" horiz-adv-x="1987" 
d="M888 1524l221 289h225l-291 -289h-155zM461 0l-410 1413h210l319 -1135l334 1053h160l334 -1053l318 1135h211l-410 -1413h-208l-324 1007l-327 -1007h-207z" />
    <glyph glyph-name="wacute" unicode="&#x1e83;" horiz-adv-x="1441" 
d="M616 1124l221 289h225l-291 -289h-155zM324 -2l-293 1001h206l189 -719l210 719h170l210 -717l189 717h206l-293 -999h-180l-216 738l-218 -740h-180z" />
    <glyph glyph-name="Wdieresis" unicode="&#x1e84;" horiz-adv-x="1987" 
d="M728 1605v208h186v-208h-186zM1073 1605v208h186v-208h-186zM461 0l-410 1413h210l319 -1135l334 1053h160l334 -1053l318 1135h211l-410 -1413h-208l-324 1007l-327 -1007h-207z" />
    <glyph glyph-name="wdieresis" unicode="&#x1e85;" horiz-adv-x="1441" 
d="M456 1205v208h186v-208h-186zM801 1205v208h186v-208h-186zM324 -2l-293 1001h206l189 -719l210 719h170l210 -717l189 717h206l-293 -999h-180l-216 738l-218 -740h-180z" />
    <glyph glyph-name="uni1EA4" unicode="&#x1ea4;" horiz-adv-x="1323" 
d="M555 1950l221 289h225l-291 -289h-155zM338 1511l323 354l323 -354h-173l-150 167l-148 -167h-175zM39 0l547 1413h154l544 -1413h-219l-108 307h-587l-109 -307h-222zM438 486h450l-224 628z" />
    <glyph glyph-name="uni1EA5" unicode="&#x1ea5;" 
d="M396 1537l221 289h225l-291 -289h-155zM179 1098l323 354l323 -354h-173l-150 167l-148 -167h-175zM409 -20q-151 0 -246.5 83.5t-95.5 228.5q0 291 420 291h243q0 125 -55 196.5t-168 71.5q-162 0 -257 -146l-145 108q149 207 397 207q194 0 302 -112t108 -298v-610
h-161l-10 169q-108 -189 -332 -189zM434 144q125 0 209.5 91t86.5 205h-229q-235 0 -235 -154q0 -69 45.5 -105.5t122.5 -36.5z" />
    <glyph glyph-name="uni1EA6" unicode="&#x1ea6;" horiz-adv-x="1323" 
d="M593 1939l-281 300h224l221 -300h-164zM338 1511l323 354l323 -354h-173l-150 167l-148 -167h-175zM39 0l547 1413h154l544 -1413h-219l-108 307h-587l-109 -307h-222zM438 486h450l-224 628z" />
    <glyph glyph-name="uni1EA7" unicode="&#x1ea7;" 
d="M434 1526l-281 300h224l221 -300h-164zM179 1098l323 354l323 -354h-173l-150 167l-148 -167h-175zM409 -20q-151 0 -246.5 83.5t-95.5 228.5q0 291 420 291h243q0 125 -55 196.5t-168 71.5q-162 0 -257 -146l-145 108q149 207 397 207q194 0 302 -112t108 -298v-610
h-161l-10 169q-108 -189 -332 -189zM434 144q125 0 209.5 91t86.5 205h-229q-235 0 -235 -154q0 -69 45.5 -105.5t122.5 -36.5z" />
    <glyph glyph-name="uni1EAA" unicode="&#x1eaa;" horiz-adv-x="1323" 
d="M785 1954q-40 0 -74.5 15.5t-57.5 37.5t-42.5 44t-40.5 37.5t-42 15.5q-68 0 -68 -137h-118q0 124 50 195.5t139 71.5q40 0 74 -15.5t57 -38t43 -44.5t41 -37.5t41 -15.5q67 0 67 145h124q0 -132 -51 -203t-142 -71zM338 1511l323 354l323 -354h-173l-150 167l-148 -167
h-175zM39 0l547 1413h154l544 -1413h-219l-108 307h-587l-109 -307h-222zM438 486h450l-224 628z" />
    <glyph glyph-name="uni1EAB" unicode="&#x1eab;" 
d="M626 1541q-40 0 -74.5 15.5t-57.5 37.5t-42.5 44t-40.5 37.5t-42 15.5q-68 0 -68 -137h-118q0 124 50 195.5t139 71.5q40 0 74 -15.5t57 -37.5t43 -44.5t41 -38t41 -15.5q67 0 67 145h124q0 -132 -51 -203t-142 -71zM179 1098l323 354l323 -354h-173l-150 167l-148 -167
h-175zM409 -20q-151 0 -246.5 83.5t-95.5 228.5q0 291 420 291h243q0 125 -55 196.5t-168 71.5q-162 0 -257 -146l-145 108q149 207 397 207q194 0 302 -112t108 -298v-610h-161l-10 169q-108 -189 -332 -189zM434 144q125 0 209.5 91t86.5 205h-229q-235 0 -235 -154
q0 -69 45.5 -105.5t122.5 -36.5z" />
    <glyph glyph-name="uni1EAE" unicode="&#x1eae;" horiz-adv-x="1323" 
d="M555 1951l221 289h225l-291 -289h-155zM662 1556q-150 0 -230.5 70t-80.5 200h153q0 -66 45 -104.5t113 -38.5q69 0 113 38.5t44 104.5h153q0 -132 -81.5 -201t-228.5 -69zM39 0l547 1413h154l544 -1413h-219l-108 307h-587l-109 -307h-222zM438 486h450l-224 628z" />
    <glyph glyph-name="uni1EAF" unicode="&#x1eaf;" 
d="M396 1538l221 289h225l-291 -289h-155zM503 1143q-150 0 -230.5 70t-80.5 200h153q0 -66 45 -104.5t113 -38.5q69 0 113 38.5t44 104.5h153q0 -132 -81.5 -201t-228.5 -69zM409 -20q-151 0 -246.5 83.5t-95.5 228.5q0 291 420 291h243q0 125 -55 196.5t-168 71.5
q-162 0 -257 -146l-145 108q149 207 397 207q194 0 302 -112t108 -298v-610h-161l-10 169q-108 -189 -332 -189zM434 144q125 0 209.5 91t86.5 205h-229q-235 0 -235 -154q0 -69 45.5 -105.5t122.5 -36.5z" />
    <glyph glyph-name="uni1EB0" unicode="&#x1eb0;" horiz-adv-x="1323" 
d="M593 1940l-281 300h224l221 -300h-164zM662 1556q-150 0 -230.5 70t-80.5 200h153q0 -66 45 -104.5t113 -38.5q69 0 113 38.5t44 104.5h153q0 -132 -81.5 -201t-228.5 -69zM39 0l547 1413h154l544 -1413h-219l-108 307h-587l-109 -307h-222zM438 486h450l-224 628z" />
    <glyph glyph-name="uni1EB1" unicode="&#x1eb1;" 
d="M434 1527l-281 300h224l221 -300h-164zM503 1143q-150 0 -230.5 70t-80.5 200h153q0 -66 45 -104.5t113 -38.5q69 0 113 38.5t44 104.5h153q0 -132 -81.5 -201t-228.5 -69zM409 -20q-151 0 -246.5 83.5t-95.5 228.5q0 291 420 291h243q0 125 -55 196.5t-168 71.5
q-162 0 -257 -146l-145 108q149 207 397 207q194 0 302 -112t108 -298v-610h-161l-10 169q-108 -189 -332 -189zM434 144q125 0 209.5 91t86.5 205h-229q-235 0 -235 -154q0 -69 45.5 -105.5t122.5 -36.5z" />
    <glyph glyph-name="uni1EB4" unicode="&#x1eb4;" horiz-adv-x="1323" 
d="M785 1955q-40 0 -74.5 15.5t-57.5 37.5t-42.5 44t-40.5 37.5t-42 15.5q-68 0 -68 -137h-118q0 124 50 195.5t139 71.5q40 0 74 -15.5t57 -37.5t43 -44.5t41 -38t41 -15.5q67 0 67 145h124q0 -132 -51 -203t-142 -71zM662 1556q-150 0 -230.5 70t-80.5 200h153
q0 -66 45 -104.5t113 -38.5q69 0 113 38.5t44 104.5h153q0 -132 -81.5 -201t-228.5 -69zM39 0l547 1413h154l544 -1413h-219l-108 307h-587l-109 -307h-222zM438 486h450l-224 628z" />
    <glyph glyph-name="uni1EB5" unicode="&#x1eb5;" 
d="M626 1542q-40 0 -74.5 15.5t-57.5 37.5t-42.5 44t-40.5 37.5t-42 15.5q-68 0 -68 -137h-118q0 124 50 195.5t139 71.5q40 0 74 -15.5t57 -38t43 -44.5t41 -37.5t41 -15.5q67 0 67 145h124q0 -132 -51 -203t-142 -71zM503 1143q-150 0 -230.5 70t-80.5 200h153
q0 -66 45 -104.5t113 -38.5q69 0 113 38.5t44 104.5h153q0 -132 -81.5 -201t-228.5 -69zM409 -20q-151 0 -246.5 83.5t-95.5 228.5q0 291 420 291h243q0 125 -55 196.5t-168 71.5q-162 0 -257 -146l-145 108q149 207 397 207q194 0 302 -112t108 -298v-610h-161l-10 169
q-108 -189 -332 -189zM434 144q125 0 209.5 91t86.5 205h-229q-235 0 -235 -154q0 -69 45.5 -105.5t122.5 -36.5z" />
    <glyph glyph-name="uni1EBC" unicode="&#x1ebc;" horiz-adv-x="1242" 
d="M768 1541q-40 0 -74.5 15.5t-57.5 37.5t-42.5 44t-40.5 37.5t-42 15.5q-68 0 -68 -137h-118q0 124 50 195.5t139 71.5q40 0 74 -15.5t57 -37.5t43 -44.5t41 -38t41 -15.5q67 0 67 145h124q0 -132 -51 -203t-142 -71zM198 0v1413h927v-182h-724v-434h649v-180h-649v-428
h724v-189h-927z" />
    <glyph glyph-name="uni1EBD" unicode="&#x1ebd;" horiz-adv-x="1051" 
d="M642 1128q-40 0 -74.5 15.5t-57.5 37.5t-42.5 44t-40.5 37.5t-42 15.5q-68 0 -68 -137h-118q0 124 50 195.5t139 71.5q40 0 74 -15.5t57 -38t43 -44.5t41 -37.5t41 -15.5q67 0 67 145h124q0 -132 -51 -203t-142 -71zM551 -17q-117 0 -210 41.5t-150.5 113.5t-87 163
t-29.5 194q0 101 28.5 193t83.5 166t145 118t203 44q97 0 175 -30t127 -78.5t81.5 -114.5t45.5 -133t13 -139q0 -53 -6 -85h-691q7 -125 75.5 -202.5t196.5 -77.5q163 0 261 107l134 -113q-82 -86 -177.5 -126.5t-217.5 -40.5zM279 583h509q-7 122 -70.5 197t-184.5 75
q-116 0 -179.5 -76t-74.5 -196z" />
    <glyph glyph-name="uni1EBE" unicode="&#x1ebe;" horiz-adv-x="1242" 
d="M538 1950l221 289h225l-291 -289h-155zM321 1511l323 354l323 -354h-173l-150 167l-148 -167h-175zM198 0v1413h927v-182h-724v-434h649v-180h-649v-428h724v-189h-927z" />
    <glyph glyph-name="uni1EBF" unicode="&#x1ebf;" horiz-adv-x="1051" 
d="M412 1537l221 289h225l-291 -289h-155zM195 1098l323 354l323 -354h-173l-150 167l-148 -167h-175zM551 -17q-117 0 -210 41.5t-150.5 113.5t-87 163t-29.5 194q0 101 28.5 193t83.5 166t145 118t203 44q97 0 175 -30t127 -78.5t81.5 -114.5t45.5 -133t13 -139
q0 -53 -6 -85h-691q7 -125 75.5 -202.5t196.5 -77.5q163 0 261 107l134 -113q-82 -86 -177.5 -126.5t-217.5 -40.5zM279 583h509q-7 122 -70.5 197t-184.5 75q-116 0 -179.5 -76t-74.5 -196z" />
    <glyph glyph-name="uni1EC0" unicode="&#x1ec0;" horiz-adv-x="1242" 
d="M576 1939l-281 300h224l221 -300h-164zM321 1511l323 354l323 -354h-173l-150 167l-148 -167h-175zM198 0v1413h927v-182h-724v-434h649v-180h-649v-428h724v-189h-927z" />
    <glyph glyph-name="uni1EC1" unicode="&#x1ec1;" horiz-adv-x="1051" 
d="M450 1526l-281 300h224l221 -300h-164zM195 1098l323 354l323 -354h-173l-150 167l-148 -167h-175zM551 -17q-117 0 -210 41.5t-150.5 113.5t-87 163t-29.5 194q0 101 28.5 193t83.5 166t145 118t203 44q97 0 175 -30t127 -78.5t81.5 -114.5t45.5 -133t13 -139
q0 -53 -6 -85h-691q7 -125 75.5 -202.5t196.5 -77.5q163 0 261 107l134 -113q-82 -86 -177.5 -126.5t-217.5 -40.5zM279 583h509q-7 122 -70.5 197t-184.5 75q-116 0 -179.5 -76t-74.5 -196z" />
    <glyph glyph-name="uni1EC4" unicode="&#x1ec4;" horiz-adv-x="1242" 
d="M768 1954q-40 0 -74.5 15.5t-57.5 37.5t-42.5 44t-40.5 37.5t-42 15.5q-68 0 -68 -137h-118q0 124 50 195.5t139 71.5q40 0 74 -15.5t57 -38t43 -44.5t41 -37.5t41 -15.5q67 0 67 145h124q0 -132 -51 -203t-142 -71zM321 1511l323 354l323 -354h-173l-150 167l-148 -167
h-175zM198 0v1413h927v-182h-724v-434h649v-180h-649v-428h724v-189h-927z" />
    <glyph glyph-name="uni1EC5" unicode="&#x1ec5;" horiz-adv-x="1051" 
d="M642 1541q-40 0 -74.5 15.5t-57.5 37.5t-42.5 44t-40.5 37.5t-42 15.5q-68 0 -68 -137h-118q0 124 50 195.5t139 71.5q40 0 74 -15.5t57 -37.5t43 -44.5t41 -38t41 -15.5q67 0 67 145h124q0 -132 -51 -203t-142 -71zM195 1098l323 354l323 -354h-173l-150 167l-148 -167
h-175zM551 -17q-117 0 -210 41.5t-150.5 113.5t-87 163t-29.5 194q0 101 28.5 193t83.5 166t145 118t203 44q97 0 175 -30t127 -78.5t81.5 -114.5t45.5 -133t13 -139q0 -53 -6 -85h-691q7 -125 75.5 -202.5t196.5 -77.5q163 0 261 107l134 -113q-82 -86 -177.5 -126.5
t-217.5 -40.5zM279 583h509q-7 122 -70.5 197t-184.5 75q-116 0 -179.5 -76t-74.5 -196z" />
    <glyph glyph-name="uni1ED0" unicode="&#x1ed0;" horiz-adv-x="1521" 
d="M653 1950l221 289h225l-291 -289h-155zM436 1511l323 354l323 -354h-173l-150 167l-148 -167h-175zM760 -20q-131 0 -239.5 38.5t-185 105.5t-129 159t-77.5 199t-25 225t25 224.5t77.5 199t129 159.5t185 105.5t239.5 38.5t240 -38.5t185.5 -105.5t129 -159.5t77.5 -199
t25 -224.5t-25 -225t-77.5 -199t-129 -159t-185.5 -105.5t-240 -38.5zM760 163q117 0 206 44t141 121.5t77.5 172.5t25.5 206q0 88 -15.5 166t-50 148t-86 120t-128 79.5t-170.5 29.5t-170 -29.5t-127.5 -79.5t-85.5 -120t-49.5 -148t-15.5 -166q0 -111 25.5 -206t77 -172.5
t140 -121.5t205.5 -44z" />
    <glyph glyph-name="uni1ED1" unicode="&#x1ed1;" horiz-adv-x="1123" 
d="M454 1537l221 289h225l-291 -289h-155zM237 1098l323 354l323 -354h-173l-150 167l-148 -167h-175zM560 -20q-144 0 -257 71.5t-173.5 190t-60.5 260.5t60.5 259.5t173.5 188t257 70.5q143 0 257 -70.5t175 -188.5t61 -259q0 -142 -61 -260.5t-175 -190t-257 -71.5z
M561 144q74 0 131.5 30t91.5 81t51.5 114t17.5 133q0 71 -17 133t-51.5 112t-92 79t-131.5 29q-98 0 -165.5 -51t-97 -128.5t-29.5 -173.5q0 -56 10.5 -108t33.5 -97.5t56.5 -79.5t83 -53.5t108.5 -19.5z" />
    <glyph glyph-name="uni1ED2" unicode="&#x1ed2;" horiz-adv-x="1521" 
d="M691 1939l-281 300h224l221 -300h-164zM436 1511l323 354l323 -354h-173l-150 167l-148 -167h-175zM760 -20q-131 0 -239.5 38.5t-185 105.5t-129 159t-77.5 199t-25 225t25 224.5t77.5 199t129 159.5t185 105.5t239.5 38.5t240 -38.5t185.5 -105.5t129 -159.5t77.5 -199
t25 -224.5t-25 -225t-77.5 -199t-129 -159t-185.5 -105.5t-240 -38.5zM760 163q117 0 206 44t141 121.5t77.5 172.5t25.5 206q0 88 -15.5 166t-50 148t-86 120t-128 79.5t-170.5 29.5t-170 -29.5t-127.5 -79.5t-85.5 -120t-49.5 -148t-15.5 -166q0 -111 25.5 -206t77 -172.5
t140 -121.5t205.5 -44z" />
    <glyph glyph-name="uni1ED3" unicode="&#x1ed3;" horiz-adv-x="1123" 
d="M492 1526l-281 300h224l221 -300h-164zM237 1098l323 354l323 -354h-173l-150 167l-148 -167h-175zM560 -20q-144 0 -257 71.5t-173.5 190t-60.5 260.5t60.5 259.5t173.5 188t257 70.5q143 0 257 -70.5t175 -188.5t61 -259q0 -142 -61 -260.5t-175 -190t-257 -71.5z
M561 144q74 0 131.5 30t91.5 81t51.5 114t17.5 133q0 71 -17 133t-51.5 112t-92 79t-131.5 29q-98 0 -165.5 -51t-97 -128.5t-29.5 -173.5q0 -56 10.5 -108t33.5 -97.5t56.5 -79.5t83 -53.5t108.5 -19.5z" />
    <glyph glyph-name="uni1ED6" unicode="&#x1ed6;" horiz-adv-x="1521" 
d="M883 1954q-40 0 -74.5 15.5t-57.5 37.5t-42.5 44t-40.5 37.5t-42 15.5q-68 0 -68 -137h-118q0 124 50 195.5t139 71.5q40 0 74 -15.5t57 -38t43 -44.5t41 -37.5t41 -15.5q67 0 67 145h124q0 -132 -51 -203t-142 -71zM436 1511l323 354l323 -354h-173l-150 167l-148 -167
h-175zM760 -20q-131 0 -239.5 38.5t-185 105.5t-129 159t-77.5 199t-25 225t25 224.5t77.5 199t129 159.5t185 105.5t239.5 38.5t240 -38.5t185.5 -105.5t129 -159.5t77.5 -199t25 -224.5t-25 -225t-77.5 -199t-129 -159t-185.5 -105.5t-240 -38.5zM760 163q117 0 206 44
t141 121.5t77.5 172.5t25.5 206q0 88 -15.5 166t-50 148t-86 120t-128 79.5t-170.5 29.5t-170 -29.5t-127.5 -79.5t-85.5 -120t-49.5 -148t-15.5 -166q0 -111 25.5 -206t77 -172.5t140 -121.5t205.5 -44z" />
    <glyph glyph-name="uni1ED7" unicode="&#x1ed7;" horiz-adv-x="1123" 
d="M684 1541q-40 0 -74.5 15.5t-57.5 37.5t-42.5 44t-40.5 37.5t-42 15.5q-68 0 -68 -137h-118q0 124 50 195.5t139 71.5q40 0 74 -15.5t57 -37.5t43 -44.5t41 -38t41 -15.5q67 0 67 145h124q0 -132 -51 -203t-142 -71zM237 1098l323 354l323 -354h-173l-150 167l-148 -167
h-175zM560 -20q-144 0 -257 71.5t-173.5 190t-60.5 260.5t60.5 259.5t173.5 188t257 70.5q143 0 257 -70.5t175 -188.5t61 -259q0 -142 -61 -260.5t-175 -190t-257 -71.5zM561 144q74 0 131.5 30t91.5 81t51.5 114t17.5 133q0 71 -17 133t-51.5 112t-92 79t-131.5 29
q-98 0 -165.5 -51t-97 -128.5t-29.5 -173.5q0 -56 10.5 -108t33.5 -97.5t56.5 -79.5t83 -53.5t108.5 -19.5z" />
    <glyph glyph-name="Ygrave" unicode="&#x1ef2;" horiz-adv-x="1317" 
d="M588 1526l-281 300h224l221 -300h-164zM556 0v552l-529 861h242l388 -661l390 661h243l-527 -861v-552h-207z" />
    <glyph glyph-name="ygrave" unicode="&#x1ef3;" horiz-adv-x="1002" 
d="M430 1113l-281 300h224l221 -300h-164zM226 -430l177 445l-387 984h213l274 -759l271 759h212l-552 -1429h-208z" />
    <glyph glyph-name="uni1EF8" unicode="&#x1ef8;" horiz-adv-x="1317" 
d="M780 1541q-40 0 -74.5 15.5t-57.5 37.5t-42.5 44t-40.5 37.5t-42 15.5q-68 0 -68 -137h-118q0 124 50 195.5t139 71.5q40 0 74 -15.5t57 -37.5t43 -44.5t41 -38t41 -15.5q67 0 67 145h124q0 -132 -51 -203t-142 -71zM556 0v552l-529 861h242l388 -661l390 661h243
l-527 -861v-552h-207z" />
    <glyph glyph-name="uni1EF9" unicode="&#x1ef9;" horiz-adv-x="1002" 
d="M622 1128q-40 0 -74.5 15.5t-57.5 37.5t-42.5 44t-40.5 37.5t-42 15.5q-68 0 -68 -137h-118q0 124 50 195.5t139 71.5q40 0 74 -15.5t57 -38t43 -44.5t41 -37.5t41 -15.5q67 0 67 145h124q0 -132 -51 -203t-142 -71zM226 -430l177 445l-387 984h213l274 -759l271 759h212
l-552 -1429h-208z" />
    <glyph glyph-name="endash" unicode="&#x2013;" horiz-adv-x="1034" 
d="M152 545v147h730v-147h-730z" />
    <glyph glyph-name="emdash" unicode="&#x2014;" horiz-adv-x="2048" 
d="M0 545v147h2048v-147h-2048z" />
    <glyph glyph-name="uni2015" unicode="&#x2015;" horiz-adv-x="1526" 
d="M152 545v147h1222v-147h-1222z" />
    <glyph glyph-name="quoteleft" unicode="&#x2018;" horiz-adv-x="566" 
d="M315 893l-235 520h233l128 -520h-126z" />
    <glyph glyph-name="quoteright" unicode="&#x2019;" horiz-adv-x="566" 
d="M124 893l129 520h233l-236 -520h-126z" />
    <glyph glyph-name="quotesinglbase" unicode="&#x201a;" horiz-adv-x="557" 
d="M125 -225l127 489h223l-232 -489h-118z" />
    <glyph glyph-name="quotedblleft" unicode="&#x201c;" horiz-adv-x="912" 
d="M315 893l-235 520h233l128 -520h-126zM662 893l-236 520h233l129 -520h-126z" />
    <glyph glyph-name="quotedblright" unicode="&#x201d;" horiz-adv-x="912" 
d="M124 893l129 520h233l-236 -520h-126zM471 893l129 520h232l-235 -520h-126z" />
    <glyph glyph-name="quotedblbase" unicode="&#x201e;" horiz-adv-x="888" 
d="M125 -225l127 489h223l-232 -489h-118zM456 -225l127 489h223l-233 -489h-117z" />
    <glyph glyph-name="dagger" unicode="&#x2020;" horiz-adv-x="793" 
d="M305 -205v1033h-222v183h222v402h183v-402h222v-183h-222v-1033h-183z" />
    <glyph glyph-name="daggerdbl" unicode="&#x2021;" horiz-adv-x="885" 
d="M351 -205v401h-222v185h222v447h-222v183h222v402h183v-402h222v-183h-222v-447h222v-185h-222v-401h-183z" />
    <glyph glyph-name="bullet" unicode="&#x2022;" horiz-adv-x="793" 
d="M396 244q-98 0 -167.5 69.5t-69.5 167.5t69.5 168t167.5 70t168 -70t70 -168t-70 -167.5t-168 -69.5z" />
    <glyph glyph-name="uni2023" unicode="&#x2023;" horiz-adv-x="853" 
d="M221 193v633l549 -316z" />
    <glyph glyph-name="twodotenleader" unicode="&#x2025;" horiz-adv-x="1069" 
d="M217 0v227h221v-227h-221zM631 0v227h220v-227h-220z" />
    <glyph glyph-name="ellipsis" unicode="&#x2026;" horiz-adv-x="1482" 
d="M217 0v227h221v-227h-221zM631 0v227h220v-227h-220zM1045 0v227h220v-227h-220z" />
    <glyph glyph-name="perthousand" unicode="&#x2030;" horiz-adv-x="2174" 
d="M370 787q-59 0 -106 21.5t-76.5 55t-49 78t-27 86.5t-7.5 83q0 42 7.5 84t26.5 86.5t47.5 78t75 55t103.5 21.5q66 0 118 -29t83 -77t47 -104.5t16 -116.5q0 -80 -26 -151t-86.5 -121t-145.5 -50zM303 -8l771 1437h169l-771 -1437h-169zM367 921q56 0 87 57t31 133
q0 78 -31.5 133.5t-89.5 55.5q-59 0 -90 -55.5t-31 -133.5t32 -134t92 -56zM1197 -3q-59 0 -106 21.5t-76 55t-48.5 78t-27 86.5t-7.5 84t7.5 84.5t26.5 86.5t47.5 78t74.5 55.5t103 21.5q66 0 118 -29t83.5 -77t47.5 -104.5t16 -116.5q0 -81 -26.5 -152.5t-87 -121.5
t-145.5 -50zM1811 -3q-59 0 -106 21.5t-76 55t-48.5 78t-27 86.5t-7.5 84t7.5 84.5t26.5 87t47.5 78t74.5 55t103 21.5q66 0 118 -29t83.5 -77t47.5 -104.5t16 -116.5q0 -81 -26.5 -152.5t-87 -121.5t-145.5 -50zM1195 130q56 0 87 58t31 135q0 78 -31.5 134t-90.5 56
q-57 0 -88.5 -56.5t-31.5 -134.5q0 -79 31.5 -135.5t92.5 -56.5zM1809 130q56 0 86.5 58t30.5 135q0 78 -31.5 134t-89.5 56t-89 -56t-31 -135t32 -135.5t92 -56.5z" />
    <glyph glyph-name="uni2031" unicode="&#x2031;" horiz-adv-x="2777" 
d="M370 787q-59 0 -106 21.5t-76.5 55t-49 78t-27 86.5t-7.5 83q0 42 7.5 84t26.5 86.5t47.5 78t74.5 55t104 21.5q65 0 117 -29t83 -77t47 -104.5t16 -116.5q0 -59 -15.5 -114.5t-46 -103t-81 -76t-114.5 -28.5zM303 -8l771 1436h168l-770 -1436h-169zM367 921q56 0 87 57
t31 133q0 78 -31.5 134t-89.5 56q-59 0 -90.5 -56t-31.5 -134t32 -134t93 -56zM1197 -3q-59 0 -106 21.5t-76 55t-48.5 78t-27 86.5t-7.5 84t7.5 84.5t26.5 86.5t47.5 78t74.5 55.5t103 21.5q65 0 117.5 -29t83.5 -77t47 -104.5t16 -116.5q0 -81 -26.5 -152.5t-87 -121.5
t-144.5 -50zM1810 -3q-59 0 -106 21.5t-76 55t-48.5 78t-27 86.5t-7.5 84t7.5 84.5t26.5 87t47.5 78t74.5 55t103 21.5q66 0 118 -29t83 -77t47 -104.5t16 -116.5q0 -59 -15.5 -115.5t-46 -103.5t-81.5 -76t-115 -29zM2416 -3q-59 0 -106 21.5t-76 55t-48.5 78t-27 86.5
t-7.5 84t7.5 84.5t26.5 86.5t47.5 78t74.5 55.5t103 21.5q66 0 118 -29t83 -77t47 -104.5t16 -116.5q0 -59 -15.5 -115.5t-46 -103.5t-81.5 -76t-115 -29zM1195 130q56 0 87 58t31 135q0 78 -31.5 134.5t-90.5 56.5q-58 0 -89.5 -57t-31.5 -135q0 -79 31.5 -135.5
t93.5 -56.5zM1807 130q56 0 87.5 58t31.5 135q0 78 -31.5 134.5t-90.5 56.5t-90 -56.5t-31 -135.5t31.5 -135.5t92.5 -56.5zM2413 130q56 0 87.5 58t31.5 135q0 78 -31.5 134.5t-90.5 56.5t-90 -56.5t-31 -135.5t31.5 -135.5t92.5 -56.5z" />
    <glyph glyph-name="guilsinglleft" unicode="&#x2039;" horiz-adv-x="595" 
d="M438 171l-396 340l396 340v-185l-187 -155l187 -155v-185z" />
    <glyph glyph-name="guilsinglright" unicode="&#x203a;" horiz-adv-x="597" 
d="M155 171v185l187 155l-187 155v185l397 -340z" />
    <glyph glyph-name="fraction" unicode="&#x2044;" horiz-adv-x="802" 
d="M-82 0l772 1413h194l-772 -1413h-194z" />
    <glyph glyph-name="Euro" unicode="&#x20ac;" horiz-adv-x="1272" 
d="M782 -20q-104 0 -190.5 36.5t-148 102t-103.5 152.5t-64 193h-154l66 152h67q-2 31 -2 91q0 58 4 102h-135l66 153h90q48 216 175 345t327 129q238 0 382 -198l-130 -105q-84 125 -253 125q-125 0 -208.5 -80.5t-122.5 -215.5h528l-65 -153h-489q-4 -60 -4 -90
q0 -38 4 -100h554l-65 -153h-463q39 -143 122.5 -226t211.5 -83q162 0 246 128l121 -125q-140 -180 -367 -180z" />
    <glyph glyph-name="uni20B1" unicode="&#x20b1;" horiz-adv-x="1348" 
d="M1250 1065v-100h-125q-16 -167 -143 -259t-329 -92h-216v-614h-202v965h-92v100h92v348h418q197 0 324.5 -92.5t146.5 -255.5h126zM437 1227v-162h483q-17 78 -84.5 120t-182.5 42h-216zM653 800q242 0 269 165h-485v-165h216z" />
    <glyph glyph-name="uni20B3" unicode="&#x20b3;" horiz-adv-x="1323" 
d="M1166 307l118 -307h-219l-108 307h-587l-109 -307h-222l119 307h-101v133h152l82 210h-234v133h285l244 630h154l243 -630h282v-133h-231l81 -210h150v-133h-99zM662 1167l-134 -384h270zM482 650l-74 -210h511l-74 210h-363z" />
    <glyph glyph-name="uni20B4" unicode="&#x20b4;" horiz-adv-x="1251" 
d="M927 432l197 -53q-20 -127 -98 -218.5t-185 -134t-230 -42.5q-200 0 -332 114t-132 304q0 42 8 80t20 68t33.5 58.5t41 49t51 42t55 35.5t61.5 32t61.5 27.5t63.5 26t60 25.5h-354v118h540q39 47 39 111q0 80 -59.5 130t-143.5 50q-79 0 -145.5 -40.5t-106.5 -116.5
l-162 103q67 117 173 175t237 58q173 0 291.5 -102t118.5 -271q0 -49 -12 -91.5t-29 -73t-48.5 -58.5t-58.5 -45.5t-70.5 -37t-73 -30.5t-78 -28t-74.5 -27h408v-117h-597q-47 -56 -47 -141q0 -120 68.5 -181t190.5 -61q126 0 215 67t103 195z" />
    <glyph glyph-name="uni20B8" unicode="&#x20b8;" horiz-adv-x="1401" 
d="M138 1236v176h1126v-176h-1126zM599 0v928h-461v175h1126v-175h-462v-928h-203z" />
    <glyph glyph-name="uni20BD" unicode="&#x20bd;" horiz-adv-x="1342" 
d="M328 0v313h-177v163h177v148h-177v176h177v613h418q214 0 343.5 -107.5t129.5 -295.5q0 -187 -128.5 -286.5t-344.5 -99.5h-217v-148h360v-163h-360v-313h-201zM529 800h217q274 0 274 210q0 104 -70 160.5t-204 56.5h-217v-427z" />
    <glyph glyph-name="uni2116" unicode="&#x2116;" horiz-adv-x="2343" 
d="M1547 584q0 -154 -85 -272t-225 -154v-158h-243l-129 244q-112 99 -139 261l-330 622v-1127h-198v1413h240l330 -618q41 82 111 138t160 76v404h198v-407q140 -35 225 -152t85 -270zM888 584v-14l142 -266l9 -3v562q-75 -31 -113 -107t-38 -172zM1237 305
q70 34 106 109.5t36 169.5q0 93 -36 167.5t-106 107.5v-554zM1442 154h760v-154h-760v154z" />
    <glyph glyph-name="trademark" unicode="&#x2122;" horiz-adv-x="1347" 
d="M288 877v434h-145v102h405v-102h-146v-434h-114zM621 877v536h120l126 -335l127 335h116v-536h-114v329l-87 -248h-83l-90 252v-333h-115z" />
    <glyph glyph-name="uni2126" unicode="&#x2126;" horiz-adv-x="1676" 
d="M163 0v165h311q-140 93 -223.5 242.5t-83.5 310.5q0 131 47.5 258t128.5 213q94 100 227 159t267 59q133 0 267 -59.5t228 -159.5q80 -85 127.5 -213t47.5 -259q0 -165 -77.5 -315t-209.5 -239h290v-162h-542v160q166 39 265 193.5t99 376.5q0 96 -32 188t-86 151
q-71 78 -173.5 124.5t-203.5 46.5t-202 -46.5t-173 -124.5q-54 -60 -86.5 -151t-32.5 -188q0 -213 98.5 -367.5t264.5 -202.5v-160h-543z" />
    <glyph glyph-name="arrowleft" unicode="&#x2190;" horiz-adv-x="2206" 
d="M1025 106l-950 533l950 525l87 -154l-607 -298h1600v-154h-1588l595 -299z" />
    <glyph glyph-name="arrowright" unicode="&#x2192;" horiz-adv-x="2206" 
d="M1182 106l-88 153l595 299h-1587v154h1598l-606 298l88 154l949 -525z" />
    <glyph glyph-name="partialdiff" unicode="&#x2202;" horiz-adv-x="1295" 
d="M561 -11q-201 0 -319 124.5t-118 325.5q0 163 74 296t198.5 207t271.5 74q166 0 279 -109q-5 182 -85.5 276t-212.5 94q-175 0 -246 -161l-159 45q52 128 161 198t259 70q124 0 217 -49t149.5 -140.5t84.5 -213.5t28 -276q0 -158 -37 -295t-108 -241.5t-183.5 -164.5
t-253.5 -60zM574 158q153 0 259 117.5t106 293.5q0 129 -66 205.5t-194 76.5q-69 0 -129 -24t-103 -65t-74 -94t-46 -111.5t-15 -117.5q0 -130 73.5 -205.5t188.5 -75.5z" />
    <glyph glyph-name="uni2206" unicode="&#x2206;" horiz-adv-x="1297" 
d="M76 0l572 1458l573 -1458h-1145zM321 167h654l-327 860z" />
    <glyph glyph-name="product" unicode="&#x220f;" horiz-adv-x="1339" 
d="M252 0v1246h-82v167h999v-167h-82v-1246h-167v1246h-501v-1246h-167z" />
    <glyph glyph-name="summation" unicode="&#x2211;" horiz-adv-x="1269" 
d="M103 0v84l574 623l-574 622v84h1043v-167h-742l512 -539l-512 -540h742v-167h-1043z" />
    <glyph glyph-name="minus" unicode="&#x2212;" horiz-adv-x="1349" 
d="M232 555v147h886v-147h-886z" />
    <glyph glyph-name="radical" unicode="&#x221a;" horiz-adv-x="1199" 
d="M501 -206l-267 766h-154v167h273l158 -499l453 1193l157 -58z" />
    <glyph glyph-name="infinity" unicode="&#x221e;" horiz-adv-x="1890" 
d="M540 354q-177 0 -278 104.5t-101 276.5t101 276.5t278 104.5q109 0 215.5 -59t189.5 -167q82 108 189 167t217 59q176 0 277 -105t101 -276t-101 -276t-277 -105q-110 0 -217 59.5t-189 167.5q-83 -109 -189.5 -168t-215.5 -59zM570 513q75 0 154 59.5t133 162.5
q-55 102 -134 162t-153 60q-105 0 -167.5 -59t-62.5 -163t62.5 -163t167.5 -59zM1320 513q105 0 167 59t62 163t-62 163t-167 59q-75 0 -154 -59.5t-133 -162.5q55 -102 134 -162t153 -60z" />
    <glyph glyph-name="integral" unicode="&#x222b;" horiz-adv-x="949" 
d="M70 -457v168q175 0 250.5 68t75.5 229v1140q0 130 81.5 215.5t200.5 85.5q115 0 212 -82l-109 -129q-47 43 -103 43q-48 0 -81.5 -34.5t-33.5 -101.5v-1139q0 -224 -132 -343.5t-361 -119.5z" />
    <glyph glyph-name="approxequal" unicode="&#x2248;" horiz-adv-x="1168" 
d="M740 734q-48 0 -91 14.5t-73.5 35t-58 40.5t-56 34.5t-55.5 14.5q-45 0 -61.5 -28.5t-15.5 -83.5h-133q0 116 54 180.5t154 64.5q57 0 104 -14t78 -34t56.5 -40t51.5 -34t52 -14q49 0 67.5 31.5t18.5 99.5h140q0 -130 -59 -198.5t-173 -68.5zM741 388q-59 0 -111.5 22
t-83.5 48t-69 48t-71 22q-45 0 -61.5 -29t-15.5 -84h-133q0 116 54 180.5t154 64.5q57 0 104 -14t78 -34t56.5 -39.5t51.5 -33.5t52 -14q49 0 67.5 31t18.5 98h140q0 -129 -59 -197.5t-172 -68.5z" />
    <glyph glyph-name="notequal" unicode="&#x2260;" horiz-adv-x="1171" 
d="M115 0l229 418h-155v162h241l99 184h-340v162h427l265 487h181l-265 -487h176v-162h-263l-99 -184h362v-162h-449l-228 -418h-181z" />
    <glyph glyph-name="lessequal" unicode="&#x2264;" horiz-adv-x="1319" 
d="M1084 135l-939 525l939 523l84 -146l-704 -377l704 -379zM94 -147v147h1087v-147h-1087z" />
    <glyph glyph-name="greaterequal" unicode="&#x2265;" horiz-adv-x="1317" 
d="M233 135l-84 146l704 379l-704 377l84 146l939 -523zM136 -147v147h1087v-147h-1087z" />
    <glyph glyph-name="lozenge" unicode="&#x25ca;" horiz-adv-x="1113" 
d="M466 0l-376 717l376 717h182l375 -717l-375 -717h-182zM557 186l266 531l-266 530l-267 -530z" />
    <glyph glyph-name="uniF8FF" unicode="&#xf8ff;" horiz-adv-x="1756" 
d="M878 -61q-158 0 -301 61t-247 165t-165 247t-61 301t61 301t165 247t247 165t301 61t301 -61t247 -165t165 -247t61 -301t-61 -301t-165 -247t-247 -165t-301 -61zM878 10q143 0 273 55.5t224 149.5t149.5 224.5t55.5 273.5t-55.5 273t-149.5 224t-224 149.5t-273 55.5
t-273.5 -55.5t-224.5 -149.5t-149.5 -224t-55.5 -273q0 -191 94 -353t256 -256t353 -94zM474 410q-14 0 -24 9.5t-10 24.5v537q0 15 10 26t24 11q16 0 26.5 -11t10.5 -26v-537q0 -15 -10.5 -24.5t-26.5 -9.5zM878 410q-16 0 -25.5 9.5t-9.5 24.5v537q0 15 10 26t25 11
t25 -11t10 -26v-537q0 -15 -10 -24.5t-25 -9.5zM1279 410q-15 0 -22 10l-271 268q-8 11 -8 25q0 16 8 24l272 269q8 12 21 12q14 0 25.5 -11.5t11.5 -25.5t-10 -25l-244 -243l244 -244q10 -10 10 -25q0 -13 -11.5 -23.5t-25.5 -10.5zM610 678q-16 0 -25.5 9.5t-9.5 25.5
q0 15 9.5 25t25.5 10h133q15 0 26 -10t11 -25t-11 -25t-26 -10h-133z" />
    <glyph glyph-name="c.001" horiz-adv-x="988" 
d="M533 -20q-111 0 -200 43t-144 116t-84 165t-29 194t28.5 194t83.5 166t143.5 118t199.5 44q139 0 246 -75t163 -204l-183 -75q-22 83 -82.5 133t-143.5 50q-68 0 -119.5 -31t-81 -83t-43.5 -111.5t-14 -125.5t14 -125.5t43 -111t80.5 -81.5t120.5 -30q82 0 143 49t83 130
l172 -69q-47 -132 -151 -206t-245 -74z" />
    <glyph glyph-name="g.ss01" horiz-adv-x="1135" 
d="M977 0q0 -204 -116.5 -320t-327.5 -116q-279 0 -418 206l149 109q40 -68 109.5 -107t160.5 -39q120 0 184 69.5t64 197.5v131q-98 -131 -291 -131q-101 0 -182.5 40.5t-133 110.5t-79 161.5t-27.5 196.5q0 141 47 255.5t143 185t226 70.5q91 0 169 -36t128 -104v119h195
v-999zM534 176q132 0 198 93.5t66 240.5q0 69 -15.5 128.5t-46.5 106.5t-82.5 74t-119.5 27q-132 0 -199.5 -95.5t-67.5 -240.5q0 -146 67.5 -240t199.5 -94z" />
    <glyph glyph-name="g.ss04" horiz-adv-x="1066" 
d="M659 155q67 0 125 -15.5t107.5 -47.5t78.5 -89t29 -134q0 -151 -113 -239t-328 -88q-104 0 -192.5 20.5t-156.5 60t-106.5 103t-38.5 144.5q0 48 13 81l147 77q-58 32 -95.5 85t-38.5 129q-2 129 112 204q-67 90 -67 210q0 159 113.5 260t284.5 101q142 0 244 -72
l150 131l99 -124l-145 -121q47 -82 47 -182q0 -158 -113.5 -257t-281.5 -99q-123 0 -220 55q-42 -31 -42 -89q1 -55 43.5 -79.5t127.5 -24.5h217zM536 864q-95 0 -151 -59.5t-56 -151.5q0 -91 55.5 -148t151.5 -57q94 0 149 57t55 148t-55.5 151t-148.5 60zM556 -301
q256 0 256 156q0 73 -56 104.5t-174 31.5h-233l-104 -100q0 -1 3 -29q12 -83 85.5 -123t222.5 -40z" />
    <glyph glyph-name="gbreve.ss01" horiz-adv-x="1135" 
d="M529 1143q-150 0 -230.5 70t-80.5 200h153q0 -66 45 -104.5t113 -38.5q69 0 113 38.5t44 104.5h153q0 -132 -81.5 -201t-228.5 -69zM977 0q0 -204 -116.5 -320t-327.5 -116q-279 0 -418 206l149 109q40 -68 109.5 -107t160.5 -39q120 0 184 69.5t64 197.5v131
q-98 -131 -291 -131q-101 0 -182.5 40.5t-133 110.5t-79 161.5t-27.5 196.5q0 141 47 255.5t143 185t226 70.5q91 0 169 -36t128 -104v119h195v-999zM534 176q132 0 198 93.5t66 240.5q0 69 -15.5 128.5t-46.5 106.5t-82.5 74t-119.5 27q-132 0 -199.5 -95.5t-67.5 -240.5
q0 -146 67.5 -240t199.5 -94z" />
    <glyph glyph-name="gbreve.ss04" horiz-adv-x="1066" 
d="M532 1143q-150 0 -230.5 70t-80.5 200h153q0 -66 45 -104.5t113 -38.5q69 0 113 38.5t44 104.5h153q0 -132 -81.5 -201t-228.5 -69zM659 155q67 0 125 -15.5t107.5 -47.5t78.5 -89t29 -134q0 -151 -113 -239t-328 -88q-104 0 -192.5 20.5t-156.5 60t-106.5 103
t-38.5 144.5q0 48 13 81l147 77q-58 32 -95.5 85t-38.5 129q-2 129 112 204q-67 90 -67 210q0 159 113.5 260t284.5 101q142 0 244 -72l150 131l99 -124l-145 -121q47 -82 47 -182q0 -158 -113.5 -257t-281.5 -99q-123 0 -220 55q-42 -31 -42 -89q1 -55 43.5 -79.5
t127.5 -24.5h217zM536 864q-95 0 -151 -59.5t-56 -151.5q0 -91 55.5 -148t151.5 -57q94 0 149 57t55 148t-55.5 151t-148.5 60zM556 -301q256 0 256 156q0 73 -56 104.5t-174 31.5h-233l-104 -100q0 -1 3 -29q12 -83 85.5 -123t222.5 -40z" />
    <glyph glyph-name="gcommaaccent.ss01" horiz-adv-x="1135" 
d="M762 1403l-129 -307h-231l237 307h123zM977 0q0 -204 -116.5 -320t-327.5 -116q-279 0 -418 206l149 109q40 -68 109.5 -107t160.5 -39q120 0 184 69.5t64 197.5v131q-98 -131 -291 -131q-101 0 -182.5 40.5t-133 110.5t-79 161.5t-27.5 196.5q0 141 47 255.5t143 185
t226 70.5q91 0 169 -36t128 -104v119h195v-999zM534 176q132 0 198 93.5t66 240.5q0 69 -15.5 128.5t-46.5 106.5t-82.5 74t-119.5 27q-132 0 -199.5 -95.5t-67.5 -240.5q0 -146 67.5 -240t199.5 -94z" />
    <glyph glyph-name="gcommaaccent.ss04" horiz-adv-x="1066" 
d="M767 1428l-129 -307h-231l237 307h123zM659 155q67 0 125 -15.5t107.5 -47.5t78.5 -89t29 -134q0 -151 -113 -239t-328 -88q-104 0 -192.5 20.5t-156.5 60t-106.5 103t-38.5 144.5q0 48 13 81l147 77q-58 32 -95.5 85t-38.5 129q-2 129 112 204q-67 90 -67 210
q0 159 113.5 260t284.5 101q142 0 244 -72l150 131l99 -124l-145 -121q47 -82 47 -182q0 -158 -113.5 -257t-281.5 -99q-123 0 -220 55q-42 -31 -42 -89q1 -55 43.5 -79.5t127.5 -24.5h217zM536 864q-95 0 -151 -59.5t-56 -151.5q0 -91 55.5 -148t151.5 -57q94 0 149 57
t55 148t-55.5 151t-148.5 60zM556 -301q256 0 256 156q0 73 -56 104.5t-174 31.5h-233l-104 -100q0 -1 3 -29q12 -83 85.5 -123t222.5 -40z" />
    <glyph glyph-name="gdotaccent.ss01" horiz-adv-x="1135" 
d="M421 1205v208h212v-208h-212zM977 0q0 -204 -116.5 -320t-327.5 -116q-279 0 -418 206l149 109q40 -68 109.5 -107t160.5 -39q120 0 184 69.5t64 197.5v131q-98 -131 -291 -131q-101 0 -182.5 40.5t-133 110.5t-79 161.5t-27.5 196.5q0 141 47 255.5t143 185t226 70.5
q91 0 169 -36t128 -104v119h195v-999zM534 176q132 0 198 93.5t66 240.5q0 69 -15.5 128.5t-46.5 106.5t-82.5 74t-119.5 27q-132 0 -199.5 -95.5t-67.5 -240.5q0 -146 67.5 -240t199.5 -94z" />
    <glyph glyph-name="gdotaccent.ss04" horiz-adv-x="1066" 
d="M636 1413v-208h-212v208h212zM659 155q67 0 125 -15.5t107.5 -47.5t78.5 -89t29 -134q0 -151 -113 -239t-328 -88q-104 0 -192.5 20.5t-156.5 60t-106.5 103t-38.5 144.5q0 48 13 81l147 77q-58 32 -95.5 85t-38.5 129q-2 129 112 204q-67 90 -67 210q0 159 113.5 260
t284.5 101q142 0 244 -72l150 131l99 -124l-145 -121q47 -82 47 -182q0 -158 -113.5 -257t-281.5 -99q-123 0 -220 55q-42 -31 -42 -89q1 -55 43.5 -79.5t127.5 -24.5h217zM536 864q-95 0 -151 -59.5t-56 -151.5q0 -91 55.5 -148t151.5 -57q94 0 149 57t55 148t-55.5 151
t-148.5 60zM556 -301q256 0 256 156q0 73 -56 104.5t-174 31.5h-233l-104 -100q0 -1 3 -29q12 -83 85.5 -123t222.5 -40z" />
    <glyph glyph-name="i.loclTRK" horiz-adv-x="508" 
d="M146 1205v208h212v-208h-212zM158 0v999h193v-999h-193z" />
    <glyph glyph-name="f_t" horiz-adv-x="1277" 
d="M1037 -20q-136 0 -206.5 77t-70.5 213v568h-354v-838h-197v838h-182v159h183v154q0 134 84.5 208.5t208.5 74.5q89 0 172 -40l-56 -157q-54 28 -99 28q-51 0 -82.5 -32.5t-31.5 -97.5v-136h357v236l186 156v-392h258v-161h-258v-548q0 -73 35 -108.5t91 -35.5t118 31
v-172q-60 -25 -156 -25z" />
    <glyph glyph-name="uni0414.loclRUS" horiz-adv-x="1458" 
d="M42 -307v479h157q82 169 118.5 339.5t36.5 394.5v506h877v-1240h141v-479h-202v307h-925v-306zM410 172h618v1059h-472v-324q0 -231 -33 -399.5t-113 -335.5z" />
    <glyph glyph-name="uni0414.loclSRB" horiz-adv-x="1458" 
d="M42 -307v481h157q83 170 119 339t36 393v506h877v-1238h141v-481h-202v307h-925v-306zM410 174h618v1057h-472v-324q0 -230 -33 -398t-113 -335z" />
    <glyph glyph-name="uni041B.loclRUS" horiz-adv-x="1427" 
d="M224 -20q-98 0 -185 51l70 181q44 -30 81 -30q39 0 67.5 31t45.5 103.5t27.5 138t14.5 189t5 198t1 220.5v16v334h879v-1412h-202v1231h-474v-208v-4q0 -125 -0.5 -189.5t-4.5 -179.5t-12.5 -179.5t-23.5 -154.5t-39.5 -140t-58.5 -101t-82.5 -73t-108.5 -22z" />
    <glyph glyph-name="uni041B.loclSRB" horiz-adv-x="1427" 
d="M224 -20q-98 0 -185 51l70 181q44 -30 81 -30q39 0 67.5 31t45.5 103.5t27.5 138t14.5 189t5 198t1 220.5v16v334h879v-1412h-202v1231h-474v-208v-4q0 -125 -0.5 -189.5t-4.5 -179.5t-12.5 -179.5t-23.5 -154.5t-39.5 -140t-58.5 -101t-82.5 -73t-108.5 -22z" />
    <glyph glyph-name="uni042E.loclRUS" horiz-adv-x="1945" 
d="M1183 -20q-151 0 -271.5 49.5t-199 137t-124.5 201t-58 248.5h-129v-616h-203v1412h203v-615h129q12 134 58 247.5t124.5 201.5t199.5 138t271 50q132 0 241 -38t185 -105.5t129 -159.5t77.5 -198.5t24.5 -225.5t-24.5 -225.5t-77.5 -198.5t-129 -159.5t-185 -105.5
t-241 -38zM1183 163q94 0 170 29t127 79.5t85.5 120t50 148.5t15.5 167t-15.5 166.5t-50 148t-85.5 120t-127 79.5t-170 29t-170 -29t-127 -79.5t-85.5 -120t-50 -148t-15.5 -166.5t15.5 -167t50 -148.5t85.5 -120t127 -79.5t170 -29z" />
    <glyph glyph-name="uni0431.loclSRB" horiz-adv-x="1138" 
d="M558 -16q-144 0 -258 67t-174.5 180.5t-60.5 250.5q0 69 16.5 135t52.5 131t101 120t153 90q-52 29 -85.5 51.5t-64.5 53t-45.5 66t-14.5 78.5q0 101 77.5 164t212.5 63q174 0 357 -93l-59 -182q-59 47 -134.5 78.5t-144.5 31.5q-101 0 -101 -74q0 -51 53 -91t170 -81
q222 -68 335.5 -192t113.5 -327q0 -229 -141 -374.5t-359 -145.5zM560 149q64 0 115.5 24t82.5 60.5t51.5 84t28 91t7.5 85.5q0 69 -24 127.5t-58.5 94.5t-80.5 64t-82 41t-72 21q-125 -32 -187.5 -127t-62.5 -227q0 -148 74.5 -243.5t207.5 -95.5z" />
    <glyph glyph-name="uni0432.loclRUS" horiz-adv-x="1068" 
d="M153 0v999h431q85 0 146 -11.5t111 -40.5t75.5 -83t25.5 -133q0 -72 -39 -130.5t-120 -76.5q204 -27 204 -229q0 -87 -25 -145.5t-78.5 -91t-124.5 -45.5t-176 -13h-430zM343 599h246q74 0 117 32.5t43 81.5q0 58 -36.5 85t-124.5 27h-245v-226zM343 177h242
q114 0 158.5 28.5t44.5 102.5q0 67 -52 94t-151 27h-242v-252z" />
    <glyph glyph-name="uni0432.loclSRB" horiz-adv-x="1068" 
d="M153 0v999h431q85 0 146 -11.5t111 -40.5t75.5 -83t25.5 -133q0 -72 -39 -130.5t-120 -76.5q204 -27 204 -229q0 -87 -25 -145.5t-78.5 -91t-124.5 -45.5t-176 -13h-430zM343 599h246q74 0 117 32.5t43 81.5q0 58 -36.5 85t-124.5 27h-245v-226zM343 177h242
q114 0 158.5 28.5t44.5 102.5q0 67 -52 94t-151 27h-242v-252z" />
    <glyph glyph-name="uni0433.loclRUS" horiz-adv-x="778" 
d="M153 0v999h613v-148h-417v-851h-196z" />
    <glyph glyph-name="uni0433.loclSRB" horiz-adv-x="778" 
d="M153 0v999h613v-148h-417v-851h-196z" />
    <glyph glyph-name="uni0434.loclRUS" horiz-adv-x="1163" 
d="M13 -307v456h126q121 136 121 467v383h715v-850h120v-456h-196v307h-690v-307h-196zM343 149h436v702h-324v-234q0 -339 -112 -468z" />
    <glyph glyph-name="uni0434.loclSRB" horiz-adv-x="1163" 
d="M13 -307v456h126q121 136 121 467v383h715v-850h120v-456h-196v307h-690v-307h-196zM343 149h436v702h-324v-234q0 -339 -112 -468z" />
    <glyph glyph-name="uni0436.loclRUS" horiz-adv-x="1479" 
d="M29 0l170 444q24 61 67 110.5t94 49.5l-273 395h229l228 -364h98v364h194v-364h99l227 364h230l-273 -395q50 0 93 -49.5t68 -110.5l169 -444h-228l-121 356q-23 64 -57 96t-91 32h-116v-484h-194v484h-115q-57 0 -91.5 -32.5t-56.5 -95.5l-122 -356h-228z" />
    <glyph glyph-name="uni0436.loclSRB" horiz-adv-x="1479" 
d="M29 0l170 444q24 61 67 110.5t94 49.5l-273 395h229l228 -364h98v364h194v-364h99l227 364h230l-273 -395q50 0 93 -49.5t68 -110.5l169 -444h-228l-121 356q-23 64 -57 96t-91 32h-116v-484h-194v484h-115q-57 0 -91.5 -32.5t-56.5 -95.5l-122 -356h-228z" />
    <glyph glyph-name="uni0437.loclRUS" horiz-adv-x="982" 
d="M452 -20q-132 0 -237.5 54.5t-175.5 157.5l159 119q32 -75 99 -117t148 -42q130 0 190.5 34t60.5 105q0 76 -46.5 103t-161.5 27h-117v170h134q84 8 119.5 38t35.5 93q0 58 -46.5 86.5t-150.5 28.5q-71 0 -138 -36.5t-109 -108.5l-173 92q81 126 185 177t234 51
q391 0 391 -279q0 -174 -174 -217q101 -15 158.5 -75.5t57.5 -157.5q0 -303 -443 -303z" />
    <glyph glyph-name="uni0437.loclSRB" horiz-adv-x="982" 
d="M452 -20q-132 0 -237.5 54.5t-175.5 157.5l159 119q32 -75 99 -117t148 -42q130 0 190.5 34t60.5 105q0 76 -46.5 103t-161.5 27h-117v170h134q84 8 119.5 38t35.5 93q0 58 -46.5 86.5t-150.5 28.5q-71 0 -138 -36.5t-109 -108.5l-173 92q81 126 185 177t234 51
q391 0 391 -279q0 -174 -174 -217q101 -15 158.5 -75.5t57.5 -157.5q0 -303 -443 -303z" />
    <glyph glyph-name="uni0438.loclRUS" horiz-adv-x="1168" 
d="M158 0v999h195v-605q0 -40 -10 -120h10l443 725h215v-999h-195v605q0 53 10 121h-10l-442 -726h-216z" />
    <glyph glyph-name="uni0438.loclSRB" horiz-adv-x="1168" 
d="M158 0v999h195v-605q0 -40 -10 -120h10l443 725h215v-999h-195v605q0 53 10 121h-10l-442 -726h-216z" />
    <glyph glyph-name="uni0439.loclRUS" horiz-adv-x="1168" 
d="M581 1143q-145 0 -226.5 70t-81.5 200h145q0 -67 47 -107t116 -40q70 0 116 40t46 107h146q0 -131 -82 -200.5t-226 -69.5zM158 0v999h195v-605q0 -40 -10 -120h10l443 725h215v-999h-195v605q0 53 10 121h-10l-442 -726h-216z" />
    <glyph glyph-name="uni0439.loclSRB" horiz-adv-x="1168" 
d="M581 1143q-145 0 -226.5 70t-81.5 200h145q0 -67 47 -107t116 -40q70 0 116 40t46 107h146q0 -131 -82 -200.5t-226 -69.5zM158 0v999h195v-605q0 -40 -10 -120h10l443 725h215v-999h-195v605q0 53 10 121h-10l-442 -726h-216z" />
    <glyph glyph-name="uni045D.loclRUS" horiz-adv-x="1168" 
d="M515 1127l-273 297h213l219 -297h-159zM158 0v999h195v-605q0 -40 -10 -120h10l443 725h215v-999h-195v605q0 53 10 121h-10l-442 -726h-216z" />
    <glyph glyph-name="uni045D.loclSRB" horiz-adv-x="1168" 
d="M515 1127l-273 297h213l219 -297h-159zM158 0v999h195v-605q0 -40 -10 -120h10l443 725h215v-999h-195v605q0 53 10 121h-10l-442 -726h-216z" />
    <glyph glyph-name="uni043A.loclRUS" horiz-adv-x="998" 
d="M158 0v999h194v-364h98l228 364h229l-273 -395q50 0 93 -49.5t68 -110.5l170 -444h-228l-122 356q-22 63 -56.5 95.5t-91.5 32.5h-115v-484h-194z" />
    <glyph glyph-name="uni043A.loclSRB" horiz-adv-x="998" 
d="M158 0v999h194v-364h98l228 364h229l-273 -395q50 0 93 -49.5t68 -110.5l170 -444h-228l-122 356q-22 63 -56.5 95.5t-91.5 32.5h-115v-484h-194z" />
    <glyph glyph-name="uni043B.loclRUS" horiz-adv-x="1102" 
d="M195 -21q-97 0 -195 49l56 131q58 -25 76 -25q60 0 84.5 108.5t24.5 373.5v383h704v-999h-196v851h-314v-304q0 -134 -11.5 -234t-31.5 -163.5t-51 -102t-66 -53.5t-80 -15z" />
    <glyph glyph-name="uni043B.loclSRB" horiz-adv-x="1102" 
d="M195 -21q-97 0 -195 49l56 131q58 -25 76 -25q60 0 84.5 108.5t24.5 373.5v383h704v-999h-196v851h-314v-304q0 -134 -11.5 -234t-31.5 -163.5t-51 -102t-66 -53.5t-80 -15z" />
    <glyph glyph-name="uni043F.loclRUS" horiz-adv-x="1168" 
d="M158 0v999h853v-999h-195v851h-463v-851h-195z" />
    <glyph glyph-name="uni043F.loclSRB" horiz-adv-x="1168" 
d="M158 0v999h853v-999h-195v851h-463v-851h-195z" />
    <glyph glyph-name="uni0442.loclRUS" horiz-adv-x="878" 
d="M341 0v851h-329v148h854v-148h-330v-851h-195z" />
    <glyph glyph-name="uni0442.loclSRB" horiz-adv-x="878" 
d="M341 0v851h-329v148h854v-148h-330v-851h-195z" />
    <glyph glyph-name="uni0446.loclRUS" horiz-adv-x="1212" 
d="M978 -307v307h-820v999h195v-850h463v850h195v-850h162v-456h-195z" />
    <glyph glyph-name="uni0446.loclSRB" horiz-adv-x="1212" 
d="M978 -307v307h-820v999h195v-850h463v850h195v-850h162v-456h-195z" />
    <glyph glyph-name="uni0448.loclRUS" horiz-adv-x="1614" 
d="M158 0v999h195v-850h357v850h194v-850h358v850h195v-999h-1299z" />
    <glyph glyph-name="uni0448.loclSRB" horiz-adv-x="1614" 
d="M158 0v999h195v-850h357v850h194v-850h358v850h195v-999h-1299z" />
    <glyph glyph-name="uni0449.loclRUS" horiz-adv-x="1658" 
d="M1424 -307v307h-1266v999h195v-850h357v850h194v-850h358v850h195v-850h161v-456h-194z" />
    <glyph glyph-name="uni0449.loclSRB" horiz-adv-x="1658" 
d="M1424 -307v307h-1266v999h195v-850h357v850h194v-850h358v850h195v-850h161v-456h-194z" />
    <glyph glyph-name="uni044C.loclRUS" horiz-adv-x="1023" 
d="M158 0v999h195v-315h169q210 0 315 -76.5t105 -264.5q0 -166 -109.5 -254.5t-309.5 -88.5h-365zM353 164h169q95 0 150 40t55 139q0 98 -55 137.5t-150 39.5h-169v-356z" />
    <glyph glyph-name="uni044A.loclRUS" horiz-adv-x="1163" 
d="M298 0v851h-286v148h481v-315h168q211 0 316.5 -76.5t105.5 -264.5q0 -166 -110 -254.5t-311 -88.5h-364zM493 164h168q95 0 150 39.5t55 139.5q0 98 -55 137.5t-150 39.5h-168v-356z" />
    <glyph glyph-name="uni044B.loclRUS" horiz-adv-x="1417" 
d="M158 0v999h195v-315h169q210 0 315 -76.5t105 -264.5q0 -166 -109.5 -254.5t-309.5 -88.5h-365zM1075 0v999h184v-999h-184zM353 164h169q95 0 150 40t55 139q0 98 -55 137.5t-150 39.5h-169v-356z" />
    <glyph glyph-name="uni044E.loclRUS" horiz-adv-x="1517" 
d="M950 -20q-140 0 -252.5 67t-176 180t-67.5 251h-101v-478h-195v999h195v-373h116q39 169 169 277.5t312 108.5q144 0 258 -70t176 -187.5t62 -258.5q0 -142 -62 -259.5t-176 -187t-258 -69.5zM950 149q74 0 130.5 28t89 77t48.5 109.5t16 132.5q0 150 -70 248.5
t-214 98.5q-74 0 -130 -28t-89 -77t-49 -110t-16 -132q0 -97 27.5 -172.5t93 -125t163.5 -49.5z" />
    <glyph glyph-name="strokecy" horiz-adv-x="1078" 
d="M169 295v169h740v-169h-740z" />
    </font>
</defs>
</svg>
