<?xml version="1.0" standalone="no"?>
<!DOCTYPE svg PUBLIC "-//W3C//DTD SVG 1.1//EN" "http://www.w3.org/Graphics/SVG/1.1/DTD/svg11.dtd" >
<svg xmlns="http://www.w3.org/2000/svg" xmlns:xlink="http://www.w3.org/1999/xlink" version="1.1">
<metadata>
Created by FontForge 20161013 at Sun Mar 19 13:47:33 2017
 By ,,,
Copyright (c)2015, HK Grotesk Latin by Alfredo Marco Pradil (ammpradil@gmail.com) and HK Grotesk Cyrillic by Stefan Peev (http://www.contextbg.net/). HK Grotesk is a trademark of Alfredo Marco Pradil.
</metadata>
<defs>
<font id="HKGrotesk-LightItalic" horiz-adv-x="0" >
  <font-face 
    font-family="HK Grotesk Light Italic"
    font-weight="300"
    font-style="italic"
    font-stretch="normal"
    units-per-em="2048"
    panose-1="0 0 4 0 0 0 0 0 0 0"
    ascent="1434"
    descent="-614"
    x-height="999"
    cap-height="1413"
    bbox="-682 -512 2767 2249"
    underline-thickness="82"
    underline-position="-410"
    slope="-13"
    unicode-range="U+0020-FB02"
  />
<missing-glyph horiz-adv-x="1257" 
d="M104 0l220 954h819l-219 -954h-820zM229 102h615l174 750h-615z" />
    <glyph glyph-name="fi" unicode="fi" horiz-adv-x="958" 
d="M66 0l206 897h-145l23 102l149 7q16 69 39.5 129t59.5 116t81 95.5t106 63.5t132 24q190 0 264 -121l-70 -78q-41 57 -84.5 76.5t-93.5 19.5q-246 0 -323 -338l501 6l-229 -999h-111l207 897h-391l-207 -897h-114z" />
    <glyph glyph-name="fl" unicode="fl" horiz-adv-x="961" 
d="M711 -20q-46 0 -72 18t-32.5 52.5t-3.5 71t15 87.5l246 1059q0 6 -3.5 13t-13.5 16t-26 16t-44.5 11.5t-65.5 4.5q-117 0 -182.5 -48t-88.5 -153l-30 -129h227l-23 -102h-227l-207 -897h-114l206 897h-145l23 102h147l39 162q33 138 131 205.5t242 67.5q71 0 137 -27
t133 -107l-262 -1155q-11 -53 26 -53q28 0 76 23l-26 -115q-34 -20 -82 -20z" />
    <glyph glyph-name="f_f_i" unicode="ffi" horiz-adv-x="1481" 
d="M956 1124l-28 -125h506l-230 -999h-110l206 897h-395l-207 -897h-114l207 897h-410l-207 -897h-119l207 897h-135l23 102h137l32 142q30 131 135.5 212t235.5 81q166 0 254 -111q56 49 133.5 80t153.5 31q143 0 270 -121l-79 -85q-3 8 -15 23t-34 34t-59.5 32.5
t-80.5 13.5q-97 0 -175.5 -57t-101.5 -150zM848 1141q22 82 33 108q-2 6 -14 18.5t-33.5 27.5t-58 25.5t-79.5 10.5q-98 0 -169.5 -56t-94.5 -151l-29 -125h412zM1422 1228l-1 -1z" />
    <glyph glyph-name="f_f_l" unicode="ffl" horiz-adv-x="1487" 
d="M1223 -20q-37 0 -60 11t-33 26.5t-11 43.5t3 51.5t13 59.5l249 1083q-9 33 -48 54.5t-89 21.5q-98 0 -172 -61t-96 -156l-27 -115h162l-22 -102h-162l-207 -897h-115l207 897h-434l-207 -897h-119l207 897h-135l23 102h137l30 129q31 133 137.5 219.5t241.5 86.5
q57 0 103.5 -11t81 -32.5t50.5 -34.5t38 -35q59 54 124 83.5t154 29.5t139 -26t115 -105l-262 -1153q-14 -56 27 -56q28 0 67 21l-16 -117q-49 -18 -94 -18zM403 999l439 7q43 188 63 225q-21 38 -69.5 69t-120.5 31q-101 0 -180.5 -58t-102.5 -155z" />
    <glyph glyph-name=".notdef" horiz-adv-x="1257" 
d="M104 0l220 954h819l-219 -954h-820zM229 102h615l174 750h-615z" />
    <glyph glyph-name=".null" 
 />
    <glyph glyph-name="nonmarkingreturn" horiz-adv-x="682" 
 />
    <glyph glyph-name="space" unicode=" " horiz-adv-x="553" 
 />
    <glyph glyph-name="exclam" unicode="!" horiz-adv-x="637" 
d="M240 369l219 1067h153l-276 -1067h-96zM115 0l41 176h178l-41 -176h-178z" />
    <glyph glyph-name="quotedbl" unicode="&#x22;" horiz-adv-x="903" 
d="M367 1014l92 399h116l-92 -399h-116zM655 1014l93 399h118l-92 -399h-119z" />
    <glyph glyph-name="numbersign" unicode="#" horiz-adv-x="1374" 
d="M154 0l192 444h-240l23 99h260l152 350h-250l22 92h269l198 449h105l-195 -437h336l193 437h104l-195 -445h240l-22 -96h-259l-153 -350h250l-23 -92h-268l-197 -451h-104l192 436h-335l-191 -436h-104zM494 543h335l152 350h-334z" />
    <glyph glyph-name="dollar" unicode="$" horiz-adv-x="1108" 
d="M340 -246l59 234q-76 7 -139.5 35.5t-110 76t-70.5 117t-18 152.5l136 26q-18 -138 60.5 -210t213.5 -72q138 0 239 70.5t132 205.5q17 75 -7.5 132.5t-76 95t-116.5 70t-129.5 67t-115 76.5t-73 108t-2.5 152q33 141 143.5 232.5t255.5 107.5l59 229h84l-59 -227
q111 -9 188.5 -65t110.5 -161l-113 -59q-25 84 -87 125t-146 41q-101 0 -190 -64.5t-111 -167.5q-13 -56 -0.5 -102t44.5 -77t76.5 -59.5t95 -51t101 -51t94 -58.5t73 -74.5t39.5 -99t-7 -131.5q-39 -173 -175.5 -279.5t-314.5 -111.5l-59 -232h-84z" />
    <glyph glyph-name="percent" unicode="%" horiz-adv-x="1585" 
d="M467 813q-54 0 -93.5 20.5t-59.5 53.5t-29 76t-6.5 86t12.5 86q11 51 34 101t57.5 96.5t86.5 75t113 28.5t104 -28.5t61.5 -74.5t22.5 -104.5t-12 -118.5q-19 -77 -56 -142t-99.5 -110t-135.5 -45zM244 8l1063 1387h116l-1063 -1387h-116zM461 895q52 0 97 39.5t71.5 92
t40.5 110.5q9 51 10 98.5t-23.5 82t-72.5 34.5q-77 0 -134 -74t-77 -168q-10 -51 -11 -98.5t24.5 -82t74.5 -34.5zM1108 6q-45 0 -80.5 14t-56.5 38.5t-34 55.5t-16.5 67.5t-1 72.5t10.5 72q9 40 24.5 79t41 79t57.5 70.5t75.5 49.5t92.5 19q61 0 103.5 -28t61 -74t23 -104
t-11.5 -118q-27 -120 -104 -206.5t-185 -86.5zM1102 88q52 0 97.5 39t72.5 91t39 108q9 51 10 98t-23.5 81t-72.5 34q-78 0 -134 -72t-77 -166q-10 -50 -11 -97t24.5 -81.5t74.5 -34.5z" />
    <glyph glyph-name="ampersand" unicode="&#x26;" horiz-adv-x="1372" 
d="M1190 672q-76 -233 -206 -397l159 -255l-92 -69l-146 236q-210 -207 -487 -207q-174 0 -267.5 84.5t-58.5 242.5q15 64 50 123t75 102.5t103 90.5t112 77t123 72q-13 22 -22.5 38.5t-23 41.5t-22.5 45.5t-19.5 46.5t-16 49.5t-9.5 48.5t-3.5 50t5.5 49q31 133 140.5 211
t244.5 78q134 0 204 -90t38 -224q-14 -61 -48 -115t-89.5 -101.5t-108 -83t-128.5 -79.5l229 -368q94 133 161 327zM543 1114q-24 -103 97 -294q73 42 120.5 72.5t98.5 71.5t81 84.5t41 92.5q18 79 -28 130.5t-124 51.5q-93 0 -178 -56t-108 -153zM426 94q249 0 424 183
l-250 404q-69 -39 -112 -65.5t-99 -67.5t-90.5 -77t-64 -84t-41.5 -100t3 -91t51 -60.5t80.5 -31.5t98.5 -10z" />
    <glyph glyph-name="quotesingle" unicode="'" horiz-adv-x="612" 
d="M373 1042l92 400h117l-93 -400h-116z" />
    <glyph glyph-name="parenleft" unicode="(" horiz-adv-x="565" 
d="M264 -4q-53 80 -79.5 212t-24 265.5t27.5 243.5q42 177 144.5 370.5t251.5 335.5l112 -8q-150 -154 -256.5 -343t-152.5 -382q-26 -118 -29 -238t22 -242.5t78 -221.5z" />
    <glyph glyph-name="parenright" unicode=")" horiz-adv-x="567" 
d="M-31 -4q147 150 254.5 345t149.5 376q41 173 22 366t-92 340l94 -8q59 -95 86 -221.5t23 -251.5t-33 -248q-40 -172 -153 -382t-244 -324z" />
    <glyph glyph-name="asterisk" unicode="*" horiz-adv-x="872" 
d="M395 854l-67 59l223 207l-244 43l51 99l213 -105l29 256h92l-90 -256l258 105l8 -99l-266 -43l131 -207l-86 -59l-72 238z" />
    <glyph glyph-name="plus" unicode="+" horiz-adv-x="1282" 
d="M623 106v472h-457v96h457v469h96v-469h457v-96h-457v-472h-96z" />
    <glyph glyph-name="comma" unicode="," horiz-adv-x="629" 
d="M29 -225l215 489h174l-312 -489h-77z" />
    <glyph glyph-name="hyphen" unicode="-" horiz-adv-x="831" 
d="M201 643l22 96h496l-23 -96h-495z" />
    <glyph glyph-name="period" unicode="." horiz-adv-x="674" 
d="M129 0l41 176h186l-41 -176h-186z" />
    <glyph glyph-name="slash" unicode="/" horiz-adv-x="938" 
d="M-188 -430l1198 1946h135l-1194 -1946h-139z" />
    <glyph glyph-name="zero" unicode="0" horiz-adv-x="1167" 
d="M483 -20q-94 0 -166.5 32t-115.5 87.5t-69 127.5t-31.5 156t1.5 167.5t27 168.5q23 100 60.5 197t96 192t129.5 167t166.5 116.5t200.5 44.5q101 0 177.5 -41t121 -112.5t66 -166.5t17.5 -203t-31 -223q-25 -110 -68 -213t-104 -193.5t-133.5 -158t-161.5 -106.5
t-183 -39zM483 100q81 0 155.5 41t130.5 105.5t103 148.5t77 165t48 161q19 79 26.5 157t0 157.5t-33 139.5t-80 98t-134.5 38q-83 0 -159 -39.5t-132.5 -102.5t-104 -146t-77.5 -164.5t-49 -164.5q-18 -79 -26 -156.5t0 -158t34 -141.5t82.5 -99.5t138.5 -38.5z" />
    <glyph glyph-name="one" unicode="1" horiz-adv-x="1167" 
d="M477 0l252 1094h-338l27 114h166q85 0 148.5 54.5t80.5 132.5l4 18h121l-326 -1413h-135z" />
    <glyph glyph-name="two" unicode="2" horiz-adv-x="1167" 
d="M-10 0l24 131q148 82 262.5 158.5t167.5 120t117 102.5q178 149 277.5 271t130.5 259q31 133 -21 202t-162 69q-133 0 -236 -95t-151 -262l-129 27q53 222 189 335.5t327 113.5q194 0 279.5 -112t42.5 -300q-35 -150 -146 -289t-325 -319q-60 -48 -115 -89t-90 -65.5
t-79.5 -53t-60.5 -38t-58 -33t-48 -27.5l781 5l-25 -111h-952z" />
    <glyph glyph-name="three" unicode="3" horiz-adv-x="1167" 
d="M463 -20q-207 0 -317 108.5t-64 304.5l121 2q-32 -141 47 -221t217 -80q91 0 178 35t156.5 109t91.5 174q15 72 3 124.5t-49.5 86.5t-90 50.5t-117.5 16.5h-90l29 119h77q111 0 197 69t115 191q27 115 -32.5 181.5t-166.5 66.5q-119 0 -219 -74t-129 -190l-111 28
q37 166 166.5 259.5t296.5 93.5q111 0 192 -44t115.5 -130t7.5 -199q-22 -97 -83.5 -176.5t-161.5 -128.5q111 -37 152.5 -136.5t13.5 -234.5q-45 -195 -196 -300t-349 -105z" />
    <glyph glyph-name="four" unicode="4" horiz-adv-x="1167" 
d="M616 0l91 393h-652l17 76l876 944h125l-211 -909h225l-24 -111h-225l-90 -393h-132zM236 504h495l166 706z" />
    <glyph glyph-name="five" unicode="5" horiz-adv-x="1167" 
d="M467 -20q-119 0 -204.5 53t-125.5 139.5t-39 196.5l121 30q-1 -46 3.5 -86.5t20.5 -83t42 -72t72.5 -48.5t107.5 -19q83 0 157 33t127 88t89 121t53 137q17 65 10 125.5t-30.5 107t-75.5 75t-125 28.5q-97 0 -187.5 -45t-156.5 -123l-101 72l283 704h676l-27 -115h-575
l-201 -499q126 112 307 112q132 0 219.5 -65t116.5 -170.5t0 -231.5q-45 -193 -203.5 -328.5t-353.5 -135.5z" />
    <glyph glyph-name="six" unicode="6" horiz-adv-x="1167" 
d="M477 -20q-96 0 -174 37.5t-124 102.5t-64 152t6 185q30 130 117 237l577 719h148l-445 -539q67 15 146 15q196 0 301 -130t61 -325q-44 -185 -201 -319.5t-348 -134.5zM481 98q141 0 264.5 106t157.5 253q32 139 -37 236.5t-202 97.5q-140 0 -263.5 -105.5t-158.5 -253.5
q-31 -137 38.5 -235.5t200.5 -98.5z" />
    <glyph glyph-name="seven" unicode="7" horiz-adv-x="1167" 
d="M172 0l899 1298h-766l27 115h919l-14 -65l-913 -1348h-152z" />
    <glyph glyph-name="eight" unicode="8" horiz-adv-x="1167" 
d="M475 -20q-98 0 -177 26.5t-133 78.5t-72.5 130.5t3.5 181.5q31 129 118.5 223t227.5 146q-76 45 -107 130.5t-7 190.5q37 161 168.5 254t294.5 93q170 0 261.5 -100.5t51.5 -270.5q-22 -99 -87 -178t-167 -127q108 -47 153 -148.5t15 -236.5q-30 -129 -113.5 -219.5
t-193 -132t-236.5 -41.5zM647 799q115 0 211.5 74.5t124.5 195.5q28 118 -29.5 185t-165.5 67q-109 0 -208 -71t-127 -191q-28 -118 26 -189t168 -71zM477 88q90 0 174 35t151.5 110t90.5 177q32 138 -42.5 216.5t-207.5 78.5q-145 0 -265.5 -86t-154.5 -234
q-33 -142 44.5 -219.5t209.5 -77.5z" />
    <glyph glyph-name="nine" unicode="9" horiz-adv-x="1167" 
d="M305 0l440 539q-64 -15 -147 -15q-128 0 -221 59t-130.5 163.5t-8.5 232.5q42 186 200 320.5t350 134.5q127 0 219 -64t128 -174t6 -240q-28 -126 -113 -237l-579 -719h-144zM598 623q141 0 264.5 105t157.5 253q32 137 -37.5 235.5t-202.5 98.5q-139 0 -263.5 -106
t-158.5 -253q-31 -138 38.5 -235.5t201.5 -97.5z" />
    <glyph glyph-name="colon" unicode=":" horiz-adv-x="678" 
d="M313 778l41 176h178l-40 -176h-179zM135 0l41 176h178l-41 -176h-178z" />
    <glyph glyph-name="semicolon" unicode=";" horiz-adv-x="657" 
d="M354 778l41 176h178l-41 -176h-178zM41 -225l215 489h174l-311 -489h-78z" />
    <glyph glyph-name="less" unicode="&#x3c;" horiz-adv-x="1264" 
d="M1032 174l-876 500l876 500l60 -103l-723 -397l723 -398z" />
    <glyph glyph-name="equal" unicode="=" horiz-adv-x="1229" 
d="M266 780v119h742v-119h-742zM266 444v119h742v-119h-742z" />
    <glyph glyph-name="greater" unicode="&#x3e;" horiz-adv-x="1264" 
d="M311 174l-59 102l723 398l-723 397l59 103l877 -500z" />
    <glyph glyph-name="question" unicode="?" horiz-adv-x="1038" 
d="M422 365l59 256q13 57 41 98.5t63 66.5t75 45t80.5 41t76 47t64.5 70.5t43 104.5q26 112 -34.5 168.5t-176.5 56.5q-115 0 -215 -67t-127 -179l-125 12q26 106 98.5 187t167.5 121.5t197 40.5q180 0 276.5 -97.5t56.5 -269.5q-15 -66 -45.5 -117t-67.5 -81.5t-79 -54.5
t-82.5 -43.5t-75.5 -40t-61 -52t-35 -72.5l-55 -241h-119zM311 0l41 176h178l-41 -176h-178z" />
    <glyph glyph-name="at" unicode="@" horiz-adv-x="2079" 
d="M848 -348q-181 0 -327 59t-241 171.5t-127 274.5t15 369q44 191 146.5 357.5t243.5 287.5t322.5 191t376.5 70q256 0 431 -115t239 -315.5t6 -450.5q-27 -116 -76 -219.5t-119 -190t-167 -137.5t-207 -51q-143 0 -201 79t-6 206q-72 -80 -166 -123t-186 -43
q-78 0 -132.5 30.5t-80 83t-31.5 121.5t14 146q18 78 56 158.5t93.5 156t121.5 134.5t147 94.5t162 35.5q108 0 173 -58.5t58 -150.5l68 160l137 -6q-25 -62 -100.5 -218.5t-136 -297t-80.5 -228.5q-19 -78 2 -108.5t90 -30.5q74 0 140 30.5t113 79t86 113.5t63 129t40 132
q48 208 -3.5 373.5t-196 259.5t-359.5 94q-172 0 -332 -62t-283.5 -169.5t-212 -254t-126.5 -313.5q-40 -174 -14 -308t106 -225t200.5 -137.5t270.5 -46.5q130 0 264 41l33 -129q-151 -49 -307 -49zM834 209q86 0 168.5 45.5t142.5 116.5t102.5 152t59.5 157
q49 215 -138 215q-87 0 -169.5 -45t-143 -116t-103 -151.5t-59.5 -156.5q-50 -217 140 -217z" />
    <glyph glyph-name="A" unicode="A" horiz-adv-x="1296" 
d="M-39 0l848 1413h104l193 -1413h-141l-37 307h-639l-178 -307h-150zM362 434h549l-90 780z" />
    <glyph glyph-name="B" unicode="B" horiz-adv-x="1235" 
d="M104 0l326 1413h361q71 0 133 -12t115.5 -38.5t87 -68t46.5 -100t-6 -135.5q-26 -114 -91.5 -190t-170.5 -130q41 -20 72 -43t58 -56.5t38.5 -73t15 -93t-13.5 -117.5q-23 -101 -77 -173t-128.5 -110.5t-152.5 -55.5t-166 -17h-447zM414 778h225q139 0 244.5 72.5
t136.5 210.5q12 41 9.5 73.5t-9.5 57t-26 42t-40 29t-51 18t-60 9t-67 2.5h-244zM264 123h309q63 0 118.5 12t109 40t92 81.5t55.5 128.5q10 56 11 97.5t-15 71.5t-37 49.5t-54 31t-66 16t-74 4.5h-326z" />
    <glyph glyph-name="C" unicode="C" horiz-adv-x="1423" 
d="M649 -20q-127 0 -223.5 38.5t-154.5 106t-87 161t-28 202.5t30 231q35 149 101 276.5t161 227t227 156.5t286 57q206 0 337.5 -95.5t149.5 -279.5l-127 -39q-28 291 -369 291q-127 0 -236 -50t-187 -136t-131.5 -192.5t-82.5 -229.5q-19 -82 -24 -156t3 -142.5
t34.5 -123.5t69 -95.5t108 -63t149.5 -22.5q334 0 521 310l112 -68q-119 -178 -284 -271t-355 -93z" />
    <glyph glyph-name="D" unicode="D" horiz-adv-x="1405" 
d="M104 0l326 1413h342q341 0 483.5 -188.5t61.5 -540.5q-77 -330 -300.5 -507t-561.5 -177h-351zM268 123h181q127 0 243.5 37t216 109t173.5 187.5t108 262.5q64 277 -46.5 426t-391.5 149h-213z" />
    <glyph glyph-name="E" unicode="E" horiz-adv-x="1235" 
d="M104 0l326 1413h909l-26 -113h-774l-123 -538h661l-26 -109h-662l-123 -532h774l-26 -121h-910z" />
    <glyph glyph-name="F" unicode="F" horiz-adv-x="1186" 
d="M104 0l326 1413h883l-27 -113h-747l-123 -538h659l-26 -109h-660l-149 -653h-136z" />
    <glyph glyph-name="G" unicode="G" horiz-adv-x="1503" 
d="M649 -20q-127 0 -223.5 38.5t-154.5 106t-87 161t-28 202.5t30 231q34 149 101.5 277t163.5 227t227.5 156t282.5 57q199 0 323 -97t164 -278l-131 -43q-73 287 -367 287q-127 0 -235.5 -48.5t-186 -133t-131 -190t-82.5 -228.5q-22 -98 -25.5 -185t15.5 -163t61 -130.5
t115.5 -86t173.5 -31.5q130 0 248.5 56t210 170.5t127.5 268.5l-326 -6l25 104h449l-162 -702h-115l68 266q-72 -119 -214.5 -202.5t-316.5 -83.5z" />
    <glyph glyph-name="H" unicode="H" horiz-adv-x="1446" 
d="M104 0l326 1413h135l-149 -651h737l150 651h135l-326 -1413h-135l149 653h-737l-149 -653h-136z" />
    <glyph glyph-name="I" unicode="I" horiz-adv-x="573" 
d="M104 0l326 1413h135l-325 -1413h-136z" />
    <glyph glyph-name="J" unicode="J" horiz-adv-x="1114" 
d="M387 -20q-125 0 -207 56.5t-111 148t-12 206.5l131 6q-12 -56 -4.5 -110t27.5 -96.5t66.5 -68.5t113.5 -26q89 0 157 31t112 88.5t71.5 121.5t46.5 148l189 815h-533l27 113h667l-213 -919q-56 -249 -184 -381.5t-344 -132.5z" />
    <glyph glyph-name="K" unicode="K" horiz-adv-x="1440" 
d="M104 0l326 1413h135l-198 -852l1001 852h174l-655 -551l364 -862h-147l-313 780l-459 -385l-92 -395h-136z" />
    <glyph glyph-name="L" unicode="L" horiz-adv-x="1030" 
d="M104 0l326 1413h135l-299 -1292h604l-26 -121h-740z" />
    <glyph glyph-name="M" unicode="M" horiz-adv-x="1753" 
d="M104 0l326 1413h236l145 -1167l694 1167h240l-326 -1413h-135l309 1331l-725 -1208h-155l-162 1208l-309 -1331h-138z" />
    <glyph glyph-name="N" unicode="N" horiz-adv-x="1409" 
d="M104 0l326 1413h213l324 -1288l299 1288h135l-326 -1413h-217l-317 1290l-299 -1290h-138z" />
    <glyph glyph-name="O" unicode="O" horiz-adv-x="1511" 
d="M645 -20q-125 0 -220 38.5t-153 106.5t-87.5 161t-29 202.5t28.5 230.5q34 148 101 275.5t163 226.5t228 156t282 57q126 0 222.5 -38.5t154.5 -106.5t88 -161.5t29 -203t-29 -230.5q-27 -118 -75 -223t-118 -195.5t-156 -156t-196.5 -102.5t-232.5 -37zM651 106
q105 0 199 33.5t166 90.5t130.5 136t97 167t61.5 186q21 94 23.5 178.5t-18 160t-64 130.5t-119 87t-177.5 32q-127 0 -237.5 -50.5t-190 -137.5t-134 -194.5t-83.5 -230.5q-21 -94 -23.5 -178.5t17.5 -160t62.5 -130.5t116 -87t173.5 -32z" />
    <glyph glyph-name="P" unicode="P" horiz-adv-x="1143" 
d="M104 0l326 1413h379q204 0 300.5 -106.5t53.5 -288.5q-41 -178 -177 -272.5t-341 -94.5h-256l-149 -651h-136zM416 768h246q147 0 245.5 70t128.5 204q28 122 -34.5 188t-206.5 66h-256z" />
    <glyph glyph-name="Q" unicode="Q" horiz-adv-x="1536" 
d="M1200 -92l-145 194q-167 -122 -410 -122q-125 0 -220 38.5t-153 106.5t-87.5 161t-29 202.5t28.5 230.5q34 148 101 275.5t163 226.5t228 156t282 57q126 0 222.5 -38.5t154.5 -106t88 -161t29 -203t-29 -231.5q-77 -325 -276 -510l147 -194zM651 100q178 0 328 97
l-152 206l91 84l157 -206q154 164 219 438q22 94 25.5 179t-15.5 161.5t-60.5 132.5t-116 88.5t-175.5 32.5q-128 0 -238 -51.5t-187.5 -139.5t-131 -196t-82.5 -232q-21 -94 -24.5 -179t15 -161.5t59.5 -132.5t114.5 -88.5t173.5 -32.5z" />
    <glyph glyph-name="R" unicode="R" horiz-adv-x="1206" 
d="M102 -2l328 1413h385q189 0 288 -109.5t58 -289.5q-32 -140 -135.5 -235t-249.5 -120l221 -659h-145l-205 641h-260l-149 -641h-136zM418 770h276q125 6 219.5 75.5t122.5 192.5q27 122 -38 188t-197 66h-262z" />
    <glyph glyph-name="S" unicode="S" horiz-adv-x="1106" 
d="M475 -16q-176 0 -296 99t-120 275l129 27q0 -133 74 -207t217 -74q163 0 263 88.5t100 215.5q0 51 -18 92t-48.5 70.5t-70.5 54.5t-83.5 46.5t-87.5 43.5t-84 50t-70.5 61.5t-48.5 81.5t-18 106q0 112 61 208.5t166 154t228 57.5q122 0 209.5 -57.5t124.5 -162.5
l-105 -55q-22 77 -86 118.5t-147 41.5q-125 0 -222.5 -82.5t-97.5 -200.5q0 -53 22.5 -96t60 -70.5t85 -55t97 -49t97 -52.5t85 -66t60 -90t22.5 -123q0 -186 -144.5 -318t-353.5 -132z" />
    <glyph glyph-name="T" unicode="T" horiz-adv-x="1247" 
d="M440 0l301 1307h-485l25 106h1108l-25 -106h-485l-301 -1307h-138z" />
    <glyph glyph-name="U" unicode="U" horiz-adv-x="1346" 
d="M561 -20q-102 0 -178 30t-120 81t-66 120.5t-21.5 145.5t19.5 159l206 897h136l-199 -860q-103 -447 229 -447q98 0 178 36t135.5 101t92.5 144.5t59 177.5l197 848h135l-207 -899q-25 -108 -74 -201.5t-121 -169.5t-175.5 -119.5t-225.5 -43.5z" />
    <glyph glyph-name="V" unicode="V" horiz-adv-x="1319" 
d="M483 0l-196 1413h133l158 -1253l739 1253h137l-848 -1413h-123z" />
    <glyph glyph-name="W" unicode="W" horiz-adv-x="1966" 
d="M360 0l-63 1413h133l51 -1263l635 1181h111l88 -1181l635 1263h141l-719 -1413h-155l-87 1112l-614 -1112h-156z" />
    <glyph glyph-name="X" unicode="X" horiz-adv-x="1241" 
d="M-31 0l631 707l-299 706h156l235 -596l516 596h160l-627 -706l299 -707h-151l-244 586l-512 -586h-164z" />
    <glyph glyph-name="Y" unicode="Y" horiz-adv-x="1315" 
d="M477 0l129 553l-330 860h152l268 -719l607 719h157l-725 -860l-129 -553h-129z" />
    <glyph glyph-name="Z" unicode="Z" horiz-adv-x="1278" 
d="M-18 0l22 111l1186 1189h-864l26 113h1030l-24 -117l-1180 -1173h907l-28 -123h-1075z" />
    <glyph glyph-name="bracketleft" unicode="[" horiz-adv-x="641" 
d="M82 -76l360 1563h344l-16 -74h-235l-326 -1413h235l-18 -76h-344z" />
    <glyph glyph-name="backslash" unicode="\" horiz-adv-x="938" 
d="M563 -430l-299 1946h133l295 -1946h-129z" />
    <glyph glyph-name="bracketright" unicode="]" horiz-adv-x="641" 
d="M-51 -76l18 76h236l325 1413h-235l16 74h344l-360 -1563h-344z" />
    <glyph glyph-name="asciicircum" unicode="^" horiz-adv-x="973" 
d="M219 848l475 563l221 -563h-133l-131 342l-291 -342h-141z" />
    <glyph glyph-name="underscore" unicode="_" horiz-adv-x="1241" 
d="M102 -96l23 96h762l-23 -96h-762z" />
    <glyph glyph-name="grave" unicode="`" horiz-adv-x="541" 
d="M463 1126l-180 287h172l149 -287h-141z" />
    <glyph glyph-name="a" unicode="a" horiz-adv-x="1118" 
d="M932 999h125l-230 -999h-125l29 134q-145 -154 -342 -154q-94 0 -162 42t-101 114t-40 169t20 207q33 143 103.5 257t174 182.5t222.5 68.5q214 0 289 -170zM829 512q19 80 19 148t-20 123.5t-69 87.5t-124 32q-152 0 -257.5 -119.5t-146.5 -296.5q-21 -77 -19 -148
t22 -125.5t69 -87t123 -32.5q105 0 190 60t136 151.5t77 206.5z" />
    <glyph glyph-name="b" unicode="b" horiz-adv-x="1114" 
d="M506 -20q-214 0 -287 172l-37 -152h-123l326 1413h123l-131 -555q150 164 346 164q96 0 164.5 -42.5t101 -115t40 -170t-20.5 -207.5q-34 -143 -103 -256t-173.5 -182t-225.5 -69zM475 88q78 0 147.5 35t121 95t88 135t55.5 159q20 77 17 149t-23 128t-70 90t-123 34
q-103 0 -188.5 -62.5t-137 -156t-77.5 -207.5q-19 -80 -19 -149.5t19.5 -126.5t68 -90t121.5 -33z" />
    <glyph glyph-name="c" unicode="c" horiz-adv-x="965" 
d="M414 -20q-83 0 -147.5 28.5t-104 78t-60 116.5t-20 145t19.5 162q24 101 70.5 191t112.5 161t155 112.5t189 41.5q132 0 216.5 -70t110.5 -190l-125 -41q-1 93 -57.5 145.5t-146.5 52.5q-65 0 -123.5 -26t-102 -68.5t-79.5 -99t-59.5 -115t-37.5 -119.5
q-13 -58 -17 -112.5t4 -108.5t30 -93.5t65 -64t105 -24.5q99 0 187 58.5t132 152.5l96 -62q-72 -121 -179 -186t-234 -65z" />
    <glyph glyph-name="d" unicode="d" horiz-adv-x="1118" 
d="M1028 1413h125l-326 -1413h-125l29 134q-145 -154 -342 -154q-94 0 -162 42t-101 114t-40 169t20 207q33 143 103.5 257t174 182.5t222.5 68.5q214 0 289 -170zM829 512q19 80 19 148t-20 123.5t-69 87.5t-124 32q-152 0 -257.5 -119.5t-146.5 -296.5q-21 -77 -19 -148
t22 -125.5t69 -87t123 -32.5q105 0 190 60t136 151.5t77 206.5z" />
    <glyph glyph-name="e" unicode="e" horiz-adv-x="1028" 
d="M430 -12q-108 0 -185 40t-114 110t-46.5 164.5t17.5 203.5q23 101 69.5 191t112.5 161t155 112.5t188 41.5q94 0 161 -29.5t103.5 -79t51.5 -119.5t10 -146.5t-25 -164.5l-3 -7l-5 -15h-699q-21 -72 -16.5 -136t27.5 -113t74 -77.5t124 -28.5q99 0 175.5 25t146.5 86
l79 -74q-98 -78 -191.5 -111.5t-209.5 -33.5zM246 559h585q40 158 -11.5 248t-196.5 90q-141 0 -241 -97t-136 -241z" />
    <glyph glyph-name="f" unicode="f" horiz-adv-x="676" 
d="M102 0l207 897h-182l23 100h182l47 205q27 112 110 172t191 60q85 0 158 -39l-43 -90q-56 26 -115 26q-68 0 -117 -36.5t-65 -108.5l-43 -187h301l-23 -102h-301l-207 -897h-123z" />
    <glyph glyph-name="g" unicode="g" horiz-adv-x="1120" 
d="M825 -6q-46 -201 -174.5 -313.5t-322.5 -112.5q-125 0 -215 51t-129 148l108 61q58 -152 238 -152q141 0 239.5 92.5t132.5 237.5l35 135q-147 -161 -340 -161q-98 0 -168 41.5t-103 113.5t-40.5 169t20.5 208q52 222 187.5 365t320.5 143q105 0 176 -46.5t105 -125.5
l37 151h127zM426 88q78 0 147 35.5t118.5 96t84 134.5t53.5 158q19 80 19 149t-19 126t-67.5 89.5t-122.5 32.5q-79 0 -148 -34.5t-119.5 -94.5t-86 -134t-54.5 -159q-19 -80 -18.5 -150t20.5 -126.5t69.5 -89.5t123.5 -33z" />
    <glyph glyph-name="h" unicode="h" horiz-adv-x="1108" 
d="M59 0l326 1413h123l-137 -584q66 85 167 136t201 51q86 0 145.5 -33t85 -88.5t31 -128t-15.5 -152.5l-141 -614h-127l139 604q65 293 -141 293q-137 0 -256 -106.5t-152 -249.5l-125 -541h-123z" />
    <glyph glyph-name="i" unicode="i" horiz-adv-x="477" 
d="M332 1229l43 184h151l-43 -184h-151zM59 0l230 999h129l-230 -999h-129z" />
    <glyph glyph-name="j" unicode="j" horiz-adv-x="481" 
d="M334 1239l43 180h153l-43 -180h-153zM-145 -438q-64 0 -146 32l35 84q47 -14 113 -14q67 0 108 45.5t55 106.5l273 1183h129l-270 -1173q-61 -264 -297 -264z" />
    <glyph glyph-name="k" unicode="k" horiz-adv-x="1026" 
d="M59 0l326 1413h127l-229 -983l594 569h157l-399 -362l237 -637h-145l-182 547l-289 -254l-70 -293h-127z" />
    <glyph glyph-name="l" unicode="l" horiz-adv-x="504" 
d="M213 -20q-120 0 -128 90q-4 38 19 139l279 1204h127l-293 -1266q-14 -65 39 -65q20 0 90 18l-12 -102q-52 -18 -121 -18z" />
    <glyph glyph-name="m" unicode="m" horiz-adv-x="1686" 
d="M59 0l230 999h127l-43 -182q46 90 132 145.5t181 55.5q117 0 189.5 -55t78.5 -160q142 213 349 213q91 0 153 -33t88.5 -89.5t32.5 -132t-16 -159.5l-140 -602h-127l140 604q67 311 -146 311q-84 0 -160 -51t-125 -129t-69 -166l-131 -569h-127l139 608q71 307 -141 307
q-127 0 -226.5 -104t-130.5 -242l-131 -569h-127z" />
    <glyph glyph-name="n" unicode="n" horiz-adv-x="1106" 
d="M59 0l230 999h125l-39 -161q64 80 159.5 129t192.5 49q91 0 152.5 -33t87.5 -89.5t31 -132t-17 -159.5l-139 -602h-125l139 604q65 291 -147 291q-129 0 -246.5 -99t-147.5 -229l-131 -567h-125z" />
    <glyph glyph-name="o" unicode="o" horiz-adv-x="1116" 
d="M449 -20q-83 0 -151.5 27t-114 75t-73.5 114.5t-30 145t16 166.5q32 139 114 253.5t202 182.5t252 68q136 0 229 -71.5t125.5 -192t-0.5 -265.5q-32 -138 -115.5 -253t-203.5 -182.5t-250 -67.5zM453 92q86 0 159 34.5t125 93.5t87.5 131.5t54.5 156.5q15 63 17.5 119
t-9 106.5t-38 86.5t-75 57.5t-115.5 21.5q-84 0 -156.5 -34.5t-124.5 -93.5t-87.5 -132t-54.5 -156q-21 -76 -18 -146.5t24 -125t75 -87t136 -32.5z" />
    <glyph glyph-name="p" unicode="p" horiz-adv-x="1118" 
d="M-41 -438l332 1437h125l-35 -139q143 160 346 160q77 0 136.5 -27t96.5 -76t56 -115.5t17.5 -146.5t-21.5 -168q-34 -143 -103 -256t-173.5 -182t-225.5 -69q-214 0 -287 172l-139 -590h-125zM477 88q106 0 194 61.5t141 155t79 207.5q20 77 17.5 148.5t-22 127t-70 88.5
t-126.5 33t-144.5 -35t-118.5 -94.5t-85.5 -134t-54.5 -158.5q-21 -77 -19 -149t21 -127.5t67.5 -89t120.5 -33.5z" />
    <glyph glyph-name="q" unicode="q" horiz-adv-x="1116" 
d="M598 -438l137 579q-72 -77 -155 -119t-193 -42q-94 0 -162 42t-101 114t-40 169t20 207q51 220 187 364t315 144q212 0 287 -170l37 149h127l-332 -1437h-127zM422 88q79 0 148 35t119 95.5t84.5 134.5t53.5 159q18 80 18.5 149t-19 126t-68 89.5t-123.5 32.5
q-78 0 -146.5 -35t-119 -94.5t-86 -134t-54.5 -158.5q-19 -80 -18.5 -150t20.5 -126.5t69 -89.5t122 -33z" />
    <glyph glyph-name="r" unicode="r" horiz-adv-x="788" 
d="M59 0l230 999h131l-41 -176q59 92 147.5 141.5t175.5 49.5q46 0 90.5 -12.5t69.5 -32.5l-55 -113q-59 37 -125 37q-68 0 -132.5 -37t-113.5 -98t-85 -136t-54 -153l-109 -469h-129z" />
    <glyph glyph-name="s" unicode="s" horiz-adv-x="864" 
d="M358 -20q-135 0 -227.5 73.5t-105.5 171.5l118 47q7 -79 73.5 -127.5t156.5 -48.5q104 0 171.5 61.5t67.5 145.5q0 48 -25 80.5t-65 50t-88 31.5t-96 31t-88 42t-65 72t-25 113q0 93 46.5 160t120.5 99t165 32q122 0 202.5 -57.5t108.5 -137.5l-107 -47q-20 61 -74 96
t-137 35q-92 0 -151.5 -44.5t-59.5 -133.5q0 -47 25.5 -78.5t66.5 -49t90 -31t98.5 -31.5t90.5 -43.5t66.5 -72.5t25.5 -114q0 -126 -111.5 -225.5t-267.5 -99.5z" />
    <glyph glyph-name="t" unicode="t" horiz-adv-x="649" 
d="M322 -20q-239 0 -172 288l145 629h-156l23 102h155l50 220l159 131l-80 -351h254l-22 -102h-254l-152 -653q-19 -82 4.5 -123t77.5 -41q43 0 103 24l-15 -108q-40 -16 -120 -16z" />
    <glyph glyph-name="u" unicode="u" horiz-adv-x="1102" 
d="M377 -23q-91 0 -152 35t-86.5 94t-30 138.5t18.5 167.5l135 587h125l-139 -610q-11 -46 -15.5 -86t-0.5 -82.5t19 -72.5t48 -49t82 -19q131 0 253.5 107t153.5 239l132 573h122l-229 -999h-123l43 176q-47 -74 -146 -136.5t-210 -62.5z" />
    <glyph glyph-name="v" unicode="v" horiz-adv-x="936" 
d="M295 0l-133 999h135l90 -835l481 835h136l-594 -999h-115z" />
    <glyph glyph-name="w" unicode="w" horiz-adv-x="1407" 
d="M215 0l-41 999h131l17 -845l436 845h119l43 -843l407 843h135l-504 -999h-127l-43 850l-446 -850h-127z" />
    <glyph glyph-name="x" unicode="x" horiz-adv-x="899" 
d="M-59 0l452 504l-219 495h150l149 -381l332 381h151l-446 -495l213 -504h-143l-150 389l-332 -389h-157z" />
    <glyph glyph-name="y" unicode="y" horiz-adv-x="961" 
d="M41 -430l270 430l-151 999h137l104 -847l490 847h139l-856 -1429h-133z" />
    <glyph glyph-name="z" unicode="z" horiz-adv-x="915" 
d="M948 999l-22 -110l-791 -780h608l-24 -109h-762l20 100l805 797h-589l22 102h733z" />
    <glyph glyph-name="braceleft" unicode="{" horiz-adv-x="600" 
d="M272 -111q-91 0 -127 86q-30 34 -8 131l84 369q19 75 -96 121l12 104q69 16 114.5 58t59.5 102l99 428q22 100 76 148.5t163 48.5h53l19 1q19 0 20 -1l-4 -70q-11 2 -49 2q-61 0 -100.5 -20t-46.5 -56l-117 -505q-17 -72 -69.5 -116.5t-166.5 -84.5q87 -30 125.5 -69
t24.5 -99l-84 -365q-18 -77 6.5 -112t89.5 -35q21 0 41 8l-6 -74h-41h-72z" />
    <glyph glyph-name="bar" unicode="|" horiz-adv-x="621" 
d="M31 -512l473 2046h92l-473 -2046h-92z" />
    <glyph glyph-name="braceright" unicode="}" horiz-adv-x="600" 
d="M-12 -111q-5 0 -14 -0.5t-16 -0.5t-13 1l4 70q12 -4 26 -4q74 0 123.5 40.5t67.5 119.5l84 364q13 60 68 96.5t157 67.5q-93 39 -125 87t-16 118l117 506q9 34 -14.5 48.5t-78.5 14.5q-36 0 -61 -4l4 72h41h51q208 0 160 -209l-100 -428q-29 -122 90 -152l-13 -104
q-59 -20 -107.5 -52.5t-57.5 -76.5l-86 -369q-25 -104 -56 -141q-41 -32 -77 -48t-87 -16h-71z" />
    <glyph glyph-name="asciitilde" unicode="~" horiz-adv-x="1161" 
d="M743 379q-43 0 -82 19.5t-68 47.5t-56.5 56t-60 47.5t-66.5 19.5q-57 0 -82 -47t-23 -116h-82q0 105 47.5 175t137.5 70q52 0 94.5 -19t71 -46.5t54.5 -55t56.5 -46.5t65.5 -19q108 0 108 180h90q0 -126 -54 -196t-151 -70z" />
    <glyph glyph-name="uni00A0" unicode="&#xa0;" horiz-adv-x="563" 
 />
    <glyph glyph-name="exclamdown" unicode="&#xa1;" horiz-adv-x="635" 
d="M301 823l41 176h178l-41 -176h-178zM23 -436l276 1067h96l-219 -1067h-153z" />
    <glyph glyph-name="cent" unicode="&#xa2;" horiz-adv-x="1137" 
d="M393 -205l51 191q-72 7 -127.5 38.5t-89.5 80.5t-51 113.5t-15.5 138t19.5 153.5q30 129 94 235.5t167.5 180t228.5 86.5l49 188h92l-49 -188q108 -13 183.5 -82t96.5 -174l-137 -43q-3 80 -58.5 128t-139.5 48q-79 0 -147.5 -36t-116 -96t-80 -128.5t-50.5 -143.5
q-16 -71 -16 -134.5t17.5 -120.5t65.5 -90.5t124 -33.5q90 0 176 53t125 136l108 -64q-64 -110 -162.5 -174t-215.5 -73l-48 -189h-94z" />
    <glyph glyph-name="sterling" unicode="&#xa3;" horiz-adv-x="1251" 
d="M55 0l21 90q95 69 154.5 123.5t106.5 120.5t67 142t20 173h-219l26 109h193q-22 123 1.5 244.5t82.5 216t156 153t213 58.5q133 0 221.5 -82.5t105.5 -202.5l-112 -29q-11 90 -72 144.5t-148 54.5q-91 0 -165 -48t-117 -126t-59.5 -178.5t-0.5 -204.5h474l-27 -109h-445
q0 -184 -62 -309.5t-212 -228.5l834 4l-27 -115h-1010z" />
    <glyph glyph-name="currency" unicode="&#xa4;" horiz-adv-x="1384" 
d="M248 176l-68 88l133 107q-42 76 -43 170t40.5 189t119.5 169l-78 96l101 90l77 -102q139 92 288 89.5t243 -95.5l129 106l67 -84l-127 -106q64 -115 31.5 -266t-149.5 -267l78 -96l-101 -88l-80 100q-139 -91 -287 -87.5t-243 96.5zM444 395q87 -93 222 -88t243 105
q111 90 135 223.5t-55 230.5q-87 92 -220 86.5t-241 -104.5q-107 -89 -132 -223.5t48 -229.5z" />
    <glyph glyph-name="yen" unicode="&#xa5;" horiz-adv-x="1303" 
d="M471 0l74 322h-299l22 100h299l29 119h-299l22 98h254l-297 774h144l274 -708l604 708h150l-653 -772h252l-23 -100h-301l-29 -119h301l-22 -100h-301l-74 -322h-127z" />
    <glyph glyph-name="brokenbar" unicode="&#xa6;" horiz-adv-x="612" 
d="M317 731l172 744h84l-172 -744h-84zM78 -307l168 727h84l-168 -727h-84z" />
    <glyph glyph-name="section" unicode="&#xa7;" horiz-adv-x="1128" 
d="M461 -18q-153 0 -244.5 73.5t-101.5 212.5l121 29q1 -110 61 -155.5t168 -45.5q48 0 92 8.5t88 28.5t76.5 59.5t44.5 94.5q10 44 -8.5 75t-57 46t-89.5 28.5t-104.5 23.5t-102.5 30t-84.5 48.5t-49.5 79t2 121.5q15 60 55.5 116.5t100.5 98.5q-38 29 -55 84t-2 117
q20 86 82.5 151t143 96.5t165.5 31.5q133 0 214 -68.5t99 -200.5l-123 -16q-8 170 -196 170q-93 0 -174 -49.5t-103 -143.5q-10 -42 9 -71t58 -43t89.5 -27t104.5 -22.5t103 -30t84 -50t49 -81.5t-3 -125q-33 -134 -150 -211q85 -68 54 -205q-23 -96 -90 -160.5t-149.5 -91
t-176.5 -26.5zM694 522q140 52 170 187q9 39 -4 69.5t-37 48.5t-62.5 32t-70.5 20.5t-71.5 14t-55.5 11.5q-69 -25 -117 -74.5t-63 -113.5q-10 -44 10 -77t62 -52t83 -30t90 -21t66 -15z" />
    <glyph glyph-name="dieresis" unicode="&#xa8;" horiz-adv-x="834" 
d="M328 1229l43 184h160l-43 -184h-160zM660 1229l43 184h159l-43 -184h-159z" />
    <glyph glyph-name="copyright" unicode="&#xa9;" horiz-adv-x="1794" 
d="M944 -51q-152 0 -289.5 60t-237 161.5t-158 242t-58.5 294.5t58.5 294t158 241.5t237 161.5t289.5 60q151 0 289 -60t237.5 -161.5t158.5 -241.5t59 -294q0 -123 -37.5 -239t-106.5 -209t-160.5 -163t-205 -108.5t-234.5 -38.5zM944 51q171 0 319 89.5t235 241t87 325.5
q0 130 -51.5 251t-138 209.5t-205 141.5t-246.5 53t-247 -53t-205.5 -141.5t-138.5 -209.5t-52 -251q0 -174 87.5 -325.5t236 -241t319.5 -89.5zM961 309q-166 0 -255.5 111.5t-89.5 284.5q0 112 37.5 200t117 141.5t190.5 53.5q96 0 175.5 -46.5t118.5 -129.5l-92 -39
q-28 53 -82 83.5t-120 30.5q-83 0 -140 -43t-81.5 -107.5t-24.5 -143.5t24 -143t80.5 -107t138.5 -43q64 0 120 30.5t83 85.5l94 -41q-39 -85 -117.5 -131.5t-176.5 -46.5z" />
    <glyph glyph-name="ordfeminine" unicode="&#xaa;" horiz-adv-x="907" 
d="M428 709q-99 0 -154 61.5t-32 159.5q44 194 297 194l223 6q52 216 -117 216q-61 0 -119 -32t-94 -75l-78 64q67 68 136.5 99.5t156.5 31.5q134 0 190.5 -78.5t26.5 -208.5l-98 -424h-88l24 119q-62 -72 -126.5 -102.5t-147.5 -30.5zM453 801q96 0 182.5 76t105.5 165
l-202 -6q-66 0 -119.5 -36t-67.5 -95q-11 -46 21.5 -75t79.5 -29z" />
    <glyph glyph-name="guillemotleft" unicode="&#xab;" horiz-adv-x="977" 
d="M369 193l-283 319l426 317l-31 -149l-237 -168l155 -170zM733 193l-284 319l428 317l-31 -149l-240 -168l158 -170z" />
    <glyph glyph-name="logicalnot" unicode="&#xac;" horiz-adv-x="1329" 
d="M961 291v393h-744v113h860v-506h-116z" />
    <glyph glyph-name="uni00AD" unicode="&#xad;" horiz-adv-x="975" 
d="M190 596l23 96h639l-23 -96h-639z" />
    <glyph glyph-name="registered" unicode="&#xae;" horiz-adv-x="1794" 
d="M946 -49q-151 0 -289 60t-237 161.5t-158 242t-59 294.5q0 205 99.5 379.5t270.5 276t373 101.5q151 0 289 -60t237.5 -161.5t158.5 -241.5t59 -294q0 -123 -37.5 -239t-106.5 -209t-160.5 -163t-205 -108.5t-234.5 -38.5zM946 45q174 0 323.5 89.5t237.5 243t88 331.5
t-88 331t-237.5 242.5t-323.5 89.5t-324 -89.5t-238.5 -242.5t-88.5 -331t88.5 -331.5t238.5 -243t324 -89.5zM702 307v789h297q256 0 256 -228q0 -96 -48.5 -149.5t-123.5 -65.5l203 -346h-125l-178 338h-174v-338h-107zM799 739h200q160 0 160 129q0 69 -39 100t-121 31
h-200v-260z" />
    <glyph glyph-name="macron" unicode="&#xaf;" horiz-adv-x="879" 
d="M447 1192l28 121h537l-29 -121h-536z" />
    <glyph glyph-name="degree" unicode="&#xb0;" horiz-adv-x="979" 
d="M637 848q-121 0 -207 86t-86 207t86 207t207 86q120 0 205.5 -86t85.5 -207t-85.5 -207t-205.5 -86zM637 924q88 0 151.5 64t63.5 153t-63.5 153t-151.5 64q-89 0 -153 -64t-64 -153t64 -153t153 -64z" />
    <glyph glyph-name="plusminus" unicode="&#xb1;" horiz-adv-x="1423" 
d="M618 106v472h-456v96h456v469h97v-469h456v-96h-456v-472h-97zM162 -96v96h1009v-96h-1009z" />
    <glyph glyph-name="acute" unicode="&#xb4;" horiz-adv-x="537" 
d="M213 1124l283 289h180l-336 -289h-127z" />
    <glyph glyph-name="uni00B5" unicode="&#xb5;" horiz-adv-x="1296" 
d="M86 -266l291 1265h139l-139 -606q-68 -293 135 -293q127 0 245 101t148 229l131 569h140l-230 -999h-139l43 180q-48 -77 -149.5 -140t-208.5 -63q-113 0 -191 60l-96 -303h-119z" />
    <glyph glyph-name="paragraph" unicode="&#xb6;" horiz-adv-x="1350" 
d="M414 -246l207 869q-88 0 -164 27.5t-128.5 80t-73.5 128t1 171.5q26 118 110.5 206.5t195 132.5t229.5 44h133l-383 -1659h-127zM786 -246l383 1659h127l-383 -1659h-127z" />
    <glyph glyph-name="periodcentered" unicode="&#xb7;" horiz-adv-x="659" 
d="M389 711q-53 0 -82.5 38.5t-15.5 92.5q10 47 47 76.5t84 29.5q55 0 84 -37.5t16 -93.5q-11 -45 -49 -75.5t-84 -30.5z" />
    <glyph glyph-name="cedilla" unicode="&#xb8;" horiz-adv-x="565" 
d="M49 -500q-65 0 -108 38t-52 91l99 37q-3 -30 15 -51t52 -21q49 0 88.5 33.5t51.5 79.5q10 47 -26.5 82t-127.5 35h-41l127 176h117l-103 -121q90 -1 128 -56t20 -132q-19 -75 -84.5 -133t-155.5 -58z" />
    <glyph glyph-name="ordmasculine" unicode="&#xba;" horiz-adv-x="872" 
d="M496 711q-150 0 -223.5 108.5t-36.5 265.5q34 147 148.5 248t256.5 101q150 0 222 -108.5t36 -264.5q-34 -149 -147.5 -249.5t-255.5 -100.5zM498 811q110 0 184 78.5t100 195.5q13 49 11 94.5t-15.5 80t-48.5 55t-88 20.5q-113 0 -187.5 -78.5t-101.5 -195.5
q-25 -110 8 -180t138 -70z" />
    <glyph glyph-name="guillemotright" unicode="&#xbb;" horiz-adv-x="977" 
d="M102 193l31 149l238 170l-156 168l31 149l282 -317zM465 193l31 149l237 170l-155 168l30 149l285 -317z" />
    <glyph glyph-name="questiondown" unicode="&#xbf;" horiz-adv-x="1038" 
d="M508 823l41 176h178l-41 -176h-178zM328 -434q-87 0 -156.5 23.5t-116 70t-63 114.5t3.5 158q15 67 46 118t68 81.5t78.5 54.5t82 43.5t75.5 40t61 52t35 73.5l56 240h118l-57 -254q-13 -58 -41 -100t-63.5 -67t-75.5 -45t-80.5 -41t-76.5 -47t-64.5 -71t-42.5 -106
q-26 -111 34 -167t177 -56q120 0 218 70t128 188l123 -13q-39 -167 -170.5 -263.5t-296.5 -96.5z" />
    <glyph glyph-name="Agrave" unicode="&#xc0;" horiz-adv-x="1296" 
d="M821 1540l-180 287h172l149 -287h-141zM-39 0l848 1413h104l193 -1413h-141l-37 307h-639l-178 -307h-150zM362 434h549l-90 780z" />
    <glyph glyph-name="Aacute" unicode="&#xc1;" horiz-adv-x="1296" 
d="M798 1538l283 289h180l-336 -289h-127zM-39 0l848 1413h104l193 -1413h-141l-37 307h-639l-178 -307h-150zM362 434h549l-90 780z" />
    <glyph glyph-name="Acircumflex" unicode="&#xc2;" horiz-adv-x="1296" 
d="M551 1512l413 356l250 -356h-149l-129 196l-226 -196h-159zM-39 0l848 1413h104l193 -1413h-141l-37 307h-639l-178 -307h-150zM362 434h549l-90 780z" />
    <glyph glyph-name="Atilde" unicode="&#xc3;" horiz-adv-x="1296" 
d="M1028 1571q-37 0 -66 16.5t-46.5 40t-32 47t-32.5 40t-40 16.5q-40 0 -69.5 -40.5t-43.5 -96.5h-88q26 112 77.5 176.5t123.5 64.5q42 0 73.5 -17t48.5 -41t31 -48t30.5 -41t37.5 -17q42 0 73 43.5t50 114.5h92q-58 -258 -219 -258zM-39 0l848 1413h104l193 -1413h-141
l-37 307h-639l-178 -307h-150zM362 434h549l-90 780z" />
    <glyph glyph-name="Adieresis" unicode="&#xc4;" horiz-adv-x="1296" 
d="M668 1643l43 184h160l-43 -184h-160zM1000 1643l43 184h159l-43 -184h-159zM-39 0l848 1413h104l193 -1413h-141l-37 307h-639l-178 -307h-150zM362 434h549l-90 780z" />
    <glyph glyph-name="Aring" unicode="&#xc5;" horiz-adv-x="1296" 
d="M930 1341l176 -1341h-129l-37 307h-651l-178 -307h-150l809 1341q-47 24 -69 76.5t-7 116.5q20 82 84.5 133t141.5 51q83 0 132.5 -60t28.5 -149q-14 -56 -54 -101t-97 -67zM784 1509q-4 -40 17 -64t59 -24q46 0 83.5 33t43.5 80q5 38 -16 62t-62 24q-49 0 -84.5 -33
t-40.5 -78zM362 434h562l-92 800z" />
    <glyph glyph-name="AE" unicode="&#xc6;" horiz-adv-x="1806" 
d="M-39 0l844 1413h1102l-25 -108h-747l-125 -541h659l-27 -115h-659l-123 -534h748l-27 -115h-883l70 307h-481l-183 -307h-143zM356 434h443l200 871h-127z" />
    <glyph glyph-name="Ccedilla" unicode="&#xc7;" horiz-adv-x="1423" 
d="M952 1313q-127 0 -236 -50t-187 -136t-131.5 -192.5t-82.5 -229.5q-19 -82 -24 -156t3 -142.5t34.5 -123.5t69 -95.5t108 -63t149.5 -22.5q334 0 521 310l112 -68q-106 -158 -249 -249.5t-308 -109.5l-90 -106q90 -1 128 -56t20 -132q-19 -75 -84.5 -133t-155.5 -58
q-65 0 -108 38t-52 91l99 37q-3 -30 15 -51t52 -21q49 0 88.5 33.5t51.5 79.5q10 47 -26.5 82t-127.5 35h-41l113 157q-119 5 -208.5 46t-143.5 109t-80.5 159.5t-24.5 198t30 225.5q35 149 101 276.5t161 227t227 156.5t286 57q206 0 337.5 -95.5t149.5 -279.5l-127 -39
q-28 291 -369 291z" />
    <glyph glyph-name="Egrave" unicode="&#xc8;" horiz-adv-x="1235" 
d="M848 1540l-180 287h172l149 -287h-141zM104 0l326 1413h909l-26 -113h-774l-123 -538h661l-26 -109h-662l-123 -532h774l-26 -121h-910z" />
    <glyph glyph-name="Eacute" unicode="&#xc9;" horiz-adv-x="1235" 
d="M825 1538l283 289h180l-336 -289h-127zM104 0l326 1413h909l-26 -113h-774l-123 -538h661l-26 -109h-662l-123 -532h774l-26 -121h-910z" />
    <glyph glyph-name="Ecircumflex" unicode="&#xca;" horiz-adv-x="1235" 
d="M578 1512l413 356l250 -356h-149l-129 196l-226 -196h-159zM104 0l326 1413h909l-26 -113h-774l-123 -538h661l-26 -109h-662l-123 -532h774l-26 -121h-910z" />
    <glyph glyph-name="Edieresis" unicode="&#xcb;" horiz-adv-x="1235" 
d="M695 1643l43 184h160l-43 -184h-160zM1027 1643l43 184h159l-43 -184h-159zM104 0l326 1413h909l-26 -113h-774l-123 -538h661l-26 -109h-662l-123 -532h774l-26 -121h-910z" />
    <glyph glyph-name="Igrave" unicode="&#xcc;" horiz-adv-x="573" 
d="M455 1540l-180 287h172l149 -287h-141zM104 0l326 1413h135l-325 -1413h-136z" />
    <glyph glyph-name="Iacute" unicode="&#xcd;" horiz-adv-x="573" 
d="M432 1538l283 289h180l-336 -289h-127zM104 0l326 1413h135l-325 -1413h-136z" />
    <glyph glyph-name="Icircumflex" unicode="&#xce;" horiz-adv-x="573" 
d="M185 1512l413 356l250 -356h-149l-129 196l-226 -196h-159zM104 0l326 1413h135l-325 -1413h-136z" />
    <glyph glyph-name="Idieresis" unicode="&#xcf;" horiz-adv-x="573" 
d="M302 1643l43 184h160l-43 -184h-160zM634 1643l43 184h159l-43 -184h-159zM104 0l326 1413h135l-325 -1413h-136z" />
    <glyph glyph-name="Eth" unicode="&#xd0;" horiz-adv-x="1421" 
d="M121 0l151 664h-112l24 98h113l149 651h351q338 0 478 -188.5t58 -540.5q-76 -330 -297.5 -507t-556.5 -177h-358zM293 129h180q126 0 239.5 35.5t210 106t168 185t105.5 263.5q64 279 -41 423t-381 144h-213l-121 -524h381l-24 -98h-381z" />
    <glyph glyph-name="Ntilde" unicode="&#xd1;" horiz-adv-x="1409" 
d="M1079 1571q-37 0 -66 16.5t-46.5 40t-32 47t-32.5 40t-40 16.5q-40 0 -69.5 -40.5t-43.5 -96.5h-88q26 112 77.5 176.5t123.5 64.5q42 0 73.5 -17t48.5 -41t31 -48t30.5 -41t37.5 -17q42 0 73 43.5t50 114.5h92q-58 -258 -219 -258zM104 0l326 1413h213l324 -1288
l299 1288h135l-326 -1413h-217l-317 1290l-299 -1290h-138z" />
    <glyph glyph-name="Ograve" unicode="&#xd2;" horiz-adv-x="1511" 
d="M924 1540l-180 287h172l149 -287h-141zM645 -20q-125 0 -220 38.5t-153 106.5t-87.5 161t-29 202.5t28.5 230.5q34 148 101 275.5t163 226.5t228 156t282 57q126 0 222.5 -38.5t154.5 -106.5t88 -161.5t29 -203t-29 -230.5q-27 -118 -75 -223t-118 -195.5t-156 -156
t-196.5 -102.5t-232.5 -37zM651 106q105 0 199 33.5t166 90.5t130.5 136t97 167t61.5 186q21 94 23.5 178.5t-18 160t-64 130.5t-119 87t-177.5 32q-127 0 -237.5 -50.5t-190 -137.5t-134 -194.5t-83.5 -230.5q-21 -94 -23.5 -178.5t17.5 -160t62.5 -130.5t116 -87
t173.5 -32z" />
    <glyph glyph-name="Oacute" unicode="&#xd3;" horiz-adv-x="1511" 
d="M901 1538l283 289h180l-336 -289h-127zM645 -20q-125 0 -220 38.5t-153 106.5t-87.5 161t-29 202.5t28.5 230.5q34 148 101 275.5t163 226.5t228 156t282 57q126 0 222.5 -38.5t154.5 -106.5t88 -161.5t29 -203t-29 -230.5q-27 -118 -75 -223t-118 -195.5t-156 -156
t-196.5 -102.5t-232.5 -37zM651 106q105 0 199 33.5t166 90.5t130.5 136t97 167t61.5 186q21 94 23.5 178.5t-18 160t-64 130.5t-119 87t-177.5 32q-127 0 -237.5 -50.5t-190 -137.5t-134 -194.5t-83.5 -230.5q-21 -94 -23.5 -178.5t17.5 -160t62.5 -130.5t116 -87
t173.5 -32z" />
    <glyph glyph-name="Ocircumflex" unicode="&#xd4;" horiz-adv-x="1511" 
d="M654 1512l413 356l250 -356h-149l-129 196l-226 -196h-159zM645 -20q-125 0 -220 38.5t-153 106.5t-87.5 161t-29 202.5t28.5 230.5q34 148 101 275.5t163 226.5t228 156t282 57q126 0 222.5 -38.5t154.5 -106.5t88 -161.5t29 -203t-29 -230.5q-27 -118 -75 -223
t-118 -195.5t-156 -156t-196.5 -102.5t-232.5 -37zM651 106q105 0 199 33.5t166 90.5t130.5 136t97 167t61.5 186q21 94 23.5 178.5t-18 160t-64 130.5t-119 87t-177.5 32q-127 0 -237.5 -50.5t-190 -137.5t-134 -194.5t-83.5 -230.5q-21 -94 -23.5 -178.5t17.5 -160
t62.5 -130.5t116 -87t173.5 -32z" />
    <glyph glyph-name="Otilde" unicode="&#xd5;" horiz-adv-x="1511" 
d="M1131 1571q-37 0 -66 16.5t-46.5 40t-32 47t-32.5 40t-40 16.5q-40 0 -69.5 -40.5t-43.5 -96.5h-88q26 112 77.5 176.5t123.5 64.5q42 0 73.5 -17t48.5 -41t31 -48t30.5 -41t37.5 -17q42 0 73 43.5t50 114.5h92q-58 -258 -219 -258zM645 -20q-125 0 -220 38.5t-153 106.5
t-87.5 161t-29 202.5t28.5 230.5q34 148 101 275.5t163 226.5t228 156t282 57q126 0 222.5 -38.5t154.5 -106.5t88 -161.5t29 -203t-29 -230.5q-27 -118 -75 -223t-118 -195.5t-156 -156t-196.5 -102.5t-232.5 -37zM651 106q105 0 199 33.5t166 90.5t130.5 136t97 167
t61.5 186q21 94 23.5 178.5t-18 160t-64 130.5t-119 87t-177.5 32q-127 0 -237.5 -50.5t-190 -137.5t-134 -194.5t-83.5 -230.5q-21 -94 -23.5 -178.5t17.5 -160t62.5 -130.5t116 -87t173.5 -32z" />
    <glyph glyph-name="Odieresis" unicode="&#xd6;" horiz-adv-x="1511" 
d="M771 1643l43 184h160l-43 -184h-160zM1103 1643l43 184h159l-43 -184h-159zM645 -20q-125 0 -220 38.5t-153 106.5t-87.5 161t-29 202.5t28.5 230.5q34 148 101 275.5t163 226.5t228 156t282 57q126 0 222.5 -38.5t154.5 -106.5t88 -161.5t29 -203t-29 -230.5
q-27 -118 -75 -223t-118 -195.5t-156 -156t-196.5 -102.5t-232.5 -37zM651 106q105 0 199 33.5t166 90.5t130.5 136t97 167t61.5 186q21 94 23.5 178.5t-18 160t-64 130.5t-119 87t-177.5 32q-127 0 -237.5 -50.5t-190 -137.5t-134 -194.5t-83.5 -230.5
q-21 -94 -23.5 -178.5t17.5 -160t62.5 -130.5t116 -87t173.5 -32z" />
    <glyph glyph-name="multiply" unicode="&#xd7;" horiz-adv-x="1196" 
d="M303 233l-70 68l324 324l-332 331l68 70l334 -334l321 324l70 -68l-324 -323l332 -332l-68 -70l-331 334z" />
    <glyph glyph-name="Oslash" unicode="&#xd8;" horiz-adv-x="1511" 
d="M1327 1297q93 -99 117 -260t-21 -343q-27 -118 -75 -223t-118 -195.5t-156 -156t-196.5 -102.5t-232.5 -37q-179 0 -296 78l-45 -58h-119l93 118q-92 100 -115 260t21 341q34 148 101 275.5t163 226.5t228 156t282 57q179 0 297 -77l44 56h119zM305 694
q-33 -134 -20 -262t77 -207l810 1027q-88 55 -222 55q-127 0 -237.5 -50.5t-190 -137.5t-134 -194.5t-83.5 -230.5zM1305 719q34 136 19.5 264.5t-81.5 207.5l-811 -1029q86 -56 219 -56q105 0 199 33.5t166 90.5t130.5 136t97 167t61.5 186z" />
    <glyph glyph-name="Ugrave" unicode="&#xd9;" horiz-adv-x="1346" 
d="M846 1540l-180 287h172l149 -287h-141zM561 -20q-102 0 -178 30t-120 81t-66 120.5t-21.5 145.5t19.5 159l206 897h136l-199 -860q-103 -447 229 -447q98 0 178 36t135.5 101t92.5 144.5t59 177.5l197 848h135l-207 -899q-25 -108 -74 -201.5t-121 -169.5t-175.5 -119.5
t-225.5 -43.5z" />
    <glyph glyph-name="Uacute" unicode="&#xda;" horiz-adv-x="1346" 
d="M823 1538l283 289h180l-336 -289h-127zM561 -20q-102 0 -178 30t-120 81t-66 120.5t-21.5 145.5t19.5 159l206 897h136l-199 -860q-103 -447 229 -447q98 0 178 36t135.5 101t92.5 144.5t59 177.5l197 848h135l-207 -899q-25 -108 -74 -201.5t-121 -169.5t-175.5 -119.5
t-225.5 -43.5z" />
    <glyph glyph-name="Ucircumflex" unicode="&#xdb;" horiz-adv-x="1346" 
d="M576 1512l413 356l250 -356h-149l-129 196l-226 -196h-159zM561 -20q-102 0 -178 30t-120 81t-66 120.5t-21.5 145.5t19.5 159l206 897h136l-199 -860q-103 -447 229 -447q98 0 178 36t135.5 101t92.5 144.5t59 177.5l197 848h135l-207 -899q-25 -108 -74 -201.5
t-121 -169.5t-175.5 -119.5t-225.5 -43.5z" />
    <glyph glyph-name="Udieresis" unicode="&#xdc;" horiz-adv-x="1346" 
d="M693 1643l43 184h160l-43 -184h-160zM1025 1643l43 184h159l-43 -184h-159zM561 -20q-102 0 -178 30t-120 81t-66 120.5t-21.5 145.5t19.5 159l206 897h136l-199 -860q-103 -447 229 -447q98 0 178 36t135.5 101t92.5 144.5t59 177.5l197 848h135l-207 -899
q-25 -108 -74 -201.5t-121 -169.5t-175.5 -119.5t-225.5 -43.5z" />
    <glyph glyph-name="Yacute" unicode="&#xdd;" horiz-adv-x="1315" 
d="M802 1538l283 289h180l-336 -289h-127zM477 0l129 553l-330 860h152l268 -719l607 719h157l-725 -860l-129 -553h-129z" />
    <glyph glyph-name="Thorn" unicode="&#xde;" horiz-adv-x="1149" 
d="M104 0l326 1413h141l-47 -201h244q201 0 299 -108.5t55 -296.5q-41 -174 -180.5 -270.5t-341.5 -96.5h-254l-100 -440h-142zM377 571h241q144 0 241 66.5t126 191.5q28 116 -35 178t-205 62h-253z" />
    <glyph glyph-name="germandbls" unicode="&#xdf;" horiz-adv-x="1176" 
d="M608 -18q-73 0 -135.5 19t-134.5 56l74 119q95 -63 204 -63q79 0 159.5 55.5t96.5 130.5q11 44 2 83t-30.5 68t-49.5 59t-56 56.5t-49 61t-29.5 71t2.5 88.5q10 45 42.5 79.5t72.5 58t80.5 48t73.5 63t44 89.5q20 83 -34 137t-165 54q-132 0 -233.5 -104t-155.5 -339
l-201 -872h-125l205 887q126 547 514 547q72 0 137 -25t112 -68.5t67 -109.5t2 -141q-12 -52 -44.5 -91t-71.5 -63.5t-78 -47t-70 -54.5t-41 -74q-8 -37 7.5 -71t44.5 -60t62 -59.5t60 -69.5t38 -89t-4 -118q-32 -136 -144 -223.5t-249 -87.5z" />
    <glyph glyph-name="agrave" unicode="&#xe0;" horiz-adv-x="1118" 
d="M786 1126h-141l-180 287h172zM932 999h125l-230 -999h-125l29 134q-145 -154 -342 -154q-94 0 -162 42t-101 114t-40 169t20 207q33 143 103.5 257t174 182.5t222.5 68.5q214 0 289 -170zM829 512q19 80 19 148t-20 123.5t-69 87.5t-124 32q-152 0 -257.5 -119.5
t-146.5 -296.5q-21 -77 -19 -148t22 -125.5t69 -87t123 -32.5q105 0 190 60t136 151.5t77 206.5z" />
    <glyph glyph-name="aacute" unicode="&#xe1;" horiz-adv-x="1118" 
d="M1085 1413l-336 -289h-127l283 289h180zM895 850l37 149h125l-230 -999h-125l29 134q-145 -154 -342 -154q-94 0 -162 42t-101 114t-40 169t20 207q33 143 103.5 257t174 182.5t222.5 68.5q214 0 289 -170zM829 512q19 80 19 148t-20 123.5t-69 87.5t-124 32
q-152 0 -257.5 -119.5t-146.5 -296.5q-21 -77 -19 -148t22 -125.5t69 -87t123 -32.5q105 0 190 60t136 151.5t77 206.5z" />
    <glyph glyph-name="acircumflex" unicode="&#xe2;" horiz-adv-x="1118" 
d="M760 1294l-226 -196h-159l413 356l250 -356h-149zM932 999h125l-230 -999h-125l29 134q-145 -154 -342 -154q-94 0 -162 42t-101 114t-40 169t20 207q33 143 103.5 257t174 182.5t222.5 68.5q214 0 289 -170zM829 512q19 80 19 148t-20 123.5t-69 87.5t-124 32
q-152 0 -257.5 -119.5t-146.5 -296.5q-21 -77 -19 -148t22 -125.5t69 -87t123 -32.5q105 0 190 60t136 151.5t77 206.5z" />
    <glyph glyph-name="atilde" unicode="&#xe3;" horiz-adv-x="1118" 
d="M635 1317q-40 0 -69.5 -40.5t-43.5 -96.5h-88q26 112 77.5 176.5t123.5 64.5q42 0 73.5 -17t48.5 -41t31 -48t30.5 -41t37.5 -17q42 0 73 43.5t50 114.5h92q-58 -258 -219 -258q-37 0 -66 16.5t-46.5 40t-32 47t-32.5 40t-40 16.5zM895 850l37 149h125l-230 -999h-125
l29 134q-145 -154 -342 -154q-94 0 -162 42t-101 114t-40 169t20 207q33 143 103.5 257t174 182.5t222.5 68.5q214 0 289 -170zM829 512q19 80 19 148t-20 123.5t-69 87.5t-124 32q-152 0 -257.5 -119.5t-146.5 -296.5q-21 -77 -19 -148t22 -125.5t69 -87t123 -32.5
q105 0 190 60t136 151.5t77 206.5z" />
    <glyph glyph-name="adieresis" unicode="&#xe4;" horiz-adv-x="1118" 
d="M695 1413l-43 -184h-160l43 184h160zM1026 1413l-43 -184h-159l43 184h159zM932 999h125l-230 -999h-125l29 134q-145 -154 -342 -154q-94 0 -162 42t-101 114t-40 169t20 207q33 143 103.5 257t174 182.5t222.5 68.5q214 0 289 -170zM829 512q19 80 19 148t-20 123.5
t-69 87.5t-124 32q-152 0 -257.5 -119.5t-146.5 -296.5q-21 -77 -19 -148t22 -125.5t69 -87t123 -32.5q105 0 190 60t136 151.5t77 206.5z" />
    <glyph glyph-name="aring" unicode="&#xe5;" horiz-adv-x="1118" 
d="M715 1081q-88 0 -134 61t-26 148q19 78 84.5 131.5t143.5 53.5q85 0 133 -61.5t26 -147.5q-16 -77 -83 -131t-144 -54zM649 1266q-6 -40 15 -64t59 -24q45 0 83.5 32.5t45.5 79.5q5 37 -17 61.5t-61 24.5q-49 0 -83.5 -30.5t-41.5 -79.5zM932 999h125l-230 -999h-125
l29 134q-145 -154 -342 -154q-94 0 -162 42t-101 114t-40 169t20 207q33 143 103.5 257t174 182.5t222.5 68.5q214 0 289 -170zM829 512q19 80 19 148t-20 123.5t-69 87.5t-124 32q-152 0 -257.5 -119.5t-146.5 -296.5q-21 -77 -19 -148t22 -125.5t69 -87t123 -32.5
q105 0 190 60t136 151.5t77 206.5z" />
    <glyph glyph-name="ae" unicode="&#xe6;" horiz-adv-x="1667" 
d="M285 -20q-137 0 -210.5 84.5t-43.5 216.5q65 284 418 284h325q22 107 18.5 185.5t-51.5 123t-141 44.5t-175.5 -46t-137.5 -112l-92 74q97 94 193.5 138t219.5 44q127 0 200 -52t87 -145q133 193 365 193q96 0 164 -29.5t104.5 -79t51.5 -120t10 -146.5t-25 -164l-3 -7
q-2 -7 -3 -9h-697q-23 -101 -13.5 -181t67 -130t153.5 -50q100 0 175.5 25t152.5 86l73 -74q-96 -78 -191 -111.5t-210 -33.5q-163 0 -245 85.5t-85 225.5q-166 -319 -454 -319zM885 565h585q40 154 -12 243t-198 89q-138 0 -239.5 -96.5t-135.5 -235.5zM326 90
q143 0 271.5 115.5t152.5 251.5h-301q-100 -2 -179 -52.5t-104 -148.5q-16 -65 38.5 -115.5t121.5 -50.5z" />
    <glyph glyph-name="ccedilla" unicode="&#xe7;" horiz-adv-x="965" 
d="M627 913q-65 0 -123.5 -26t-102 -68.5t-79.5 -99t-59.5 -115t-37.5 -119.5q-13 -58 -17 -112.5t4 -108.5t30 -93.5t65 -64t105 -24.5q99 0 187 58.5t132 152.5l96 -62q-65 -110 -159.5 -174t-208.5 -75l-88 -103q90 -1 128 -56t20 -132q-19 -75 -84.5 -133t-155.5 -58
q-65 0 -108 38t-52 91l99 37q-3 -30 15 -51t52 -21q49 0 88.5 33.5t51.5 79.5q10 47 -26.5 82t-127.5 35h-41l116 161q-84 13 -143.5 61.5t-87 119t-32.5 159.5t19 185q24 101 70.5 191t112.5 161t155 112.5t189 41.5q132 0 216.5 -70t110.5 -190l-125 -41
q-1 93 -57.5 145.5t-146.5 52.5z" />
    <glyph glyph-name="egrave" unicode="&#xe8;" horiz-adv-x="1028" 
d="M582 1126l-180 287h172l149 -287h-141zM430 -12q-108 0 -185 40t-114 110t-46.5 164.5t17.5 203.5q23 101 69.5 191t112.5 161t155 112.5t188 41.5q94 0 161 -29.5t103.5 -79t51.5 -119.5t10 -146.5t-25 -164.5l-3 -7l-5 -15h-699q-21 -72 -16.5 -136t27.5 -113t74 -77.5
t124 -28.5q99 0 175.5 25t146.5 86l79 -74q-98 -78 -191.5 -111.5t-209.5 -33.5zM246 559h585q40 158 -11.5 248t-196.5 90q-141 0 -241 -97t-136 -241z" />
    <glyph glyph-name="eacute" unicode="&#xe9;" horiz-adv-x="1028" 
d="M559 1124l283 289h180l-336 -289h-127zM430 -12q-108 0 -185 40t-114 110t-46.5 164.5t17.5 203.5q23 101 69.5 191t112.5 161t155 112.5t188 41.5q94 0 161 -29.5t103.5 -79t51.5 -119.5t10 -146.5t-25 -164.5l-3 -7l-5 -15h-699q-21 -72 -16.5 -136t27.5 -113t74 -77.5
t124 -28.5q99 0 175.5 25t146.5 86l79 -74q-98 -78 -191.5 -111.5t-209.5 -33.5zM246 559h585q40 158 -11.5 248t-196.5 90q-141 0 -241 -97t-136 -241z" />
    <glyph glyph-name="ecircumflex" unicode="&#xea;" horiz-adv-x="1028" 
d="M312 1098l413 356l250 -356h-149l-129 196l-226 -196h-159zM430 -12q-108 0 -185 40t-114 110t-46.5 164.5t17.5 203.5q23 101 69.5 191t112.5 161t155 112.5t188 41.5q94 0 161 -29.5t103.5 -79t51.5 -119.5t10 -146.5t-25 -164.5l-3 -7l-5 -15h-699q-21 -72 -16.5 -136
t27.5 -113t74 -77.5t124 -28.5q99 0 175.5 25t146.5 86l79 -74q-98 -78 -191.5 -111.5t-209.5 -33.5zM246 559h585q40 158 -11.5 248t-196.5 90q-141 0 -241 -97t-136 -241z" />
    <glyph glyph-name="edieresis" unicode="&#xeb;" horiz-adv-x="1028" 
d="M429 1229l43 184h160l-43 -184h-160zM761 1229l43 184h159l-43 -184h-159zM430 -12q-108 0 -185 40t-114 110t-46.5 164.5t17.5 203.5q23 101 69.5 191t112.5 161t155 112.5t188 41.5q94 0 161 -29.5t103.5 -79t51.5 -119.5t10 -146.5t-25 -164.5l-3 -7l-5 -15h-699
q-21 -72 -16.5 -136t27.5 -113t74 -77.5t124 -28.5q99 0 175.5 25t146.5 86l79 -74q-98 -78 -191.5 -111.5t-209.5 -33.5zM246 559h585q40 158 -11.5 248t-196.5 90q-141 0 -241 -97t-136 -241z" />
    <glyph glyph-name="igrave" unicode="&#xec;" horiz-adv-x="477" 
d="M313 1126l-180 287h172l149 -287h-141zM59 0l230 999h129l-230 -999h-129z" />
    <glyph glyph-name="iacute" unicode="&#xed;" horiz-adv-x="477" 
d="M290 1124l283 289h180l-336 -289h-127zM59 0l230 999h129l-230 -999h-129z" />
    <glyph glyph-name="icircumflex" unicode="&#xee;" horiz-adv-x="477" 
d="M43 1098l413 356l250 -356h-149l-129 196l-226 -196h-159zM59 0l230 999h129l-230 -999h-129z" />
    <glyph glyph-name="idieresis" unicode="&#xef;" horiz-adv-x="477" 
d="M160 1229l43 184h160l-43 -184h-160zM492 1229l43 184h159l-43 -184h-159zM59 0l230 999h129l-230 -999h-129z" />
    <glyph glyph-name="eth" unicode="&#xf0;" horiz-adv-x="1151" 
d="M832 1374q173 -137 222 -345.5t-22 -528.5q-23 -101 -75.5 -193.5t-125.5 -164.5t-171.5 -115t-204.5 -43q-87 0 -157.5 29t-114.5 80t-71 120t-27 148.5t17 166.5q49 212 201 352t350 140q94 0 167.5 -32t97.5 -73q19 199 -173 363l-127 -141l-79 57l127 143
q-74 48 -154 84l82 92q86 -37 156 -81l84 94l84 -56zM893 528q21 78 16.5 149.5t-27.5 127t-77 88.5t-131 33q-83 0 -157 -36t-127.5 -96.5t-91 -134.5t-56.5 -155q-20 -75 -15.5 -146.5t27 -127.5t76.5 -90t133 -34q83 0 156.5 36t126.5 96.5t90.5 134.5t56.5 155z" />
    <glyph glyph-name="ntilde" unicode="&#xf1;" horiz-adv-x="1106" 
d="M821 1157q-37 0 -66 16.5t-46.5 40t-32 47t-32.5 40t-40 16.5q-40 0 -69.5 -40.5t-43.5 -96.5h-88q26 112 77.5 176.5t123.5 64.5q42 0 73.5 -17t48.5 -41t31 -48t30.5 -41t37.5 -17q42 0 73 43.5t50 114.5h92q-58 -258 -219 -258zM59 0l230 999h125l-39 -161
q64 80 159.5 129t192.5 49q91 0 152.5 -33t87.5 -89.5t31 -132t-17 -159.5l-139 -602h-125l139 604q65 291 -147 291q-129 0 -246.5 -99t-147.5 -229l-131 -567h-125z" />
    <glyph glyph-name="ograve" unicode="&#xf2;" horiz-adv-x="1116" 
d="M631 1126l-180 287h172l149 -287h-141zM449 -20q-83 0 -151.5 27t-114 75t-73.5 114.5t-30 145t16 166.5q32 139 114 253.5t202 182.5t252 68q136 0 229 -71.5t125.5 -192t-0.5 -265.5q-32 -138 -115.5 -253t-203.5 -182.5t-250 -67.5zM453 92q86 0 159 34.5t125 93.5
t87.5 131.5t54.5 156.5q15 63 17.5 119t-9 106.5t-38 86.5t-75 57.5t-115.5 21.5q-84 0 -156.5 -34.5t-124.5 -93.5t-87.5 -132t-54.5 -156q-21 -76 -18 -146.5t24 -125t75 -87t136 -32.5z" />
    <glyph glyph-name="oacute" unicode="&#xf3;" horiz-adv-x="1116" 
d="M608 1124l283 289h180l-336 -289h-127zM449 -20q-83 0 -151.5 27t-114 75t-73.5 114.5t-30 145t16 166.5q32 139 114 253.5t202 182.5t252 68q136 0 229 -71.5t125.5 -192t-0.5 -265.5q-32 -138 -115.5 -253t-203.5 -182.5t-250 -67.5zM453 92q86 0 159 34.5t125 93.5
t87.5 131.5t54.5 156.5q15 63 17.5 119t-9 106.5t-38 86.5t-75 57.5t-115.5 21.5q-84 0 -156.5 -34.5t-124.5 -93.5t-87.5 -132t-54.5 -156q-21 -76 -18 -146.5t24 -125t75 -87t136 -32.5z" />
    <glyph glyph-name="ocircumflex" unicode="&#xf4;" horiz-adv-x="1116" 
d="M361 1098l413 356l250 -356h-149l-129 196l-226 -196h-159zM449 -20q-83 0 -151.5 27t-114 75t-73.5 114.5t-30 145t16 166.5q32 139 114 253.5t202 182.5t252 68q136 0 229 -71.5t125.5 -192t-0.5 -265.5q-32 -138 -115.5 -253t-203.5 -182.5t-250 -67.5zM453 92
q86 0 159 34.5t125 93.5t87.5 131.5t54.5 156.5q15 63 17.5 119t-9 106.5t-38 86.5t-75 57.5t-115.5 21.5q-84 0 -156.5 -34.5t-124.5 -93.5t-87.5 -132t-54.5 -156q-21 -76 -18 -146.5t24 -125t75 -87t136 -32.5z" />
    <glyph glyph-name="otilde" unicode="&#xf5;" horiz-adv-x="1116" 
d="M838 1157q-37 0 -66 16.5t-46.5 40t-32 47t-32.5 40t-40 16.5q-40 0 -69.5 -40.5t-43.5 -96.5h-88q26 112 77.5 176.5t123.5 64.5q42 0 73.5 -17t48.5 -41t31 -48t30.5 -41t37.5 -17q42 0 73 43.5t50 114.5h92q-58 -258 -219 -258zM449 -20q-83 0 -151.5 27t-114 75
t-73.5 114.5t-30 145t16 166.5q32 139 114 253.5t202 182.5t252 68q136 0 229 -71.5t125.5 -192t-0.5 -265.5q-32 -138 -115.5 -253t-203.5 -182.5t-250 -67.5zM453 92q86 0 159 34.5t125 93.5t87.5 131.5t54.5 156.5q15 63 17.5 119t-9 106.5t-38 86.5t-75 57.5
t-115.5 21.5q-84 0 -156.5 -34.5t-124.5 -93.5t-87.5 -132t-54.5 -156q-21 -76 -18 -146.5t24 -125t75 -87t136 -32.5z" />
    <glyph glyph-name="odieresis" unicode="&#xf6;" horiz-adv-x="1116" 
d="M478 1229l43 184h160l-43 -184h-160zM810 1229l43 184h159l-43 -184h-159zM449 -20q-83 0 -151.5 27t-114 75t-73.5 114.5t-30 145t16 166.5q32 139 114 253.5t202 182.5t252 68q136 0 229 -71.5t125.5 -192t-0.5 -265.5q-32 -138 -115.5 -253t-203.5 -182.5t-250 -67.5z
M453 92q86 0 159 34.5t125 93.5t87.5 131.5t54.5 156.5q15 63 17.5 119t-9 106.5t-38 86.5t-75 57.5t-115.5 21.5q-84 0 -156.5 -34.5t-124.5 -93.5t-87.5 -132t-54.5 -156q-21 -76 -18 -146.5t24 -125t75 -87t136 -32.5z" />
    <glyph glyph-name="divide" unicode="&#xf7;" horiz-adv-x="920" 
d="M393 920v176h178v-176h-178zM182 580v96h600v-96h-600zM393 141v176h178v-176h-178z" />
    <glyph glyph-name="oslash" unicode="&#xf8;" horiz-adv-x="1116" 
d="M925 913q73 -73 98 -185t-5 -245q-32 -138 -115.5 -253t-203.5 -182.5t-250 -67.5q-125 0 -213 59l-30 -38h-84l63 80q-72 72 -95.5 183.5t6.5 243.5q32 139 114 253.5t202 182.5t252 68q121 0 209 -58l35 44h84zM236 483q-48 -201 25 -306l541 686q-56 36 -143 36
q-84 0 -156.5 -34.5t-124.5 -93.5t-87.5 -132t-54.5 -156zM879 508q48 208 -29 310l-542 -688q57 -38 145 -38q86 0 159 34.5t125 93.5t87.5 131.5t54.5 156.5z" />
    <glyph glyph-name="ugrave" unicode="&#xf9;" horiz-adv-x="1102" 
d="M627 1126l-180 287h172l149 -287h-141zM377 -23q-91 0 -152 35t-86.5 94t-30 138.5t18.5 167.5l135 587h125l-139 -610q-11 -46 -15.5 -86t-0.5 -82.5t19 -72.5t48 -49t82 -19q131 0 253.5 107t153.5 239l132 573h122l-229 -999h-123l43 176q-47 -74 -146 -136.5
t-210 -62.5z" />
    <glyph glyph-name="uacute" unicode="&#xfa;" horiz-adv-x="1102" 
d="M604 1124l283 289h180l-336 -289h-127zM377 -23q-91 0 -152 35t-86.5 94t-30 138.5t18.5 167.5l135 587h125l-139 -610q-11 -46 -15.5 -86t-0.5 -82.5t19 -72.5t48 -49t82 -19q131 0 253.5 107t153.5 239l132 573h122l-229 -999h-123l43 176q-47 -74 -146 -136.5
t-210 -62.5z" />
    <glyph glyph-name="ucircumflex" unicode="&#xfb;" horiz-adv-x="1102" 
d="M357 1098l413 356l250 -356h-149l-129 196l-226 -196h-159zM377 -23q-91 0 -152 35t-86.5 94t-30 138.5t18.5 167.5l135 587h125l-139 -610q-11 -46 -15.5 -86t-0.5 -82.5t19 -72.5t48 -49t82 -19q131 0 253.5 107t153.5 239l132 573h122l-229 -999h-123l43 176
q-47 -74 -146 -136.5t-210 -62.5z" />
    <glyph glyph-name="udieresis" unicode="&#xfc;" horiz-adv-x="1102" 
d="M474 1229l43 184h160l-43 -184h-160zM806 1229l43 184h159l-43 -184h-159zM377 -23q-91 0 -152 35t-86.5 94t-30 138.5t18.5 167.5l135 587h125l-139 -610q-11 -46 -15.5 -86t-0.5 -82.5t19 -72.5t48 -49t82 -19q131 0 253.5 107t153.5 239l132 573h122l-229 -999h-123
l43 176q-47 -74 -146 -136.5t-210 -62.5z" />
    <glyph glyph-name="yacute" unicode="&#xfd;" horiz-adv-x="961" 
d="M524 1124l283 289h180l-336 -289h-127zM41 -430l270 430l-151 999h137l104 -847l490 847h139l-856 -1429h-133z" />
    <glyph glyph-name="thorn" unicode="&#xfe;" horiz-adv-x="1116" 
d="M-43 -438l428 1851h123l-135 -575q67 87 161.5 134.5t204.5 47.5q92 0 158 -42t97 -114t37 -168.5t-21 -206.5q-33 -143 -101.5 -257t-170 -183t-216.5 -69q-119 0 -193.5 52t-103.5 142l-145 -612h-123zM483 82q104 0 191 61t140.5 155.5t80.5 211.5q21 81 19 154.5
t-21.5 130t-70 90t-126.5 33.5q-104 0 -191.5 -61.5t-142.5 -156.5t-81 -211q-22 -81 -20 -155t23 -130t72 -89t127 -33z" />
    <glyph glyph-name="ydieresis" unicode="&#xff;" horiz-adv-x="961" 
d="M394 1229l43 184h160l-43 -184h-160zM726 1229l43 184h159l-43 -184h-159zM41 -430l270 430l-151 999h137l104 -847l490 847h139l-856 -1429h-133z" />
    <glyph glyph-name="Amacron" unicode="&#x100;" horiz-adv-x="1296" 
d="M641 1606l28 121h537l-29 -121h-536zM-39 0l848 1413h104l193 -1413h-141l-37 307h-639l-178 -307h-150zM362 434h549l-90 780z" />
    <glyph glyph-name="amacron" unicode="&#x101;" horiz-adv-x="1118" 
d="M1030 1313l-29 -121h-536l28 121h537zM932 999h125l-230 -999h-125l29 134q-145 -154 -342 -154q-94 0 -162 42t-101 114t-40 169t20 207q33 143 103.5 257t174 182.5t222.5 68.5q214 0 289 -170zM829 512q19 80 19 148t-20 123.5t-69 87.5t-124 32q-152 0 -257.5 -119.5
t-146.5 -296.5q-21 -77 -19 -148t22 -125.5t69 -87t123 -32.5q105 0 190 60t136 151.5t77 206.5z" />
    <glyph glyph-name="Abreve" unicode="&#x102;" horiz-adv-x="1296" 
d="M907 1557q-136 0 -209 73.5t-43 196.5h123q-17 -74 21.5 -119t109.5 -45q77 0 143.5 47.5t83.5 116.5h123q-28 -130 -126 -200t-226 -70zM-39 0l848 1413h104l193 -1413h-141l-37 307h-639l-178 -307h-150zM362 434h549l-90 780z" />
    <glyph glyph-name="abreve" unicode="&#x103;" horiz-adv-x="1118" 
d="M731 1143q-136 0 -209 73.5t-43 196.5h123q-17 -74 21.5 -119t109.5 -45q77 0 143.5 47.5t83.5 116.5h123q-28 -130 -126 -200t-226 -70zM895 850l37 149h125l-230 -999h-125l29 134q-145 -154 -342 -154q-94 0 -162 42t-101 114t-40 169t20 207q33 143 103.5 257
t174 182.5t222.5 68.5q214 0 289 -170zM829 512q19 80 19 148t-20 123.5t-69 87.5t-124 32q-152 0 -257.5 -119.5t-146.5 -296.5q-21 -77 -19 -148t22 -125.5t69 -87t123 -32.5q105 0 190 60t136 151.5t77 206.5z" />
    <glyph glyph-name="Aogonek" unicode="&#x104;" horiz-adv-x="1296" 
d="M1106 0h-4l-13 -5q-13 -5 -36 -15.5t-50 -25t-56.5 -35.5t-55 -45t-45 -55.5t-27.5 -64.5q-10 -46 6 -73t49 -27q87 0 150 70l78 -68q-48 -53 -99.5 -80t-119.5 -27q-91 0 -137 60t-25 158q12 49 43 90.5t72 69t77.5 45t74.5 28.5h-23l-37 307h-639l-178 -307h-150
l848 1413h104zM362 434h549l-90 780z" />
    <glyph glyph-name="aogonek" unicode="&#x105;" horiz-adv-x="1116" 
d="M1057 999l-230 -999h-79l-13 -5q-13 -5 -36 -15.5t-50 -25t-56.5 -35.5t-55 -45t-45 -55.5t-27.5 -64.5q-10 -46 6 -73t49 -27q87 0 150 70l78 -68q-48 -53 -99.5 -80t-119.5 -27q-91 0 -137 60t-25 158q12 50 44 92.5t75 70t80 44.5t75 28l61 -1l29 133
q-145 -154 -342 -154q-94 0 -162 42t-101 114t-40 169t20 207q33 143 103.5 257t174 182.5t222.5 68.5q214 0 289 -170l37 149h125zM426 94q105 0 190 60t136 151.5t77 206.5q19 80 19 148t-20 123.5t-69 87.5t-124 32q-152 0 -257.5 -119.5t-146.5 -296.5q-21 -77 -19 -148
t22 -125.5t69 -87t123 -32.5z" />
    <glyph glyph-name="Cacute" unicode="&#x106;" horiz-adv-x="1423" 
d="M866 1538l283 289h180l-336 -289h-127zM649 -20q-127 0 -223.5 38.5t-154.5 106t-87 161t-28 202.5t30 231q35 149 101 276.5t161 227t227 156.5t286 57q206 0 337.5 -95.5t149.5 -279.5l-127 -39q-28 291 -369 291q-127 0 -236 -50t-187 -136t-131.5 -192.5
t-82.5 -229.5q-19 -82 -24 -156t3 -142.5t34.5 -123.5t69 -95.5t108 -63t149.5 -22.5q334 0 521 310l112 -68q-119 -178 -284 -271t-355 -93z" />
    <glyph glyph-name="cacute" unicode="&#x107;" horiz-adv-x="965" 
d="M573 1124l283 289h180l-336 -289h-127zM414 -20q-83 0 -147.5 28.5t-104 78t-60 116.5t-20 145t19.5 162q24 101 70.5 191t112.5 161t155 112.5t189 41.5q132 0 216.5 -70t110.5 -190l-125 -41q-1 93 -57.5 145.5t-146.5 52.5q-65 0 -123.5 -26t-102 -68.5t-79.5 -99
t-59.5 -115t-37.5 -119.5q-13 -58 -17 -112.5t4 -108.5t30 -93.5t65 -64t105 -24.5q99 0 187 58.5t132 152.5l96 -62q-72 -121 -179 -186t-234 -65z" />
    <glyph glyph-name="Cdotaccent" unicode="&#x10a;" horiz-adv-x="1423" 
d="M905 1643l43 184h152l-43 -184h-152zM649 -20q-127 0 -223.5 38.5t-154.5 106t-87 161t-28 202.5t30 231q35 149 101 276.5t161 227t227 156.5t286 57q206 0 337.5 -95.5t149.5 -279.5l-127 -39q-28 291 -369 291q-127 0 -236 -50t-187 -136t-131.5 -192.5t-82.5 -229.5
q-19 -82 -24 -156t3 -142.5t34.5 -123.5t69 -95.5t108 -63t149.5 -22.5q334 0 521 310l112 -68q-119 -178 -284 -271t-355 -93z" />
    <glyph glyph-name="cdotaccent" unicode="&#x10b;" horiz-adv-x="965" 
d="M612 1229l43 184h152l-43 -184h-152zM414 -20q-83 0 -147.5 28.5t-104 78t-60 116.5t-20 145t19.5 162q24 101 70.5 191t112.5 161t155 112.5t189 41.5q132 0 216.5 -70t110.5 -190l-125 -41q-1 93 -57.5 145.5t-146.5 52.5q-65 0 -123.5 -26t-102 -68.5t-79.5 -99
t-59.5 -115t-37.5 -119.5q-13 -58 -17 -112.5t4 -108.5t30 -93.5t65 -64t105 -24.5q99 0 187 58.5t132 152.5l96 -62q-72 -121 -179 -186t-234 -65z" />
    <glyph glyph-name="Ccaron" unicode="&#x10c;" horiz-adv-x="1423" 
d="M952 1495l-256 332h152l129 -192l225 192h158zM649 -20q-127 0 -223.5 38.5t-154.5 106t-87 161t-28 202.5t30 231q35 149 101 276.5t161 227t227 156.5t286 57q206 0 337.5 -95.5t149.5 -279.5l-127 -39q-28 291 -369 291q-127 0 -236 -50t-187 -136t-131.5 -192.5
t-82.5 -229.5q-19 -82 -24 -156t3 -142.5t34.5 -123.5t69 -95.5t108 -63t149.5 -22.5q334 0 521 310l112 -68q-119 -178 -284 -271t-355 -93z" />
    <glyph glyph-name="ccaron" unicode="&#x10d;" horiz-adv-x="965" 
d="M659 1081l-256 332h152l129 -192l225 192h158zM414 -20q-83 0 -147.5 28.5t-104 78t-60 116.5t-20 145t19.5 162q24 101 70.5 191t112.5 161t155 112.5t189 41.5q132 0 216.5 -70t110.5 -190l-125 -41q-1 93 -57.5 145.5t-146.5 52.5q-65 0 -123.5 -26t-102 -68.5
t-79.5 -99t-59.5 -115t-37.5 -119.5q-13 -58 -17 -112.5t4 -108.5t30 -93.5t65 -64t105 -24.5q99 0 187 58.5t132 152.5l96 -62q-72 -121 -179 -186t-234 -65z" />
    <glyph glyph-name="Dcaron" unicode="&#x10e;" horiz-adv-x="1405" 
d="M954 1495l-256 332h152l129 -192l225 192h158zM104 0l326 1413h342q341 0 483.5 -188.5t61.5 -540.5q-77 -330 -300.5 -507t-561.5 -177h-351zM268 123h181q127 0 243.5 37t216 109t173.5 187.5t108 262.5q64 277 -46.5 426t-391.5 149h-213z" />
    <glyph glyph-name="dcaron" unicode="&#x10f;" horiz-adv-x="1174" 
d="M389 -20q-94 0 -162 42t-101 114t-40 169t20 207q33 143 103.5 257t174 182.5t222.5 68.5q214 0 289 -170l133 563h125l-326 -1413h-125l35 141q-72 -77 -155 -119t-193 -42zM1174 1032l188 381h205l-291 -381h-102zM426 94q105 0 190 60t136 151.5t77 206.5
q19 80 19 148t-20 123.5t-69 87.5t-124 32q-152 0 -257.5 -119.5t-146.5 -296.5q-21 -77 -19 -148t22 -125.5t69 -87t123 -32.5z" />
    <glyph glyph-name="Dcroat" unicode="&#x110;" horiz-adv-x="1421" 
d="M121 0l151 664h-112l24 98h113l149 651h351q338 0 478 -188.5t58 -540.5q-76 -330 -297.5 -507t-556.5 -177h-358zM293 129h180q126 0 239.5 35.5t210 106t168 185t105.5 263.5q64 279 -41 423t-381 144h-213l-121 -524h381l-24 -98h-381z" />
    <glyph glyph-name="dcroat" unicode="&#x111;" horiz-adv-x="1118" 
d="M1323 1268l-25 -105h-203l-268 -1163h-125l29 134q-145 -154 -342 -154q-94 0 -162 42t-101 114t-40 169t20 207q33 143 103.5 257t174 182.5t222.5 68.5q214 0 289 -170l74 313h-306l25 105h306l34 145h125l-33 -145h203zM829 512q19 80 19 148t-20 123.5t-69 87.5
t-124 32q-152 0 -257.5 -119.5t-146.5 -296.5q-21 -77 -19 -148t22 -125.5t69 -87t123 -32.5q105 0 190 60t136 151.5t77 206.5z" />
    <glyph glyph-name="Emacron" unicode="&#x112;" horiz-adv-x="1235" 
d="M668 1606l28 121h537l-29 -121h-536zM104 0l326 1413h909l-26 -113h-774l-123 -538h661l-26 -109h-662l-123 -532h774l-26 -121h-910z" />
    <glyph glyph-name="emacron" unicode="&#x113;" horiz-adv-x="1028" 
d="M402 1192l28 121h537l-29 -121h-536zM430 -12q-108 0 -185 40t-114 110t-46.5 164.5t17.5 203.5q23 101 69.5 191t112.5 161t155 112.5t188 41.5q94 0 161 -29.5t103.5 -79t51.5 -119.5t10 -146.5t-25 -164.5l-3 -7l-5 -15h-699q-21 -72 -16.5 -136t27.5 -113t74 -77.5
t124 -28.5q99 0 175.5 25t146.5 86l79 -74q-98 -78 -191.5 -111.5t-209.5 -33.5zM246 559h585q40 158 -11.5 248t-196.5 90q-141 0 -241 -97t-136 -241z" />
    <glyph glyph-name="Edotaccent" unicode="&#x116;" horiz-adv-x="1235" 
d="M864 1643l43 184h152l-43 -184h-152zM104 0l326 1413h909l-26 -113h-774l-123 -538h661l-26 -109h-662l-123 -532h774l-26 -121h-910z" />
    <glyph glyph-name="edotaccent" unicode="&#x117;" horiz-adv-x="1028" 
d="M598 1229l43 184h152l-43 -184h-152zM430 -12q-108 0 -185 40t-114 110t-46.5 164.5t17.5 203.5q23 101 69.5 191t112.5 161t155 112.5t188 41.5q94 0 161 -29.5t103.5 -79t51.5 -119.5t10 -146.5t-25 -164.5l-3 -7l-5 -15h-699q-21 -72 -16.5 -136t27.5 -113t74 -77.5
t124 -28.5q99 0 175.5 25t146.5 86l79 -74q-98 -78 -191.5 -111.5t-209.5 -33.5zM246 559h585q40 158 -11.5 248t-196.5 90q-141 0 -241 -97t-136 -241z" />
    <glyph glyph-name="Eogonek" unicode="&#x118;" horiz-adv-x="1235" 
d="M1313 1300h-774l-123 -538h661l-26 -109h-662l-123 -532h774l-26 -121h-6l-13 -5q-13 -5 -36 -15.5t-50 -25t-56.5 -35.5t-55 -45t-45 -55.5t-27.5 -64.5q-10 -46 6 -73t49 -27q87 0 150 70l78 -68q-48 -53 -99.5 -80t-119.5 -27q-91 0 -137 60t-25 158q12 49 43 90.5
t72 69t77.5 45t74.5 28.5h-790l326 1413h909z" />
    <glyph glyph-name="eogonek" unicode="&#x119;" horiz-adv-x="1028" 
d="M627 1012q94 0 161 -29.5t103.5 -79t51.5 -119.5t10 -146.5t-25 -164.5l-3 -7l-5 -15h-699q-21 -72 -16.5 -136t27.5 -113t74 -77.5t124 -28.5q99 0 175.5 25t146.5 86l79 -74q-125 -100 -255 -130q-164 -89 -191 -204q-10 -46 6 -73t49 -27q87 0 150 70l78 -68
q-48 -53 -99.5 -80t-119.5 -27q-91 0 -137 60t-25 158q26 107 139 176q-107 1 -183 41t-113 110t-46 164t18 203q23 101 69.5 191t112.5 161t155 112.5t188 41.5zM831 559q40 158 -11.5 248t-196.5 90q-141 0 -241 -97t-136 -241h585z" />
    <glyph glyph-name="Ecaron" unicode="&#x11a;" horiz-adv-x="1235" 
d="M911 1495l-256 332h152l129 -192l225 192h158zM104 0l326 1413h909l-26 -113h-774l-123 -538h661l-26 -109h-662l-123 -532h774l-26 -121h-910z" />
    <glyph glyph-name="ecaron" unicode="&#x11b;" horiz-adv-x="1028" 
d="M645 1081l-256 332h152l129 -192l225 192h158zM430 -12q-108 0 -185 40t-114 110t-46.5 164.5t17.5 203.5q23 101 69.5 191t112.5 161t155 112.5t188 41.5q94 0 161 -29.5t103.5 -79t51.5 -119.5t10 -146.5t-25 -164.5l-3 -7l-5 -15h-699q-21 -72 -16.5 -136t27.5 -113
t74 -77.5t124 -28.5q99 0 175.5 25t146.5 86l79 -74q-98 -78 -191.5 -111.5t-209.5 -33.5zM246 559h585q40 158 -11.5 248t-196.5 90q-141 0 -241 -97t-136 -241z" />
    <glyph glyph-name="Gbreve" unicode="&#x11e;" horiz-adv-x="1503" 
d="M1016 1557q-136 0 -209 73.5t-43 196.5h123q-17 -74 21.5 -119t109.5 -45q77 0 143.5 47.5t83.5 116.5h123q-28 -130 -126 -200t-226 -70zM649 -20q-127 0 -223.5 38.5t-154.5 106t-87 161t-28 202.5t30 231q34 149 101.5 277t163.5 227t227.5 156t282.5 57
q199 0 323 -97t164 -278l-131 -43q-73 287 -367 287q-127 0 -235.5 -48.5t-186 -133t-131 -190t-82.5 -228.5q-22 -98 -25.5 -185t15.5 -163t61 -130.5t115.5 -86t173.5 -31.5q130 0 248.5 56t210 170.5t127.5 268.5l-326 -6l25 104h449l-162 -702h-115l68 266
q-72 -119 -214.5 -202.5t-316.5 -83.5z" />
    <glyph glyph-name="gbreve" unicode="&#x11f;" horiz-adv-x="1120" 
d="M700 1143q-136 0 -209 73.5t-43 196.5h123q-17 -74 21.5 -119t109.5 -45q77 0 143.5 47.5t83.5 116.5h123q-28 -130 -126 -200t-226 -70zM825 -6q-46 -201 -174.5 -313.5t-322.5 -112.5q-125 0 -215 51t-129 148l108 61q58 -152 238 -152q141 0 239.5 92.5t132.5 237.5
l35 135q-147 -161 -340 -161q-98 0 -168 41.5t-103 113.5t-40.5 169t20.5 208q52 222 187.5 365t320.5 143q105 0 176 -46.5t105 -125.5l37 151h127zM426 88q78 0 147 35.5t118.5 96t84 134.5t53.5 158q19 80 19 149t-19 126t-67.5 89.5t-122.5 32.5q-79 0 -148 -34.5
t-119.5 -94.5t-86 -134t-54.5 -159q-19 -80 -18.5 -150t20.5 -126.5t69.5 -89.5t123.5 -33z" />
    <glyph glyph-name="Gdotaccent" unicode="&#x120;" horiz-adv-x="1503" 
d="M946 1643l43 184h152l-43 -184h-152zM649 -20q-127 0 -223.5 38.5t-154.5 106t-87 161t-28 202.5t30 231q34 149 101.5 277t163.5 227t227.5 156t282.5 57q199 0 323 -97t164 -278l-131 -43q-73 287 -367 287q-127 0 -235.5 -48.5t-186 -133t-131 -190t-82.5 -228.5
q-22 -98 -25.5 -185t15.5 -163t61 -130.5t115.5 -86t173.5 -31.5q130 0 248.5 56t210 170.5t127.5 268.5l-326 -6l25 104h449l-162 -702h-115l68 266q-72 -119 -214.5 -202.5t-316.5 -83.5z" />
    <glyph glyph-name="gdotaccent" unicode="&#x121;" horiz-adv-x="1120" 
d="M630 1229l43 184h152l-43 -184h-152zM825 -6q-46 -201 -174.5 -313.5t-322.5 -112.5q-125 0 -215 51t-129 148l108 61q58 -152 238 -152q141 0 239.5 92.5t132.5 237.5l35 135q-147 -161 -340 -161q-98 0 -168 41.5t-103 113.5t-40.5 169t20.5 208q52 222 187.5 365
t320.5 143q105 0 176 -46.5t105 -125.5l37 151h127zM426 88q78 0 147 35.5t118.5 96t84 134.5t53.5 158q19 80 19 149t-19 126t-67.5 89.5t-122.5 32.5q-79 0 -148 -34.5t-119.5 -94.5t-86 -134t-54.5 -159q-19 -80 -18.5 -150t20.5 -126.5t69.5 -89.5t123.5 -33z" />
    <glyph glyph-name="Gcommaaccent" unicode="&#x122;" horiz-adv-x="1503" 
d="M649 -20q-127 0 -223.5 38.5t-154.5 106t-87 161t-28 202.5t30 231q34 149 101.5 277t163.5 227t227.5 156t282.5 57q199 0 323 -97t164 -278l-131 -43q-73 287 -367 287q-127 0 -235.5 -48.5t-186 -133t-131 -190t-82.5 -228.5q-22 -98 -25.5 -185t15.5 -163t61 -130.5
t115.5 -86t173.5 -31.5q130 0 248.5 56t210 170.5t127.5 268.5l-326 -6l25 104h449l-162 -702h-115l68 266q-72 -119 -214.5 -202.5t-316.5 -83.5zM345 -442l196 329h205l-299 -329h-102z" />
    <glyph glyph-name="gcommaaccent" unicode="&#x123;" horiz-adv-x="1120" 
d="M923 1419l-196 -294h-205l299 294h102zM825 -6q-46 -201 -174.5 -313.5t-322.5 -112.5q-125 0 -215 51t-129 148l108 61q58 -152 238 -152q141 0 239.5 92.5t132.5 237.5l35 135q-147 -161 -340 -161q-98 0 -168 41.5t-103 113.5t-40.5 169t20.5 208q52 222 187.5 365
t320.5 143q105 0 176 -46.5t105 -125.5l37 151h127zM426 88q78 0 147 35.5t118.5 96t84 134.5t53.5 158q19 80 19 149t-19 126t-67.5 89.5t-122.5 32.5q-79 0 -148 -34.5t-119.5 -94.5t-86 -134t-54.5 -159q-19 -80 -18.5 -150t20.5 -126.5t69.5 -89.5t123.5 -33z" />
    <glyph glyph-name="Hbar" unicode="&#x126;" horiz-adv-x="1446" 
d="M1491 1153l-17 -76h-114l-248 -1077h-135l149 653h-737l-149 -653h-136l248 1077h-119l17 76h120l60 260h135l-60 -260h738l60 260h135l-60 -260h113zM1153 762l73 315h-738l-72 -315h737z" />
    <glyph glyph-name="hbar" unicode="&#x127;" horiz-adv-x="1108" 
d="M739 1016q86 0 145.5 -33t85 -88.5t31 -128t-15.5 -152.5l-141 -614h-127l139 604q65 293 -141 293q-137 0 -256 -106.5t-152 -249.5l-125 -541h-123l261 1132h-191l25 105h190l41 176h123l-41 -176h322l-25 -105h-322l-71 -303q66 85 167 136t201 51z" />
    <glyph glyph-name="Itilde" unicode="&#x128;" horiz-adv-x="573" 
d="M662 1571q-37 0 -66 16.5t-46.5 40t-32 47t-32.5 40t-40 16.5q-40 0 -69.5 -40.5t-43.5 -96.5h-88q26 112 77.5 176.5t123.5 64.5q42 0 73.5 -17t48.5 -41t31 -48t30.5 -41t37.5 -17q42 0 73 43.5t50 114.5h92q-58 -258 -219 -258zM104 0l326 1413h135l-325 -1413h-136z
" />
    <glyph glyph-name="itilde" unicode="&#x129;" horiz-adv-x="477" 
d="M520 1157q-37 0 -66 16.5t-46.5 40t-32 47t-32.5 40t-40 16.5q-40 0 -69.5 -40.5t-43.5 -96.5h-88q26 112 77.5 176.5t123.5 64.5q42 0 73.5 -17t48.5 -41t31 -48t30.5 -41t37.5 -17q42 0 73 43.5t50 114.5h92q-58 -258 -219 -258zM59 0l230 999h129l-230 -999h-129z" />
    <glyph glyph-name="Imacron" unicode="&#x12a;" horiz-adv-x="573" 
d="M275 1606l28 121h537l-29 -121h-536zM104 0l326 1413h135l-325 -1413h-136z" />
    <glyph glyph-name="imacron" unicode="&#x12b;" horiz-adv-x="477" 
d="M133 1192l28 121h537l-29 -121h-536zM59 0l230 999h129l-230 -999h-129z" />
    <glyph glyph-name="Iogonek" unicode="&#x12e;" horiz-adv-x="573" 
d="M565 1413l-325 -1413h-6l-13 -5q-13 -5 -36 -15.5t-50 -25t-56.5 -35.5t-55 -45t-45 -55.5t-27.5 -64.5q-10 -46 6 -73t49 -27q87 0 150 70l78 -68q-48 -53 -99.5 -80t-119.5 -27q-91 0 -137 60t-25 158q12 49 43 90.5t72 69t77.5 45t74.5 28.5h-16l326 1413h135z" />
    <glyph glyph-name="iogonek" unicode="&#x12f;" horiz-adv-x="477" 
d="M372 1413h152l-43 -184h-152zM59 0l230 999h129l-230 -999h-6l-13 -5q-13 -5 -36 -15.5t-50 -25t-56.5 -35.5t-55 -45t-45 -55.5t-27.5 -64.5q-10 -46 6 -73t49 -27q87 0 150 70l78 -68q-48 -53 -99.5 -80t-119.5 -27q-91 0 -137 60t-25 158q12 49 43 90.5t72 69t77.5 45
t74.5 28.5h-9z" />
    <glyph glyph-name="Idotaccent" unicode="&#x130;" horiz-adv-x="573" 
d="M471 1643l43 184h152l-43 -184h-152zM104 0l326 1413h135l-325 -1413h-136z" />
    <glyph glyph-name="dotlessi" unicode="&#x131;" horiz-adv-x="477" 
d="M59 0l230 999h129l-230 -999h-129z" />
    <glyph glyph-name="IJ" unicode="&#x132;" horiz-adv-x="1687" 
d="M104 0l326 1413h135l-325 -1413h-136zM960 -20q-125 0 -207 56.5t-111 148t-12 206.5l131 6q-12 -56 -4.5 -110t27.5 -96.5t66.5 -68.5t113.5 -26q89 0 157 31t112 88.5t71.5 121.5t46.5 148l189 815h-533l27 113h667l-213 -919q-56 -249 -184 -381.5t-344 -132.5z" />
    <glyph glyph-name="Kcommaaccent" unicode="&#x136;" horiz-adv-x="1440" 
d="M104 0l326 1413h135l-198 -852l1001 852h174l-655 -551l364 -862h-147l-313 780l-459 -385l-92 -395h-136zM257 -442l196 329h205l-299 -329h-102z" />
    <glyph glyph-name="kcommaaccent" unicode="&#x137;" horiz-adv-x="1026" 
d="M59 0l326 1413h127l-229 -983l594 569h157l-399 -362l237 -637h-145l-182 547l-289 -254l-70 -293h-127zM152 -442l196 329h205l-299 -329h-102z" />
    <glyph glyph-name="kgreenlandic" unicode="&#x138;" horiz-adv-x="1024" 
d="M59 0l230 999h125l-129 -550l589 550h158l-399 -362l237 -637h-147l-180 543l-291 -254l-68 -289h-125z" />
    <glyph glyph-name="Lacute" unicode="&#x139;" horiz-adv-x="1030" 
d="M458 1538l283 289h180l-336 -289h-127zM104 0l326 1413h135l-299 -1292h604l-26 -121h-740z" />
    <glyph glyph-name="lacute" unicode="&#x13a;" horiz-adv-x="504" 
d="M374 1538l283 289h180l-336 -289h-127zM213 -20q-120 0 -128 90q-4 38 19 139l279 1204h127l-293 -1266q-14 -65 39 -65q20 0 90 18l-12 -102q-52 -18 -121 -18z" />
    <glyph glyph-name="Lcommaaccent" unicode="&#x13b;" horiz-adv-x="1030" 
d="M104 0l326 1413h135l-299 -1292h604l-26 -121h-740zM93 -442l196 329h205l-299 -329h-102z" />
    <glyph glyph-name="lcommaaccent" unicode="&#x13c;" horiz-adv-x="504" 
d="M213 -20q-120 0 -128 90q-4 38 19 139l279 1204h127l-293 -1266q-14 -65 39 -65q20 0 90 18l-12 -102q-52 -18 -121 -18zM-87 -442l196 329h205l-299 -329h-102z" />
    <glyph glyph-name="Lcaron" unicode="&#x13d;" horiz-adv-x="1040" 
d="M104 0l326 1413h135l-299 -1292h604l-26 -121h-740zM705 1032l188 381h205l-291 -381h-102z" />
    <glyph glyph-name="lcaron" unicode="&#x13e;" horiz-adv-x="545" 
d="M213 -20q-120 0 -128 90q-4 38 19 139l279 1204h127l-293 -1266v5q-7 -10 -7 -35q2 -28 23 -29q53 0 113 12l-12 -102q-52 -18 -121 -18zM545 1032l188 381h205l-291 -381h-102z" />
    <glyph glyph-name="Lslash" unicode="&#x141;" horiz-adv-x="1079" 
d="M311 121h604l-26 -121h-740l111 482l-219 -140l37 137l214 143l183 791h135l-159 -685l430 286l-43 -162l-420 -269z" />
    <glyph glyph-name="lslash" unicode="&#x142;" horiz-adv-x="504" 
d="M334 650l-117 -503q-14 -65 39 -65q20 0 90 18l-12 -102q-52 -18 -121 -18q-120 0 -128 90q-4 38 19 139l63 270l-187 -192l55 178l169 174l179 774h127l-139 -602l199 205l-55 -179z" />
    <glyph glyph-name="Nacute" unicode="&#x143;" horiz-adv-x="1409" 
d="M849 1538l283 289h180l-336 -289h-127zM104 0l326 1413h213l324 -1288l299 1288h135l-326 -1413h-217l-317 1290l-299 -1290h-138z" />
    <glyph glyph-name="nacute" unicode="&#x144;" horiz-adv-x="1106" 
d="M591 1124l283 289h180l-336 -289h-127zM59 0l230 999h125l-39 -161q64 80 159.5 129t192.5 49q91 0 152.5 -33t87.5 -89.5t31 -132t-17 -159.5l-139 -602h-125l139 604q65 291 -147 291q-129 0 -246.5 -99t-147.5 -229l-131 -567h-125z" />
    <glyph glyph-name="Ncommaaccent" unicode="&#x145;" horiz-adv-x="1409" 
d="M104 0l326 1413h213l324 -1288l299 1288h135l-326 -1413h-217l-317 1290l-299 -1290h-138zM261 -442l196 329h205l-299 -329h-102z" />
    <glyph glyph-name="ncommaaccent" unicode="&#x146;" horiz-adv-x="1106" 
d="M59 0l230 999h125l-39 -161q64 80 159.5 129t192.5 49q91 0 152.5 -33t87.5 -89.5t31 -132t-17 -159.5l-139 -602h-125l139 604q65 291 -147 291q-129 0 -246.5 -99t-147.5 -229l-131 -567h-125zM99 -442l196 329h205l-299 -329h-102z" />
    <glyph glyph-name="Ncaron" unicode="&#x147;" horiz-adv-x="1409" 
d="M935 1495l-256 332h152l129 -192l225 192h158zM104 0l326 1413h213l324 -1288l299 1288h135l-326 -1413h-217l-317 1290l-299 -1290h-138z" />
    <glyph glyph-name="ncaron" unicode="&#x148;" horiz-adv-x="1106" 
d="M677 1081l-256 332h152l129 -192l225 192h158zM59 0l230 999h125l-39 -161q64 80 159.5 129t192.5 49q91 0 152.5 -33t87.5 -89.5t31 -132t-17 -159.5l-139 -602h-125l139 604q65 291 -147 291q-129 0 -246.5 -99t-147.5 -229l-131 -567h-125z" />
    <glyph glyph-name="Eng" unicode="&#x14a;" horiz-adv-x="1407" 
d="M649 -369l21 111q112 0 175.5 57t47.5 131l-352 1356l-299 -1286h-138l326 1413h213l324 -1286l299 1286h135l-328 -1419q-22 -103 -43 -153q-89 -210 -305 -210h-76z" />
    <glyph glyph-name="eng" unicode="&#x14b;" horiz-adv-x="1108" 
d="M426 -369l27 111h45q43 0 78 15.5t55 37t35.5 50.5t21.5 49t10 40l156 670q13 59 15.5 104.5t-8.5 89t-47.5 67.5t-98.5 24q-131 0 -249 -96t-147 -226l-131 -567h-129l230 999h129l-39 -159q64 79 159 127.5t191 48.5q74 0 128.5 -22.5t85 -60.5t45 -91.5t12.5 -113
t-17 -126.5l-162 -696q-7 -32 -15.5 -58t-24 -60.5t-39 -60t-55 -48.5t-77.5 -35.5t-102 -12.5h-82z" />
    <glyph glyph-name="Omacron" unicode="&#x14c;" horiz-adv-x="1511" 
d="M744 1606l28 121h537l-29 -121h-536zM645 -20q-125 0 -220 38.5t-153 106.5t-87.5 161t-29 202.5t28.5 230.5q34 148 101 275.5t163 226.5t228 156t282 57q126 0 222.5 -38.5t154.5 -106.5t88 -161.5t29 -203t-29 -230.5q-27 -118 -75 -223t-118 -195.5t-156 -156
t-196.5 -102.5t-232.5 -37zM651 106q105 0 199 33.5t166 90.5t130.5 136t97 167t61.5 186q21 94 23.5 178.5t-18 160t-64 130.5t-119 87t-177.5 32q-127 0 -237.5 -50.5t-190 -137.5t-134 -194.5t-83.5 -230.5q-21 -94 -23.5 -178.5t17.5 -160t62.5 -130.5t116 -87
t173.5 -32z" />
    <glyph glyph-name="omacron" unicode="&#x14d;" horiz-adv-x="1116" 
d="M451 1192l28 121h537l-29 -121h-536zM449 -20q-83 0 -151.5 27t-114 75t-73.5 114.5t-30 145t16 166.5q32 139 114 253.5t202 182.5t252 68q136 0 229 -71.5t125.5 -192t-0.5 -265.5q-32 -138 -115.5 -253t-203.5 -182.5t-250 -67.5zM453 92q86 0 159 34.5t125 93.5
t87.5 131.5t54.5 156.5q15 63 17.5 119t-9 106.5t-38 86.5t-75 57.5t-115.5 21.5q-84 0 -156.5 -34.5t-124.5 -93.5t-87.5 -132t-54.5 -156q-21 -76 -18 -146.5t24 -125t75 -87t136 -32.5z" />
    <glyph glyph-name="Ohungarumlaut" unicode="&#x150;" horiz-adv-x="1511" 
d="M742 1542l281 285h184l-338 -285h-127zM1068 1542l280 285h181l-334 -285h-127zM645 -20q-125 0 -220 38.5t-153 106.5t-87.5 161t-29 202.5t28.5 230.5q34 148 101 275.5t163 226.5t228 156t282 57q126 0 222.5 -38.5t154.5 -106.5t88 -161.5t29 -203t-29 -230.5
q-27 -118 -75 -223t-118 -195.5t-156 -156t-196.5 -102.5t-232.5 -37zM651 106q105 0 199 33.5t166 90.5t130.5 136t97 167t61.5 186q21 94 23.5 178.5t-18 160t-64 130.5t-119 87t-177.5 32q-127 0 -237.5 -50.5t-190 -137.5t-134 -194.5t-83.5 -230.5
q-21 -94 -23.5 -178.5t17.5 -160t62.5 -130.5t116 -87t173.5 -32z" />
    <glyph glyph-name="ohungarumlaut" unicode="&#x151;" horiz-adv-x="1116" 
d="M449 1128l281 285h184l-338 -285h-127zM775 1128l280 285h181l-334 -285h-127zM449 -20q-83 0 -151.5 27t-114 75t-73.5 114.5t-30 145t16 166.5q32 139 114 253.5t202 182.5t252 68q136 0 229 -71.5t125.5 -192t-0.5 -265.5q-32 -138 -115.5 -253t-203.5 -182.5
t-250 -67.5zM453 92q86 0 159 34.5t125 93.5t87.5 131.5t54.5 156.5q15 63 17.5 119t-9 106.5t-38 86.5t-75 57.5t-115.5 21.5q-84 0 -156.5 -34.5t-124.5 -93.5t-87.5 -132t-54.5 -156q-21 -76 -18 -146.5t24 -125t75 -87t136 -32.5z" />
    <glyph glyph-name="OE" unicode="&#x152;" horiz-adv-x="2238" 
d="M651 -20q-127 0 -223.5 38.5t-155 106.5t-88.5 161.5t-29 202t29 230.5q34 148 100.5 275t163 226.5t230 156.5t287.5 57q183 0 288 -80.5t131 -229.5l70 289h889l-27 -113h-753l-123 -538h661l-26 -109h-662l-123 -532h754l-27 -121h-889l66 276q-186 -296 -543 -296z
M653 100q128 0 238.5 51t188.5 139t132 196.5t82 232.5q22 95 25 180t-16 161.5t-60.5 132t-115 88t-173.5 32.5q-104 0 -197 -34t-163 -92.5t-127 -138.5t-94.5 -168.5t-59.5 -185.5q-21 -94 -24.5 -178.5t15 -161.5t59.5 -132.5t115 -88.5t175 -33z" />
    <glyph glyph-name="oe" unicode="&#x153;" horiz-adv-x="1784" 
d="M446 -20q-103 0 -182.5 41.5t-123 113.5t-57.5 168t13 205q49 212 209 358t357 146q131 0 215 -59.5t114 -161.5q153 221 395 221q95 0 163 -32.5t103.5 -86t50 -123.5t8.5 -142t-28 -145q1 4 0 -2q-1 -2 -3 -10l-5 -20h-696q-21 -72 -17 -138t26 -116t73 -79.5
t125 -29.5q97 0 170.5 24t144.5 87l74 -70q-93 -81 -182.5 -111t-204.5 -30q-258 0 -320 219q-78 -108 -185.5 -167.5t-236.5 -59.5zM1001 559h592q40 159 -12 251.5t-197 92.5q-144 0 -245 -98.5t-138 -245.5zM455 100q85 0 157.5 33t124.5 91t87.5 129.5t54.5 154.5
q20 75 16.5 144.5t-24.5 123t-76 85.5t-138 32q-163 0 -273 -117.5t-151 -292.5q-20 -74 -16 -143.5t25.5 -122.5t76 -85t136.5 -32z" />
    <glyph glyph-name="Racute" unicode="&#x154;" horiz-adv-x="1206" 
d="M755 1538l283 289h180l-336 -289h-127zM102 -2l328 1413h385q189 0 288 -109.5t58 -289.5q-32 -140 -135.5 -235t-249.5 -120l221 -659h-145l-205 641h-260l-149 -641h-136zM418 770h276q125 6 219.5 75.5t122.5 192.5q27 122 -38 188t-197 66h-262z" />
    <glyph glyph-name="racute" unicode="&#x155;" horiz-adv-x="788" 
d="M448 1124l283 289h180l-336 -289h-127zM59 0l230 999h131l-41 -176q59 92 147.5 141.5t175.5 49.5q46 0 90.5 -12.5t69.5 -32.5l-55 -113q-59 37 -125 37q-68 0 -132.5 -37t-113.5 -98t-85 -136t-54 -153l-109 -469h-129z" />
    <glyph glyph-name="Rcommaaccent" unicode="&#x156;" horiz-adv-x="1206" 
d="M102 -2l328 1413h385q189 0 288 -109.5t58 -289.5q-32 -140 -135.5 -235t-249.5 -120l221 -659h-145l-205 641h-260l-149 -641h-136zM418 770h276q125 6 219.5 75.5t122.5 192.5q27 122 -38 188t-197 66h-262zM246 -442l196 329h205l-299 -329h-102z" />
    <glyph glyph-name="rcommaaccent" unicode="&#x157;" horiz-adv-x="788" 
d="M59 0l230 999h131l-41 -176q59 92 147.5 141.5t175.5 49.5q46 0 90.5 -12.5t69.5 -32.5l-55 -113q-59 37 -125 37q-68 0 -132.5 -37t-113.5 -98t-85 -136t-54 -153l-109 -469h-129zM-204 -442l196 329h205l-299 -329h-102z" />
    <glyph glyph-name="Rcaron" unicode="&#x158;" horiz-adv-x="1206" 
d="M841 1495l-256 332h152l129 -192l225 192h158zM102 -2l328 1413h385q189 0 288 -109.5t58 -289.5q-32 -140 -135.5 -235t-249.5 -120l221 -659h-145l-205 641h-260l-149 -641h-136zM418 770h276q125 6 219.5 75.5t122.5 192.5q27 122 -38 188t-197 66h-262z" />
    <glyph glyph-name="rcaron" unicode="&#x159;" horiz-adv-x="788" 
d="M534 1081l-256 332h152l129 -192l225 192h158zM59 0l230 999h131l-41 -176q59 92 147.5 141.5t175.5 49.5q46 0 90.5 -12.5t69.5 -32.5l-55 -113q-59 37 -125 37q-68 0 -132.5 -37t-113.5 -98t-85 -136t-54 -153l-109 -469h-129z" />
    <glyph glyph-name="Sacute" unicode="&#x15a;" horiz-adv-x="1106" 
d="M694 1538l283 289h180l-336 -289h-127zM475 -16q-176 0 -296 99t-120 275l129 27q0 -133 74 -207t217 -74q163 0 263 88.5t100 215.5q0 51 -18 92t-48.5 70.5t-70.5 54.5t-83.5 46.5t-87.5 43.5t-84 50t-70.5 61.5t-48.5 81.5t-18 106q0 112 61 208.5t166 154t228 57.5
q122 0 209.5 -57.5t124.5 -162.5l-105 -55q-22 77 -86 118.5t-147 41.5q-125 0 -222.5 -82.5t-97.5 -200.5q0 -53 22.5 -96t60 -70.5t85 -55t97 -49t97 -52.5t85 -66t60 -90t22.5 -123q0 -186 -144.5 -318t-353.5 -132z" />
    <glyph glyph-name="sacute" unicode="&#x15b;" horiz-adv-x="864" 
d="M483 1124l283 289h180l-336 -289h-127zM358 -20q-135 0 -227.5 73.5t-105.5 171.5l118 47q7 -79 73.5 -127.5t156.5 -48.5q104 0 171.5 61.5t67.5 145.5q0 48 -25 80.5t-65 50t-88 31.5t-96 31t-88 42t-65 72t-25 113q0 93 46.5 160t120.5 99t165 32q122 0 202.5 -57.5
t108.5 -137.5l-107 -47q-20 61 -74 96t-137 35q-92 0 -151.5 -44.5t-59.5 -133.5q0 -47 25.5 -78.5t66.5 -49t90 -31t98.5 -31.5t90.5 -43.5t66.5 -72.5t25.5 -114q0 -126 -111.5 -225.5t-267.5 -99.5z" />
    <glyph glyph-name="Scedilla" unicode="&#x15e;" horiz-adv-x="1106" 
d="M764 1319q-125 0 -222.5 -82.5t-97.5 -200.5q0 -53 22.5 -96t60 -70.5t85 -55t97 -49t97 -52.5t85 -66t60 -90t22.5 -123q0 -183 -141.5 -314.5t-347.5 -135.5l-89 -105q90 -1 128 -56t20 -132q-19 -75 -84.5 -133t-155.5 -58q-65 0 -108 38t-52 91l99 37q-3 -30 15 -51
t52 -21q49 0 88.5 33.5t51.5 79.5q10 47 -26.5 82t-127.5 35h-41l122 169q-141 26 -229 120.5t-88 244.5l129 27q0 -133 74 -207t217 -74q163 0 263 88.5t100 215.5q0 51 -18 92t-48.5 70.5t-70.5 54.5t-83.5 46.5t-87.5 43.5t-84 50t-70.5 61.5t-48.5 81.5t-18 106
q0 112 61 208.5t166 154t228 57.5q122 0 209.5 -57.5t124.5 -162.5l-105 -55q-22 77 -86 118.5t-147 41.5z" />
    <glyph glyph-name="scedilla" unicode="&#x15f;" horiz-adv-x="864" 
d="M274 725q0 -47 25.5 -78.5t66.5 -49t90 -31t98.5 -31.5t90.5 -43.5t66.5 -72.5t25.5 -114q0 -117 -98 -213t-240 -110l-88 -103q90 -1 128 -56t20 -132q-19 -75 -84.5 -133t-155.5 -58q-65 0 -108 38t-52 91l99 37q-3 -30 15 -51t52 -21q49 0 88.5 33.5t51.5 79.5
q10 47 -26.5 82t-127.5 35h-41l117 162q-108 19 -179.5 87t-82.5 152l118 47q7 -79 73.5 -127.5t156.5 -48.5q104 0 171.5 61.5t67.5 145.5q0 48 -25 80.5t-65 50t-88 31.5t-96 31t-88 42t-65 72t-25 113q0 93 46.5 160t120.5 99t165 32q122 0 202.5 -57.5t108.5 -137.5
l-107 -47q-20 61 -74 96t-137 35q-92 0 -151.5 -44.5t-59.5 -133.5z" />
    <glyph glyph-name="Scaron" unicode="&#x160;" horiz-adv-x="1106" 
d="M780 1495l-256 332h152l129 -192l225 192h158zM475 -16q-176 0 -296 99t-120 275l129 27q0 -133 74 -207t217 -74q163 0 263 88.5t100 215.5q0 51 -18 92t-48.5 70.5t-70.5 54.5t-83.5 46.5t-87.5 43.5t-84 50t-70.5 61.5t-48.5 81.5t-18 106q0 112 61 208.5t166 154
t228 57.5q122 0 209.5 -57.5t124.5 -162.5l-105 -55q-22 77 -86 118.5t-147 41.5q-125 0 -222.5 -82.5t-97.5 -200.5q0 -53 22.5 -96t60 -70.5t85 -55t97 -49t97 -52.5t85 -66t60 -90t22.5 -123q0 -186 -144.5 -318t-353.5 -132z" />
    <glyph glyph-name="scaron" unicode="&#x161;" horiz-adv-x="864" 
d="M569 1081l-256 332h152l129 -192l225 192h158zM358 -20q-135 0 -227.5 73.5t-105.5 171.5l118 47q7 -79 73.5 -127.5t156.5 -48.5q104 0 171.5 61.5t67.5 145.5q0 48 -25 80.5t-65 50t-88 31.5t-96 31t-88 42t-65 72t-25 113q0 93 46.5 160t120.5 99t165 32
q122 0 202.5 -57.5t108.5 -137.5l-107 -47q-20 61 -74 96t-137 35q-92 0 -151.5 -44.5t-59.5 -133.5q0 -47 25.5 -78.5t66.5 -49t90 -31t98.5 -31.5t90.5 -43.5t66.5 -72.5t25.5 -114q0 -126 -111.5 -225.5t-267.5 -99.5z" />
    <glyph glyph-name="uni0162" unicode="&#x162;" horiz-adv-x="1247" 
d="M281 1413h1108l-25 -106h-485l-301 -1307h2l-103 -121q90 -1 128 -56t20 -132q-19 -75 -84.5 -133t-155.5 -58q-65 0 -108 38t-52 91l99 37q-3 -30 15 -51t52 -21q49 0 88.5 33.5t51.5 79.5q10 47 -26.5 82t-127.5 35h-41l127 176h-23l301 1307h-485z" />
    <glyph glyph-name="uni0163" unicode="&#x163;" horiz-adv-x="649" 
d="M424 897l-152 -653q-19 -82 4.5 -123t77.5 -41q43 0 103 24l-15 -108q-22 -9 -74 -14l-88 -103q90 -1 128 -56t20 -132q-19 -75 -84.5 -133t-155.5 -58q-65 0 -108 38t-52 91l99 37q-3 -30 15 -51t52 -21q49 0 88.5 33.5t51.5 79.5q10 47 -26.5 82t-127.5 35h-41l117 163
q-163 37 -106 281l145 629h-156l23 102h155l50 220l159 131l-80 -351h254l-22 -102h-254z" />
    <glyph glyph-name="Tcaron" unicode="&#x164;" horiz-adv-x="1247" 
d="M862 1495l-256 332h152l129 -192l225 192h158zM440 0l301 1307h-485l25 106h1108l-25 -106h-485l-301 -1307h-138z" />
    <glyph glyph-name="tcaron" unicode="&#x165;" horiz-adv-x="649" 
d="M598 1094l199 352h186l-299 -352h-86zM330 -20q-246 0 -180 288l145 629h-156l23 102h155l50 220l159 131l-80 -351h254l-22 -102h-254l-152 -653q-18 -85 -2 -120.5t68 -35.5q35 0 64.5 4t41.5 8l13 4l-19 -100q-49 -24 -108 -24z" />
    <glyph glyph-name="Tbar" unicode="&#x166;" horiz-adv-x="1247" 
d="M1364 1307h-485l-126 -549h253l-25 -105h-253l-150 -653h-138l150 653h-244l25 105h244l126 549h-485l25 106h1108z" />
    <glyph glyph-name="tbar" unicode="&#x167;" horiz-adv-x="649" 
d="M678 897h-254l-81 -346h294l-25 -105h-293l-47 -202q-19 -82 4.5 -123t77.5 -41q43 0 103 24l-15 -108q-40 -16 -120 -16q-239 0 -172 288l41 178h-214l25 105h213l80 346h-156l23 102h155l50 220l159 131l-80 -351h254z" />
    <glyph glyph-name="Utilde" unicode="&#x168;" horiz-adv-x="1346" 
d="M1053 1571q-37 0 -66 16.5t-46.5 40t-32 47t-32.5 40t-40 16.5q-40 0 -69.5 -40.5t-43.5 -96.5h-88q26 112 77.5 176.5t123.5 64.5q42 0 73.5 -17t48.5 -41t31 -48t30.5 -41t37.5 -17q42 0 73 43.5t50 114.5h92q-58 -258 -219 -258zM561 -20q-102 0 -178 30t-120 81
t-66 120.5t-21.5 145.5t19.5 159l206 897h136l-199 -860q-103 -447 229 -447q98 0 178 36t135.5 101t92.5 144.5t59 177.5l197 848h135l-207 -899q-25 -108 -74 -201.5t-121 -169.5t-175.5 -119.5t-225.5 -43.5z" />
    <glyph glyph-name="utilde" unicode="&#x169;" horiz-adv-x="1102" 
d="M834 1157q-37 0 -66 16.5t-46.5 40t-32 47t-32.5 40t-40 16.5q-40 0 -69.5 -40.5t-43.5 -96.5h-88q26 112 77.5 176.5t123.5 64.5q42 0 73.5 -17t48.5 -41t31 -48t30.5 -41t37.5 -17q42 0 73 43.5t50 114.5h92q-58 -258 -219 -258zM377 -23q-91 0 -152 35t-86.5 94
t-30 138.5t18.5 167.5l135 587h125l-139 -610q-11 -46 -15.5 -86t-0.5 -82.5t19 -72.5t48 -49t82 -19q131 0 253.5 107t153.5 239l132 573h122l-229 -999h-123l43 176q-47 -74 -146 -136.5t-210 -62.5z" />
    <glyph glyph-name="Umacron" unicode="&#x16a;" horiz-adv-x="1346" 
d="M666 1606l28 121h537l-29 -121h-536zM561 -20q-102 0 -178 30t-120 81t-66 120.5t-21.5 145.5t19.5 159l206 897h136l-199 -860q-103 -447 229 -447q98 0 178 36t135.5 101t92.5 144.5t59 177.5l197 848h135l-207 -899q-25 -108 -74 -201.5t-121 -169.5t-175.5 -119.5
t-225.5 -43.5z" />
    <glyph glyph-name="umacron" unicode="&#x16b;" horiz-adv-x="1102" 
d="M447 1192l28 121h537l-29 -121h-536zM377 -23q-91 0 -152 35t-86.5 94t-30 138.5t18.5 167.5l135 587h125l-139 -610q-11 -46 -15.5 -86t-0.5 -82.5t19 -72.5t48 -49t82 -19q131 0 253.5 107t153.5 239l132 573h122l-229 -999h-123l43 176q-47 -74 -146 -136.5
t-210 -62.5z" />
    <glyph glyph-name="Uring" unicode="&#x16e;" horiz-adv-x="1346" 
d="M916 1495q-88 0 -134 61t-26 148q19 78 84.5 131.5t143.5 53.5q85 0 133 -61.5t26 -147.5q-16 -77 -83 -131t-144 -54zM924 1592q45 0 83.5 32.5t45.5 79.5q5 37 -17 61.5t-61 24.5q-49 0 -83.5 -30.5t-41.5 -79.5q-6 -40 15 -64t59 -24zM561 -20q-102 0 -178 30t-120 81
t-66 120.5t-21.5 145.5t19.5 159l206 897h136l-199 -860q-103 -447 229 -447q98 0 178 36t135.5 101t92.5 144.5t59 177.5l197 848h135l-207 -899q-25 -108 -74 -201.5t-121 -169.5t-175.5 -119.5t-225.5 -43.5z" />
    <glyph glyph-name="uring" unicode="&#x16f;" horiz-adv-x="1102" 
d="M697 1081q-88 0 -134 61t-26 148q19 78 84.5 131.5t143.5 53.5q85 0 133 -61.5t26 -147.5q-16 -77 -83 -131t-144 -54zM705 1178q45 0 83.5 32.5t45.5 79.5q5 37 -17 61.5t-61 24.5q-49 0 -83.5 -30.5t-41.5 -79.5q-6 -40 15 -64t59 -24zM377 -23q-91 0 -152 35t-86.5 94
t-30 138.5t18.5 167.5l135 587h125l-139 -610q-11 -46 -15.5 -86t-0.5 -82.5t19 -72.5t48 -49t82 -19q131 0 253.5 107t153.5 239l132 573h122l-229 -999h-123l43 176q-47 -74 -146 -136.5t-210 -62.5z" />
    <glyph glyph-name="Uhungarumlaut" unicode="&#x170;" horiz-adv-x="1346" 
d="M664 1542l281 285h184l-338 -285h-127zM990 1542l280 285h181l-334 -285h-127zM561 -20q-102 0 -178 30t-120 81t-66 120.5t-21.5 145.5t19.5 159l206 897h136l-199 -860q-103 -447 229 -447q98 0 178 36t135.5 101t92.5 144.5t59 177.5l197 848h135l-207 -899
q-25 -108 -74 -201.5t-121 -169.5t-175.5 -119.5t-225.5 -43.5z" />
    <glyph glyph-name="uhungarumlaut" unicode="&#x171;" horiz-adv-x="1102" 
d="M445 1128l281 285h184l-338 -285h-127zM771 1128l280 285h181l-334 -285h-127zM377 -23q-91 0 -152 35t-86.5 94t-30 138.5t18.5 167.5l135 587h125l-139 -610q-11 -46 -15.5 -86t-0.5 -82.5t19 -72.5t48 -49t82 -19q131 0 253.5 107t153.5 239l132 573h122l-229 -999
h-123l43 176q-47 -74 -146 -136.5t-210 -62.5z" />
    <glyph glyph-name="Uogonek" unicode="&#x172;" horiz-adv-x="1346" 
d="M1229 1413h135l-207 -899q-44 -189 -158 -330t-289 -186q-33 -14 -65.5 -32.5t-73.5 -47.5t-70.5 -68.5t-39.5 -83.5q-10 -46 6 -73t49 -27q87 0 150 70l78 -68q-48 -53 -99.5 -80t-119.5 -27q-91 0 -137 60t-25 158q31 127 185 201q-99 2 -172.5 33t-116 82t-63.5 120
t-20.5 144t19.5 157l206 897h136l-199 -860q-103 -447 229 -447q98 0 178 36t135.5 101t92.5 144.5t59 177.5z" />
    <glyph glyph-name="uogonek" unicode="&#x173;" horiz-adv-x="1102" 
d="M1042 999l-229 -999h-6l-13 -5q-13 -5 -36 -15.5t-50 -25t-56.5 -35.5t-55 -45t-45 -55.5t-27.5 -64.5q-10 -46 6 -73t49 -27q87 0 150 70l78 -68q-48 -53 -99.5 -80t-119.5 -27q-91 0 -137 60t-25 158q12 49 43 90.5t72 69t77.5 45t74.5 28.5h-3l43 176
q-47 -74 -146 -136.5t-210 -62.5q-91 0 -152 35t-86.5 94t-30 138.5t18.5 167.5l135 587h125l-139 -610q-11 -46 -15.5 -86t-0.5 -82.5t19 -72.5t48 -49t82 -19q131 0 253.5 107t153.5 239l132 573h122z" />
    <glyph glyph-name="Wcircumflex" unicode="&#x174;" horiz-adv-x="1966" 
d="M879 1481l413 356l250 -356h-149l-129 196l-226 -196h-159zM360 0l-63 1413h133l51 -1263l635 1181h111l88 -1181l635 1263h141l-719 -1413h-155l-87 1112l-614 -1112h-156z" />
    <glyph glyph-name="wcircumflex" unicode="&#x175;" horiz-adv-x="1407" 
d="M508 1098l413 356l250 -356h-149l-129 196l-226 -196h-159zM215 0l-41 999h131l17 -845l436 845h119l43 -843l407 843h135l-504 -999h-127l-43 850l-446 -850h-127z" />
    <glyph glyph-name="Ycircumflex" unicode="&#x176;" horiz-adv-x="1315" 
d="M555 1512l413 356l250 -356h-149l-129 196l-226 -196h-159zM477 0l129 553l-330 860h152l268 -719l607 719h157l-725 -860l-129 -553h-129z" />
    <glyph glyph-name="ycircumflex" unicode="&#x177;" horiz-adv-x="961" 
d="M277 1098l413 356l250 -356h-149l-129 196l-226 -196h-159zM41 -430l270 430l-151 999h137l104 -847l490 847h139l-856 -1429h-133z" />
    <glyph glyph-name="Ydieresis" unicode="&#x178;" horiz-adv-x="1315" 
d="M672 1643l43 184h160l-43 -184h-160zM1004 1643l43 184h159l-43 -184h-159zM477 0l129 553l-330 860h152l268 -719l607 719h157l-725 -860l-129 -553h-129z" />
    <glyph glyph-name="Zacute" unicode="&#x179;" horiz-adv-x="1278" 
d="M788 1538l283 289h180l-336 -289h-127zM-18 0l22 111l1186 1189h-864l26 113h1030l-24 -117l-1180 -1173h907l-28 -123h-1075z" />
    <glyph glyph-name="zacute" unicode="&#x17a;" horiz-adv-x="915" 
d="M964 1413l-336 -289h-127l283 289h180zM193 897l22 102h733l-22 -110l-791 -780h608l-24 -109h-762l20 100l805 797h-589z" />
    <glyph glyph-name="Zdotaccent" unicode="&#x17b;" horiz-adv-x="1278" 
d="M827 1643l43 184h152l-43 -184h-152zM-18 0l22 111l1186 1189h-864l26 113h1030l-24 -117l-1180 -1173h907l-28 -123h-1075z" />
    <glyph glyph-name="zdotaccent" unicode="&#x17c;" horiz-adv-x="915" 
d="M735 1413l-43 -184h-152l43 184h152zM948 999l-22 -110l-791 -780h608l-24 -109h-762l20 100l805 797h-589l22 102h733z" />
    <glyph glyph-name="Zcaron" unicode="&#x17d;" horiz-adv-x="1278" 
d="M874 1495l-256 332h152l129 -192l225 192h158zM-18 0l22 111l1186 1189h-864l26 113h1030l-24 -117l-1180 -1173h907l-28 -123h-1075z" />
    <glyph glyph-name="zcaron" unicode="&#x17e;" horiz-adv-x="915" 
d="M995 1413l-408 -332l-256 332h152l129 -192l225 192h158zM193 897l22 102h733l-22 -110l-791 -780h608l-24 -109h-762l20 100l805 797h-589z" />
    <glyph glyph-name="florin" unicode="&#x192;" horiz-adv-x="1049" 
d="M-86 -457l16 117q344 0 420 332l205 893h-178l26 114h179l41 177q29 122 117.5 198t193.5 76q49 0 96.5 -19t79.5 -53l-88 -82q-34 37 -94 37q-62 0 -117.5 -46t-73.5 -124l-39 -164h306l-27 -114h-305l-209 -905q-50 -214 -196 -325.5t-353 -111.5z" />
    <glyph glyph-name="uni01C3" unicode="&#x1c3;" horiz-adv-x="483" 
d="M164 367l219 1069h152l-277 -1069h-94zM39 0l39 174h176l-39 -174h-176z" />
    <glyph glyph-name="uni01C4" unicode="&#x1c4;" horiz-adv-x="2663" 
d="M2259 1495l-256 332h152l129 -192l225 192h158zM104 0l326 1413h342q341 0 483.5 -188.5t61.5 -540.5q-77 -330 -300.5 -507t-561.5 -177h-351zM1367 0l22 111l1186 1189h-864l26 113h1030l-24 -117l-1180 -1173h907l-28 -123h-1075zM268 123h181q127 0 243.5 37t216 109
t173.5 187.5t108 262.5q64 277 -46.5 426t-391.5 149h-213z" />
    <glyph glyph-name="uni01C5" unicode="&#x1c5;" horiz-adv-x="2320" 
d="M772 1413q341 0 483.5 -188.5t61.5 -540.5q-77 -330 -300.5 -507t-561.5 -177h-351l326 1413h342zM2400 1413l-408 -332l-256 332h152l129 -192l225 192h158zM1190 719q64 277 -46.5 426t-391.5 149h-213l-271 -1171h181q127 0 243.5 37t216 109t173.5 187.5t108 262.5z
M1598 897l22 102h733l-22 -110l-791 -780h608l-24 -109h-762l20 100l805 797h-589z" />
    <glyph glyph-name="uni01C6" unicode="&#x1c6;" horiz-adv-x="2033" 
d="M1028 1413h125l-326 -1413h-125l29 134q-145 -154 -342 -154q-94 0 -162 42t-101 114t-40 169t20 207q33 143 103.5 257t174 182.5t222.5 68.5q214 0 289 -170zM2113 1413l-408 -332l-256 332h152l129 -192l225 192h158zM1311 897l22 102h733l-22 -110l-791 -780h608
l-24 -109h-762l20 100l805 797h-589zM829 512q19 80 19 148t-20 123.5t-69 87.5t-124 32q-152 0 -257.5 -119.5t-146.5 -296.5q-21 -77 -19 -148t22 -125.5t69 -87t123 -32.5q105 0 190 60t136 151.5t77 206.5z" />
    <glyph glyph-name="uni01C7" unicode="&#x1c7;" horiz-adv-x="2185" 
d="M104 0l326 1413h135l-299 -1292h604l-26 -121h-740zM1458 -20q-125 0 -207 56.5t-111 148t-12 206.5l131 6q-12 -56 -4.5 -110t27.5 -96.5t66.5 -68.5t113.5 -26q89 0 157 31t112 88.5t71.5 121.5t46.5 148l189 815h-533l27 113h667l-213 -919q-56 -249 -184 -381.5
t-344 -132.5z" />
    <glyph glyph-name="uni01C8" unicode="&#x1c8;" horiz-adv-x="1511" 
d="M1364 1239l43 180h153l-43 -180h-153zM104 0l326 1413h135l-299 -1292h604l-26 -121h-740zM885 -438q-64 0 -146 32l35 84q47 -14 113 -14q67 0 108 45.5t55 106.5l273 1183h129l-270 -1173q-61 -264 -297 -264z" />
    <glyph glyph-name="uni01C9" unicode="&#x1c9;" horiz-adv-x="985" 
d="M838 1239l43 180h153l-43 -180h-153zM213 -20q-120 0 -128 90q-4 38 19 139l279 1204h127l-293 -1266q-14 -65 39 -65q20 0 90 18l-12 -102q-52 -18 -121 -18zM359 -438q-64 0 -146 32l35 84q47 -14 113 -14q67 0 108 45.5t55 106.5l273 1183h129l-270 -1173
q-61 -264 -297 -264z" />
    <glyph glyph-name="uni01CA" unicode="&#x1ca;" horiz-adv-x="2523" 
d="M104 0l326 1413h213l324 -1288l299 1288h135l-326 -1413h-217l-317 1290l-299 -1290h-138zM1796 -20q-125 0 -207 56.5t-111 148t-12 206.5l131 6q-12 -56 -4.5 -110t27.5 -96.5t66.5 -68.5t113.5 -26q89 0 157 31t112 88.5t71.5 121.5t46.5 148l189 815h-533l27 113h667
l-213 -919q-56 -249 -184 -381.5t-344 -132.5z" />
    <glyph glyph-name="uni01CB" unicode="&#x1cb;" horiz-adv-x="1890" 
d="M1743 1239l43 180h153l-43 -180h-153zM104 0l326 1413h213l324 -1288l299 1288h135l-326 -1413h-217l-317 1290l-299 -1290h-138zM1264 -438q-64 0 -146 32l35 84q47 -14 113 -14q67 0 108 45.5t55 106.5l273 1183h129l-270 -1173q-61 -264 -297 -264z" />
    <glyph glyph-name="uni01CC" unicode="&#x1cc;" horiz-adv-x="1587" 
d="M1440 1239l43 180h153l-43 -180h-153zM59 0l230 999h125l-39 -161q64 80 159.5 129t192.5 49q91 0 152.5 -33t87.5 -89.5t31 -132t-17 -159.5l-139 -602h-125l139 604q65 291 -147 291q-129 0 -246.5 -99t-147.5 -229l-131 -567h-125zM961 -438q-64 0 -146 32l35 84
q47 -14 113 -14q67 0 108 45.5t55 106.5l273 1183h129l-270 -1173q-61 -264 -297 -264z" />
    <glyph glyph-name="uni01CD" unicode="&#x1cd;" horiz-adv-x="1296" 
d="M884 1495l-256 332h152l129 -192l225 192h158zM-39 0l848 1413h104l193 -1413h-141l-37 307h-639l-178 -307h-150zM362 434h549l-90 780z" />
    <glyph glyph-name="uni01CE" unicode="&#x1ce;" horiz-adv-x="1118" 
d="M1116 1413l-408 -332l-256 332h152l129 -192l225 192h158zM895 850l37 149h125l-230 -999h-125l29 134q-145 -154 -342 -154q-94 0 -162 42t-101 114t-40 169t20 207q33 143 103.5 257t174 182.5t222.5 68.5q214 0 289 -170zM829 512q19 80 19 148t-20 123.5t-69 87.5
t-124 32q-152 0 -257.5 -119.5t-146.5 -296.5q-21 -77 -19 -148t22 -125.5t69 -87t123 -32.5q105 0 190 60t136 151.5t77 206.5z" />
    <glyph glyph-name="uni01CF" unicode="&#x1cf;" horiz-adv-x="573" 
d="M518 1495l-256 332h152l129 -192l225 192h158zM104 0l326 1413h135l-325 -1413h-136z" />
    <glyph glyph-name="uni01D0" unicode="&#x1d0;" horiz-adv-x="477" 
d="M376 1081l-256 332h152l129 -192l225 192h158zM59 0l230 999h129l-230 -999h-129z" />
    <glyph glyph-name="uni01D1" unicode="&#x1d1;" horiz-adv-x="1511" 
d="M987 1495l-256 332h152l129 -192l225 192h158zM645 -20q-125 0 -220 38.5t-153 106.5t-87.5 161t-29 202.5t28.5 230.5q34 148 101 275.5t163 226.5t228 156t282 57q126 0 222.5 -38.5t154.5 -106.5t88 -161.5t29 -203t-29 -230.5q-27 -118 -75 -223t-118 -195.5
t-156 -156t-196.5 -102.5t-232.5 -37zM651 106q105 0 199 33.5t166 90.5t130.5 136t97 167t61.5 186q21 94 23.5 178.5t-18 160t-64 130.5t-119 87t-177.5 32q-127 0 -237.5 -50.5t-190 -137.5t-134 -194.5t-83.5 -230.5q-21 -94 -23.5 -178.5t17.5 -160t62.5 -130.5
t116 -87t173.5 -32z" />
    <glyph glyph-name="uni01D2" unicode="&#x1d2;" horiz-adv-x="1116" 
d="M694 1081l-256 332h152l129 -192l225 192h158zM449 -20q-83 0 -151.5 27t-114 75t-73.5 114.5t-30 145t16 166.5q32 139 114 253.5t202 182.5t252 68q136 0 229 -71.5t125.5 -192t-0.5 -265.5q-32 -138 -115.5 -253t-203.5 -182.5t-250 -67.5zM453 92q86 0 159 34.5
t125 93.5t87.5 131.5t54.5 156.5q15 63 17.5 119t-9 106.5t-38 86.5t-75 57.5t-115.5 21.5q-84 0 -156.5 -34.5t-124.5 -93.5t-87.5 -132t-54.5 -156q-21 -76 -18 -146.5t24 -125t75 -87t136 -32.5z" />
    <glyph glyph-name="uni01D3" unicode="&#x1d3;" horiz-adv-x="1346" 
d="M909 1495l-256 332h152l129 -192l225 192h158zM561 -20q-102 0 -178 30t-120 81t-66 120.5t-21.5 145.5t19.5 159l206 897h136l-199 -860q-103 -447 229 -447q98 0 178 36t135.5 101t92.5 144.5t59 177.5l197 848h135l-207 -899q-25 -108 -74 -201.5t-121 -169.5
t-175.5 -119.5t-225.5 -43.5z" />
    <glyph glyph-name="uni01D4" unicode="&#x1d4;" horiz-adv-x="1102" 
d="M690 1081l-256 332h152l129 -192l225 192h158zM377 -23q-91 0 -152 35t-86.5 94t-30 138.5t18.5 167.5l135 587h125l-139 -610q-11 -46 -15.5 -86t-0.5 -82.5t19 -72.5t48 -49t82 -19q131 0 253.5 107t153.5 239l132 573h122l-229 -999h-123l43 176q-47 -74 -146 -136.5
t-210 -62.5z" />
    <glyph glyph-name="uni01D5" unicode="&#x1d5;" horiz-adv-x="1346" 
d="M763 2020l28 121h537l-29 -121h-536zM693 1643l43 184h160l-43 -184h-160zM1025 1643l43 184h159l-43 -184h-159zM561 -20q-102 0 -178 30t-120 81t-66 120.5t-21.5 145.5t19.5 159l206 897h136l-199 -860q-103 -447 229 -447q98 0 178 36t135.5 101t92.5 144.5t59 177.5
l197 848h135l-207 -899q-25 -108 -74 -201.5t-121 -169.5t-175.5 -119.5t-225.5 -43.5z" />
    <glyph glyph-name="uni01D6" unicode="&#x1d6;" horiz-adv-x="1102" 
d="M544 1606l28 121h537l-29 -121h-536zM474 1229l43 184h160l-43 -184h-160zM806 1229l43 184h159l-43 -184h-159zM377 -23q-91 0 -152 35t-86.5 94t-30 138.5t18.5 167.5l135 587h125l-139 -610q-11 -46 -15.5 -86t-0.5 -82.5t19 -72.5t48 -49t82 -19q131 0 253.5 107
t153.5 239l132 573h122l-229 -999h-123l43 176q-47 -74 -146 -136.5t-210 -62.5z" />
    <glyph glyph-name="uni01D7" unicode="&#x1d7;" horiz-adv-x="1346" 
d="M920 1952l283 289h180l-336 -289h-127zM693 1643l43 184h160l-43 -184h-160zM1025 1643l43 184h159l-43 -184h-159zM561 -20q-102 0 -178 30t-120 81t-66 120.5t-21.5 145.5t19.5 159l206 897h136l-199 -860q-103 -447 229 -447q98 0 178 36t135.5 101t92.5 144.5
t59 177.5l197 848h135l-207 -899q-25 -108 -74 -201.5t-121 -169.5t-175.5 -119.5t-225.5 -43.5z" />
    <glyph glyph-name="uni01D8" unicode="&#x1d8;" horiz-adv-x="1102" 
d="M701 1538l283 289h180l-336 -289h-127zM474 1229l43 184h160l-43 -184h-160zM806 1229l43 184h159l-43 -184h-159zM377 -23q-91 0 -152 35t-86.5 94t-30 138.5t18.5 167.5l135 587h125l-139 -610q-11 -46 -15.5 -86t-0.5 -82.5t19 -72.5t48 -49t82 -19q131 0 253.5 107
t153.5 239l132 573h122l-229 -999h-123l43 176q-47 -74 -146 -136.5t-210 -62.5z" />
    <glyph glyph-name="uni01D9" unicode="&#x1d9;" horiz-adv-x="1346" 
d="M1006 1909l-256 332h152l129 -192l225 192h158zM693 1643l43 184h160l-43 -184h-160zM1025 1643l43 184h159l-43 -184h-159zM561 -20q-102 0 -178 30t-120 81t-66 120.5t-21.5 145.5t19.5 159l206 897h136l-199 -860q-103 -447 229 -447q98 0 178 36t135.5 101
t92.5 144.5t59 177.5l197 848h135l-207 -899q-25 -108 -74 -201.5t-121 -169.5t-175.5 -119.5t-225.5 -43.5z" />
    <glyph glyph-name="uni01DA" unicode="&#x1da;" horiz-adv-x="1102" 
d="M787 1495l-256 332h152l129 -192l225 192h158zM474 1229l43 184h160l-43 -184h-160zM806 1229l43 184h159l-43 -184h-159zM377 -23q-91 0 -152 35t-86.5 94t-30 138.5t18.5 167.5l135 587h125l-139 -610q-11 -46 -15.5 -86t-0.5 -82.5t19 -72.5t48 -49t82 -19
q131 0 253.5 107t153.5 239l132 573h122l-229 -999h-123l43 176q-47 -74 -146 -136.5t-210 -62.5z" />
    <glyph glyph-name="uni01DB" unicode="&#x1db;" horiz-adv-x="1346" 
d="M943 1954l-180 287h172l149 -287h-141zM693 1643l43 184h160l-43 -184h-160zM1025 1643l43 184h159l-43 -184h-159zM561 -20q-102 0 -178 30t-120 81t-66 120.5t-21.5 145.5t19.5 159l206 897h136l-199 -860q-103 -447 229 -447q98 0 178 36t135.5 101t92.5 144.5
t59 177.5l197 848h135l-207 -899q-25 -108 -74 -201.5t-121 -169.5t-175.5 -119.5t-225.5 -43.5z" />
    <glyph glyph-name="uni01DC" unicode="&#x1dc;" horiz-adv-x="1102" 
d="M724 1540l-180 287h172l149 -287h-141zM474 1229l43 184h160l-43 -184h-160zM806 1229l43 184h159l-43 -184h-159zM377 -23q-91 0 -152 35t-86.5 94t-30 138.5t18.5 167.5l135 587h125l-139 -610q-11 -46 -15.5 -86t-0.5 -82.5t19 -72.5t48 -49t82 -19q131 0 253.5 107
t153.5 239l132 573h122l-229 -999h-123l43 176q-47 -74 -146 -136.5t-210 -62.5z" />
    <glyph glyph-name="uni01DD" unicode="&#x1dd;" horiz-adv-x="1022" 
d="M397 -12q-94 0 -160.5 29.5t-102.5 79t-50 120t-8.5 148t26.5 167.5q2 7 7 17h698q38 165 -20.5 260.5t-192.5 95.5q-96 0 -173.5 -26t-150.5 -88l-75 73q97 81 190.5 114.5t206.5 33.5q89 0 157.5 -27t109.5 -74.5t64.5 -113t22 -142t-19.5 -161.5q-24 -102 -70 -192
t-111.5 -161t-155.5 -112t-192 -41zM401 102q143 0 243.5 97t135.5 239l-585 -12q-37 -147 14 -235.5t192 -88.5z" />
    <glyph glyph-name="uni01E3" unicode="&#x1e3;" horiz-adv-x="1688" 
d="M748 1208l24 111h526l-24 -111h-526zM305 -20q-134 0 -207.5 85t-42.5 220q33 145 140.5 213.5t273.5 68.5l330 6q81 345 -178 345q-90 0 -173.5 -46t-142.5 -112l-90 71q92 95 191.5 140t222.5 45q128 0 200.5 -52t88.5 -145q132 193 362 193q97 0 165.5 -29.5t105 -79
t50.5 -120.5t8.5 -148t-26.5 -168l-1 -5q-1 -6 -1 -11h-700q-39 -165 19.5 -261t193.5 -96q96 0 172.5 26.5t152.5 90.5l74 -76q-95 -80 -190 -113.5t-209 -33.5q-165 0 -246 84.5t-86 224.5q-172 -317 -457 -317zM907 561l586 12q38 155 -17 239.5t-192 84.5
q-142 0 -242 -97t-135 -239zM346 90q141 0 267.5 111t160.5 262l-305 -6q-98 0 -179 -53.5t-102 -145.5q-15 -69 38.5 -118.5t119.5 -49.5z" />
    <glyph glyph-name="uni01EB" unicode="&#x1eb;" horiz-adv-x="1116" 
d="M664 1012q136 0 229 -71.5t125.5 -192t-0.5 -265.5q-45 -194 -187 -335t-321 -164q-34 -15 -65.5 -33.5t-71.5 -47.5t-68.5 -67.5t-38.5 -81.5q-10 -46 6 -73t49 -27q87 0 150 70l78 -68q-48 -53 -99.5 -80t-119.5 -27q-91 0 -137 60t-25 158q20 79 81.5 132.5
t139.5 84.5q-179 23 -259.5 171t-33.5 353q32 139 114 253.5t202 182.5t252 68zM879 508q15 63 17.5 119t-9 106.5t-38 86.5t-75 57.5t-115.5 21.5q-84 0 -156.5 -34.5t-124.5 -93.5t-87.5 -132t-54.5 -156q-21 -76 -18 -146.5t24 -125t75 -87t136 -32.5q86 0 159 34.5
t125 93.5t87.5 131.5t54.5 156.5z" />
    <glyph glyph-name="uni01F1" unicode="&#x1f1;" horiz-adv-x="2663" 
d="M104 0l326 1413h342q341 0 483.5 -188.5t61.5 -540.5q-77 -330 -300.5 -507t-561.5 -177h-351zM1367 0l22 111l1186 1189h-864l26 113h1030l-24 -117l-1180 -1173h907l-28 -123h-1075zM268 123h181q127 0 243.5 37t216 109t173.5 187.5t108 262.5q64 277 -46.5 426
t-391.5 149h-213z" />
    <glyph glyph-name="uni01F2" unicode="&#x1f2;" horiz-adv-x="2320" 
d="M772 1413q341 0 483.5 -188.5t61.5 -540.5q-77 -330 -300.5 -507t-561.5 -177h-351l326 1413h342zM1190 719q64 277 -46.5 426t-391.5 149h-213l-271 -1171h181q127 0 243.5 37t216 109t173.5 187.5t108 262.5zM2353 999l-22 -110l-791 -780h608l-24 -109h-762l20 100
l805 797h-589l22 102h733z" />
    <glyph glyph-name="uni01F3" unicode="&#x1f3;" horiz-adv-x="2033" 
d="M1028 1413h125l-326 -1413h-125l29 134q-145 -154 -342 -154q-94 0 -162 42t-101 114t-40 169t20 207q33 143 103.5 257t174 182.5t222.5 68.5q214 0 289 -170zM2066 999l-22 -110l-791 -780h608l-24 -109h-762l20 100l805 797h-589l22 102h733zM829 512q19 80 19 148
t-20 123.5t-69 87.5t-124 32q-152 0 -257.5 -119.5t-146.5 -296.5q-21 -77 -19 -148t22 -125.5t69 -87t123 -32.5q105 0 190 60t136 151.5t77 206.5z" />
    <glyph glyph-name="Scommaaccent" unicode="&#x218;" horiz-adv-x="1106" 
d="M475 -16q-176 0 -296 99t-120 275l129 27q0 -133 74 -207t217 -74q163 0 263 88.5t100 215.5q0 51 -18 92t-48.5 70.5t-70.5 54.5t-83.5 46.5t-87.5 43.5t-84 50t-70.5 61.5t-48.5 81.5t-18 106q0 112 61 208.5t166 154t228 57.5q122 0 209.5 -57.5t124.5 -162.5
l-105 -55q-22 77 -86 118.5t-147 41.5q-125 0 -222.5 -82.5t-97.5 -200.5q0 -53 22.5 -96t60 -70.5t85 -55t97 -49t97 -52.5t85 -66t60 -90t22.5 -123q0 -186 -144.5 -318t-353.5 -132zM105 -442l196 329h205l-299 -329h-102z" />
    <glyph glyph-name="scommaaccent" unicode="&#x219;" horiz-adv-x="864" 
d="M358 -20q-135 0 -227.5 73.5t-105.5 171.5l118 47q7 -79 73.5 -127.5t156.5 -48.5q104 0 171.5 61.5t67.5 145.5q0 48 -25 80.5t-65 50t-88 31.5t-96 31t-88 42t-65 72t-25 113q0 93 46.5 160t120.5 99t165 32q122 0 202.5 -57.5t108.5 -137.5l-107 -47q-20 61 -74 96
t-137 35q-92 0 -151.5 -44.5t-59.5 -133.5q0 -47 25.5 -78.5t66.5 -49t90 -31t98.5 -31.5t90.5 -43.5t66.5 -72.5t25.5 -114q0 -126 -111.5 -225.5t-267.5 -99.5zM21 -442l196 329h205l-299 -329h-102z" />
    <glyph glyph-name="uni021A" unicode="&#x21a;" horiz-adv-x="1247" 
d="M440 0l301 1307h-485l25 106h1108l-25 -106h-485l-301 -1307h-138zM187 -442l196 329h205l-299 -329h-102z" />
    <glyph glyph-name="uni021B" unicode="&#x21b;" horiz-adv-x="649" 
d="M322 -20q-239 0 -172 288l145 629h-156l23 102h155l50 220l159 131l-80 -351h254l-22 -102h-254l-152 -653q-19 -82 4.5 -123t77.5 -41q43 0 103 24l-15 -108q-40 -16 -120 -16zM-10 -442l196 329h205l-299 -329h-102z" />
    <glyph glyph-name="uni0237" unicode="&#x237;" horiz-adv-x="496" 
d="M-133 -438q-70 0 -150 32l45 111q47 -14 105 -14q67 0 106 43t52 104l268 1161h143l-268 -1165q-65 -272 -301 -272z" />
    <glyph glyph-name="uni0250" unicode="&#x250;" horiz-adv-x="1044" 
d="M436 -20q-180 0 -255.5 109.5t-33.5 295.5l142 610h106l-41 -180q93 105 189 153t219 48q132 0 205 -85t41 -218q-33 -145 -140 -215t-272 -70l-332 -6q-37 -166 2.5 -248t182.5 -82q90 0 174.5 43t144.5 107l78 -80q-89 -95 -187 -138.5t-223 -43.5zM291 532l305 7
q101 0 183 52t104 146q19 89 -28.5 125.5t-135.5 36.5q-145 0 -270.5 -113t-157.5 -254z" />
    <glyph glyph-name="uni0254" unicode="&#x254;" horiz-adv-x="961" 
d="M338 -20q-134 0 -218.5 69t-111.5 191l127 41q3 -92 58 -145.5t145 -53.5q80 0 149.5 38.5t118.5 103t82 136.5t51 150q17 74 18.5 141.5t-15 128t-65 97t-124.5 36.5q-98 0 -185 -58.5t-132 -152.5l-97 62q72 124 178 188t236 64q84 0 148.5 -28t103.5 -77.5t59 -116.5
t19 -145t-21 -164q-32 -137 -100.5 -249t-179.5 -184t-244 -72z" />
    <glyph glyph-name="uni0258" unicode="&#x258;" horiz-adv-x="1022" 
d="M379 -12q-119 0 -201 36.5t-143 118.5l92 60q43 -62 105 -85.5t153 -23.5q143 0 253.5 101.5t147.5 267.5h-698q1 3 1.5 12t2.5 17q121 520 518 520q86 0 151.5 -28.5t105 -77.5t59.5 -116.5t19 -145.5t-21 -163q-24 -102 -71 -190.5t-115 -156.5t-160.5 -107t-198.5 -39
zM225 561l586 12q17 66 11.5 125t-27 103.5t-70.5 70t-119 25.5q-147 0 -248 -94t-133 -242z" />
    <glyph glyph-name="uni0259" unicode="&#x259;" horiz-adv-x="1022" 
d="M397 -12q-94 0 -160.5 29.5t-102.5 79t-50 120t-8.5 148t26.5 167.5q2 7 7 17h698q38 165 -20.5 260.5t-192.5 95.5q-96 0 -173.5 -26t-150.5 -88l-75 73q97 81 190.5 114.5t206.5 33.5q89 0 157.5 -27t109.5 -74.5t64.5 -113t22 -142t-19.5 -161.5q-24 -102 -70 -192
t-111.5 -161t-155.5 -112t-192 -41zM401 102q143 0 243.5 97t135.5 239l-585 -12q-37 -147 14 -235.5t192 -88.5z" />
    <glyph glyph-name="uni0261" unicode="&#x261;" horiz-adv-x="1120" 
d="M825 -6q-46 -201 -174.5 -313.5t-322.5 -112.5q-125 0 -215 51t-129 148l108 61q58 -152 238 -152q141 0 239.5 92.5t132.5 237.5l35 135q-147 -161 -340 -161q-98 0 -168 41.5t-103 113.5t-40.5 169t20.5 208q52 222 187.5 365t320.5 143q105 0 176 -46.5t105 -125.5
l37 151h127zM426 88q78 0 147 35.5t118.5 96t84 134.5t53.5 158q19 80 19 149t-19 126t-67.5 89.5t-122.5 32.5q-79 0 -148 -34.5t-119.5 -94.5t-86 -134t-54.5 -159q-19 -80 -18.5 -150t20.5 -126.5t69.5 -89.5t123.5 -33z" />
    <glyph glyph-name="circumflex" unicode="&#x2c6;" horiz-adv-x="784" 
d="M256 1098l413 356l250 -356h-149l-129 196l-226 -196h-159z" />
    <glyph glyph-name="caron" unicode="&#x2c7;" horiz-adv-x="786" 
d="M524 1081l-256 332h152l129 -192l225 192h158z" />
    <glyph glyph-name="uni02D0" unicode="&#x2d0;" horiz-adv-x="459" 
d="M254 666l-225 333l377 48zM53 -47l152 381l225 -334z" />
    <glyph glyph-name="uni02D1" unicode="&#x2d1;" horiz-adv-x="508" 
d="M279 279l-226 333l377 47z" />
    <glyph glyph-name="breve" unicode="&#x2d8;" horiz-adv-x="842" 
d="M578 1143q-136 0 -209 73.5t-43 196.5h123q-17 -74 21.5 -119t109.5 -45q77 0 143.5 47.5t83.5 116.5h123q-28 -130 -126 -200t-226 -70z" />
    <glyph glyph-name="dotaccent" unicode="&#x2d9;" horiz-adv-x="528" 
d="M352 1229l43 184h152l-43 -184h-152z" />
    <glyph glyph-name="ring" unicode="&#x2da;" horiz-adv-x="641" 
d="M463 1081q-88 0 -134 61t-26 148q19 78 84.5 131.5t143.5 53.5q85 0 133 -61.5t26 -147.5q-16 -77 -83 -131t-144 -54zM471 1178q45 0 83.5 32.5t45.5 79.5q5 37 -17 61.5t-61 24.5q-49 0 -83.5 -30.5t-41.5 -79.5q-6 -40 15 -64t59 -24z" />
    <glyph glyph-name="ogonek" unicode="&#x2db;" horiz-adv-x="602" 
d="M166 -451q-91 0 -137 60t-25 158q12 50 44 92.5t75 70t80 44.5t75 28l107 -2l-13 -5q-13 -5 -36 -15.5t-50 -25t-56.5 -35.5t-55 -45t-45 -55.5t-27.5 -64.5q-10 -46 6 -73t49 -27q87 0 150 70l78 -68q-48 -53 -99.5 -80t-119.5 -27z" />
    <glyph glyph-name="tilde" unicode="&#x2dc;" horiz-adv-x="1010" 
d="M801 1155q-37 0 -66 16.5t-46.5 40t-32 47t-32.5 40t-40 16.5q-40 0 -69.5 -40.5t-43.5 -96.5h-88q26 112 77.5 176.5t123.5 64.5q42 0 73.5 -17t48.5 -41t31 -48t30.5 -41t37.5 -17q42 0 73 43.5t50 114.5h92q-58 -258 -219 -258z" />
    <glyph glyph-name="hungarumlaut" unicode="&#x2dd;" horiz-adv-x="862" 
d="M219 1128l281 285h184l-338 -285h-127zM545 1128l280 285h181l-334 -285h-127z" />
    <glyph glyph-name="uni02F5" unicode="&#x2f5;" horiz-adv-x="1145" 
d="M494 729l-228 270h183l208 -270h-163zM883 729l-228 270h183l209 -270h-164z" />
    <glyph glyph-name="uni02F6" unicode="&#x2f6;" horiz-adv-x="1079" 
d="M240 729l211 270h180l-228 -270h-163zM621 729l210 270h181l-228 -270h-163z" />
    <glyph glyph-name="gravecomb" unicode="&#x300;" 
d="M-76 1126l-180 287h172l149 -287h-141z" />
    <glyph glyph-name="acutecomb" unicode="&#x301;" 
d="M-318 1124l283 289h180l-336 -289h-127z" />
    <glyph glyph-name="uni0302" unicode="&#x302;" 
d="M-587 1098l413 356l250 -356h-149l-129 196l-226 -196h-159z" />
    <glyph glyph-name="tildecomb" unicode="&#x303;" 
d="M-106 1155q-37 0 -66 16.5t-46.5 40t-32 47t-32.5 40t-40 16.5q-40 0 -69.5 -40.5t-43.5 -96.5h-88q26 112 77.5 176.5t123.5 64.5q42 0 73.5 -17t48.5 -41t31 -48t30.5 -41t37.5 -17q42 0 73 43.5t50 114.5h92q-58 -258 -219 -258z" />
    <glyph glyph-name="uni0304" unicode="&#x304;" 
d="M-547 1192l28 121h537l-29 -121h-536z" />
    <glyph glyph-name="uni0306" unicode="&#x306;" 
d="M-260 1143q-136 0 -209 73.5t-43 196.5h123q-17 -74 21.5 -119t109.5 -45q77 0 143.5 47.5t83.5 116.5h123q-28 -130 -126 -200t-226 -70z" />
    <glyph glyph-name="uni0307" unicode="&#x307;" 
d="M-172 1229l43 184h152l-43 -184h-152z" />
    <glyph glyph-name="uni0308" unicode="&#x308;" 
d="M-493 1229l43 184h160l-43 -184h-160zM-161 1229l43 184h159l-43 -184h-159z" />
    <glyph glyph-name="uni030A" unicode="&#x30a;" 
d="M-176 1081q-88 0 -134 61t-26 148q19 78 84.5 131.5t143.5 53.5q85 0 133 -61.5t26 -147.5q-16 -77 -83 -131t-144 -54zM-168 1178q45 0 83.5 32.5t45.5 79.5q5 37 -17 61.5t-61 24.5q-49 0 -83.5 -30.5t-41.5 -79.5q-6 -40 15 -64t59 -24z" />
    <glyph glyph-name="uni030B" unicode="&#x30b;" 
d="M-641 1128l281 285h184l-338 -285h-127zM-315 1128l280 285h181l-334 -285h-127z" />
    <glyph glyph-name="uni030C" unicode="&#x30c;" 
d="M-254 1081l-256 332h152l129 -192l225 192h158z" />
    <glyph glyph-name="uni030F" unicode="&#x30f;" 
d="M-422 1128l-180 285h194l150 -285h-164zM-101 1128l-178 285h195l149 -285h-166z" />
    <glyph glyph-name="uni0312" unicode="&#x312;" 
d="M129 1419l-196 -294h-205l299 294h102z" />
    <glyph glyph-name="uni031B" unicode="&#x31b;" 
d="M-285 999l215 414h205l-319 -414h-101z" />
    <glyph glyph-name="uni0326" unicode="&#x326;" 
d="M-618 -442l196 329h205l-299 -329h-102z" />
    <glyph glyph-name="uni0327" unicode="&#x327;" 
d="M-516 -500q-65 0 -108 38t-52 91l99 37q-3 -30 15 -51t52 -21q49 0 88.5 33.5t51.5 79.5q10 47 -26.5 82t-127.5 35h-41l127 176h117l-103 -121q90 -1 128 -56t20 -132q-19 -75 -84.5 -133t-155.5 -58z" />
    <glyph glyph-name="uni0328" unicode="&#x328;" 
d="M-493 -451q-91 0 -137 60t-25 158q12 50 44 92.5t75 70t80 44.5t75 28l107 -2l-13 -5q-13 -5 -36 -15.5t-50 -25t-56.5 -35.5t-55 -45t-45 -55.5t-27.5 -64.5q-10 -46 6 -73t49 -27q87 0 150 70l78 -68q-48 -53 -99.5 -80t-119.5 -27z" />
    <glyph glyph-name="pi" unicode="&#x3c0;" horiz-adv-x="991" 
d="M719 -20q-91 0 -135 70.5t-25 158.5l152 653h-295l-199 -862h-137l199 862h-82l30 137h734l-31 -137h-82l-154 -665q-25 -105 45 -105q29 0 66 23l20 -109q-51 -26 -106 -26z" />
    <glyph glyph-name="uni0483" unicode="&#x483;" 
d="M-682 1540l55 238h692l33 139h100l-51 -217h-700l-37 -160h-92z" />
    <glyph glyph-name="Wgrave" unicode="&#x1e80;" horiz-adv-x="1966" 
d="M1149 1509l-180 287h172l149 -287h-141zM360 0l-63 1413h133l51 -1263l635 1181h111l88 -1181l635 1263h141l-719 -1413h-155l-87 1112l-614 -1112h-156z" />
    <glyph glyph-name="wgrave" unicode="&#x1e81;" horiz-adv-x="1407" 
d="M778 1126l-180 287h172l149 -287h-141zM215 0l-41 999h131l17 -845l436 845h119l43 -843l407 843h135l-504 -999h-127l-43 850l-446 -850h-127z" />
    <glyph glyph-name="Wacute" unicode="&#x1e82;" horiz-adv-x="1966" 
d="M1126 1507l283 289h180l-336 -289h-127zM360 0l-63 1413h133l51 -1263l635 1181h111l88 -1181l635 1263h141l-719 -1413h-155l-87 1112l-614 -1112h-156z" />
    <glyph glyph-name="wacute" unicode="&#x1e83;" horiz-adv-x="1407" 
d="M755 1124l283 289h180l-336 -289h-127zM215 0l-41 999h131l17 -845l436 845h119l43 -843l407 843h135l-504 -999h-127l-43 850l-446 -850h-127z" />
    <glyph glyph-name="Wdieresis" unicode="&#x1e84;" horiz-adv-x="1966" 
d="M996 1612l43 184h160l-43 -184h-160zM1328 1612l43 184h159l-43 -184h-159zM360 0l-63 1413h133l51 -1263l635 1181h111l88 -1181l635 1263h141l-719 -1413h-155l-87 1112l-614 -1112h-156z" />
    <glyph glyph-name="wdieresis" unicode="&#x1e85;" horiz-adv-x="1407" 
d="M625 1229l43 184h160l-43 -184h-160zM957 1229l43 184h159l-43 -184h-159zM215 0l-41 999h131l17 -845l436 845h119l43 -843l407 843h135l-504 -999h-127l-43 850l-446 -850h-127z" />
    <glyph glyph-name="uni1EA4" unicode="&#x1ea4;" horiz-adv-x="1296" 
d="M894 1952l283 289h180l-336 -289h-127zM551 1512l413 356l250 -356h-149l-129 196l-226 -196h-159zM-39 0l848 1413h104l193 -1413h-141l-37 307h-639l-178 -307h-150zM362 434h549l-90 780z" />
    <glyph glyph-name="uni1EA5" unicode="&#x1ea5;" horiz-adv-x="1118" 
d="M1181 1827l-336 -289h-127l283 289h180zM760 1294l-226 -196h-159l413 356l250 -356h-149zM895 850l37 149h125l-230 -999h-125l29 134q-145 -154 -342 -154q-94 0 -162 42t-101 114t-40 169t20 207q33 143 103.5 257t174 182.5t222.5 68.5q214 0 289 -170zM829 512
q19 80 19 148t-20 123.5t-69 87.5t-124 32q-152 0 -257.5 -119.5t-146.5 -296.5q-21 -77 -19 -148t22 -125.5t69 -87t123 -32.5q105 0 190 60t136 151.5t77 206.5z" />
    <glyph glyph-name="uni1EA6" unicode="&#x1ea6;" horiz-adv-x="1296" 
d="M917 1954l-180 287h172l149 -287h-141zM551 1512l413 356l250 -356h-149l-129 196l-226 -196h-159zM-39 0l848 1413h104l193 -1413h-141l-37 307h-639l-178 -307h-150zM362 434h549l-90 780z" />
    <glyph glyph-name="uni1EA7" unicode="&#x1ea7;" horiz-adv-x="1118" 
d="M882 1540h-141l-180 287h172zM760 1294l-226 -196h-159l413 356l250 -356h-149zM932 999h125l-230 -999h-125l29 134q-145 -154 -342 -154q-94 0 -162 42t-101 114t-40 169t20 207q33 143 103.5 257t174 182.5t222.5 68.5q214 0 289 -170zM829 512q19 80 19 148
t-20 123.5t-69 87.5t-124 32q-152 0 -257.5 -119.5t-146.5 -296.5q-21 -77 -19 -148t22 -125.5t69 -87t123 -32.5q105 0 190 60t136 151.5t77 206.5z" />
    <glyph glyph-name="uni1EAA" unicode="&#x1eaa;" horiz-adv-x="1296" 
d="M1124 1985q-37 0 -66 16.5t-46.5 40t-32 47t-32.5 40t-40 16.5q-40 0 -69.5 -40.5t-43.5 -96.5h-88q26 112 77.5 176.5t123.5 64.5q42 0 73.5 -17t48.5 -41t31 -48t30.5 -41t37.5 -17q42 0 73 43.5t50 114.5h92q-58 -258 -219 -258zM551 1512l413 356l250 -356h-149
l-129 196l-226 -196h-159zM-39 0l848 1413h104l193 -1413h-141l-37 307h-639l-178 -307h-150zM362 434h549l-90 780z" />
    <glyph glyph-name="uni1EAB" unicode="&#x1eab;" horiz-adv-x="1118" 
d="M1075 1829h92q-58 -258 -219 -258q-37 0 -66 16.5t-46.5 40t-32 47t-32.5 40t-40 16.5q-40 0 -69.5 -40.5t-43.5 -96.5h-88q26 112 77.5 176.5t123.5 64.5q42 0 73.5 -17t48.5 -41t31 -48t30.5 -41t37.5 -17q42 0 73 43.5t50 114.5zM889 1098l-129 196l-226 -196h-159
l413 356l250 -356h-149zM895 850l37 149h125l-230 -999h-125l29 134q-145 -154 -342 -154q-94 0 -162 42t-101 114t-40 169t20 207q33 143 103.5 257t174 182.5t222.5 68.5q214 0 289 -170zM829 512q19 80 19 148t-20 123.5t-69 87.5t-124 32q-152 0 -257.5 -119.5
t-146.5 -296.5q-21 -77 -19 -148t22 -125.5t69 -87t123 -32.5q105 0 190 60t136 151.5t77 206.5z" />
    <glyph glyph-name="uni1EAE" unicode="&#x1eae;" horiz-adv-x="1296" 
d="M894 1952l283 289h180l-336 -289h-127zM907 1557q-136 0 -209 73.5t-43 196.5h123q-17 -74 21.5 -119t109.5 -45q77 0 143.5 47.5t83.5 116.5h123q-28 -130 -126 -200t-226 -70zM-39 0l848 1413h104l193 -1413h-141l-37 307h-639l-178 -307h-150zM362 434h549l-90 780z
" />
    <glyph glyph-name="uni1EAF" unicode="&#x1eaf;" horiz-adv-x="1118" 
d="M1181 1827l-336 -289h-127l283 289h180zM733 1249q77 0 143.5 47.5t83.5 116.5h123q-28 -130 -126 -200t-226 -70q-136 0 -209 73.5t-43 196.5h123q-17 -74 21.5 -119t109.5 -45zM895 850l37 149h125l-230 -999h-125l29 134q-145 -154 -342 -154q-94 0 -162 42t-101 114
t-40 169t20 207q33 143 103.5 257t174 182.5t222.5 68.5q214 0 289 -170zM829 512q19 80 19 148t-20 123.5t-69 87.5t-124 32q-152 0 -257.5 -119.5t-146.5 -296.5q-21 -77 -19 -148t22 -125.5t69 -87t123 -32.5q105 0 190 60t136 151.5t77 206.5z" />
    <glyph glyph-name="uni1EB0" unicode="&#x1eb0;" horiz-adv-x="1296" 
d="M917 1954l-180 287h172l149 -287h-141zM907 1557q-136 0 -209 73.5t-43 196.5h123q-17 -74 21.5 -119t109.5 -45q77 0 143.5 47.5t83.5 116.5h123q-28 -130 -126 -200t-226 -70zM-39 0l848 1413h104l193 -1413h-141l-37 307h-639l-178 -307h-150zM362 434h549l-90 780z
" />
    <glyph glyph-name="uni1EB1" unicode="&#x1eb1;" horiz-adv-x="1118" 
d="M882 1540h-141l-180 287h172zM731 1143q-136 0 -209 73.5t-43 196.5h123q-17 -74 21.5 -119t109.5 -45q77 0 143.5 47.5t83.5 116.5h123q-28 -130 -126 -200t-226 -70zM895 850l37 149h125l-230 -999h-125l29 134q-145 -154 -342 -154q-94 0 -162 42t-101 114t-40 169
t20 207q33 143 103.5 257t174 182.5t222.5 68.5q214 0 289 -170zM829 512q19 80 19 148t-20 123.5t-69 87.5t-124 32q-152 0 -257.5 -119.5t-146.5 -296.5q-21 -77 -19 -148t22 -125.5t69 -87t123 -32.5q105 0 190 60t136 151.5t77 206.5z" />
    <glyph glyph-name="uni1EB4" unicode="&#x1eb4;" horiz-adv-x="1296" 
d="M1124 1985q-37 0 -66 16.5t-46.5 40t-32 47t-32.5 40t-40 16.5q-40 0 -69.5 -40.5t-43.5 -96.5h-88q26 112 77.5 176.5t123.5 64.5q42 0 73.5 -17t48.5 -41t31 -48t30.5 -41t37.5 -17q42 0 73 43.5t50 114.5h92q-58 -258 -219 -258zM907 1557q-136 0 -209 73.5t-43 196.5
h123q-17 -74 21.5 -119t109.5 -45q77 0 143.5 47.5t83.5 116.5h123q-28 -130 -126 -200t-226 -70zM-39 0l848 1413h104l193 -1413h-141l-37 307h-639l-178 -307h-150zM362 434h549l-90 780z" />
    <glyph glyph-name="uni1EB5" unicode="&#x1eb5;" horiz-adv-x="1118" 
d="M731 1731q-40 0 -69.5 -40.5t-43.5 -96.5h-88q26 112 77.5 176.5t123.5 64.5q42 0 73.5 -17t48.5 -41t31 -48t30.5 -41t37.5 -17q42 0 73 43.5t50 114.5h92q-58 -258 -219 -258q-37 0 -66 16.5t-46.5 40t-32 47t-32.5 40t-40 16.5zM733 1249q77 0 143.5 47.5t83.5 116.5
h123q-28 -130 -126 -200t-226 -70q-136 0 -209 73.5t-43 196.5h123q-17 -74 21.5 -119t109.5 -45zM895 850l37 149h125l-230 -999h-125l29 134q-145 -154 -342 -154q-94 0 -162 42t-101 114t-40 169t20 207q33 143 103.5 257t174 182.5t222.5 68.5q214 0 289 -170zM829 512
q19 80 19 148t-20 123.5t-69 87.5t-124 32q-152 0 -257.5 -119.5t-146.5 -296.5q-21 -77 -19 -148t22 -125.5t69 -87t123 -32.5q105 0 190 60t136 151.5t77 206.5z" />
    <glyph glyph-name="uni1EBC" unicode="&#x1ebc;" horiz-adv-x="1235" 
d="M1055 1571q-37 0 -66 16.5t-46.5 40t-32 47t-32.5 40t-40 16.5q-40 0 -69.5 -40.5t-43.5 -96.5h-88q26 112 77.5 176.5t123.5 64.5q42 0 73.5 -17t48.5 -41t31 -48t30.5 -41t37.5 -17q42 0 73 43.5t50 114.5h92q-58 -258 -219 -258zM104 0l326 1413h909l-26 -113h-774
l-123 -538h661l-26 -109h-662l-123 -532h774l-26 -121h-910z" />
    <glyph glyph-name="uni1EBD" unicode="&#x1ebd;" horiz-adv-x="1028" 
d="M789 1157q-37 0 -66 16.5t-46.5 40t-32 47t-32.5 40t-40 16.5q-40 0 -69.5 -40.5t-43.5 -96.5h-88q26 112 77.5 176.5t123.5 64.5q42 0 73.5 -17t48.5 -41t31 -48t30.5 -41t37.5 -17q42 0 73 43.5t50 114.5h92q-58 -258 -219 -258zM430 -12q-108 0 -185 40t-114 110
t-46.5 164.5t17.5 203.5q23 101 69.5 191t112.5 161t155 112.5t188 41.5q94 0 161 -29.5t103.5 -79t51.5 -119.5t10 -146.5t-25 -164.5l-3 -7l-5 -15h-699q-21 -72 -16.5 -136t27.5 -113t74 -77.5t124 -28.5q99 0 175.5 25t146.5 86l79 -74q-98 -78 -191.5 -111.5
t-209.5 -33.5zM246 559h585q40 158 -11.5 248t-196.5 90q-141 0 -241 -97t-136 -241z" />
    <glyph glyph-name="uni1EBE" unicode="&#x1ebe;" horiz-adv-x="1235" 
d="M921 1952l283 289h180l-336 -289h-127zM578 1512l413 356l250 -356h-149l-129 196l-226 -196h-159zM104 0l326 1413h909l-26 -113h-774l-123 -538h661l-26 -109h-662l-123 -532h774l-26 -121h-910z" />
    <glyph glyph-name="uni1EBF" unicode="&#x1ebf;" horiz-adv-x="1028" 
d="M655 1538l283 289h180l-336 -289h-127zM312 1098l413 356l250 -356h-149l-129 196l-226 -196h-159zM430 -12q-108 0 -185 40t-114 110t-46.5 164.5t17.5 203.5q23 101 69.5 191t112.5 161t155 112.5t188 41.5q94 0 161 -29.5t103.5 -79t51.5 -119.5t10 -146.5t-25 -164.5
l-3 -7l-5 -15h-699q-21 -72 -16.5 -136t27.5 -113t74 -77.5t124 -28.5q99 0 175.5 25t146.5 86l79 -74q-98 -78 -191.5 -111.5t-209.5 -33.5zM246 559h585q40 158 -11.5 248t-196.5 90q-141 0 -241 -97t-136 -241z" />
    <glyph glyph-name="uni1EC0" unicode="&#x1ec0;" horiz-adv-x="1235" 
d="M944 1954l-180 287h172l149 -287h-141zM578 1512l413 356l250 -356h-149l-129 196l-226 -196h-159zM104 0l326 1413h909l-26 -113h-774l-123 -538h661l-26 -109h-662l-123 -532h774l-26 -121h-910z" />
    <glyph glyph-name="uni1EC1" unicode="&#x1ec1;" horiz-adv-x="1028" 
d="M678 1540l-180 287h172l149 -287h-141zM312 1098l413 356l250 -356h-149l-129 196l-226 -196h-159zM430 -12q-108 0 -185 40t-114 110t-46.5 164.5t17.5 203.5q23 101 69.5 191t112.5 161t155 112.5t188 41.5q94 0 161 -29.5t103.5 -79t51.5 -119.5t10 -146.5t-25 -164.5
l-3 -7l-5 -15h-699q-21 -72 -16.5 -136t27.5 -113t74 -77.5t124 -28.5q99 0 175.5 25t146.5 86l79 -74q-98 -78 -191.5 -111.5t-209.5 -33.5zM246 559h585q40 158 -11.5 248t-196.5 90q-141 0 -241 -97t-136 -241z" />
    <glyph glyph-name="uni1EC4" unicode="&#x1ec4;" horiz-adv-x="1235" 
d="M1151 1985q-37 0 -66 16.5t-46.5 40t-32 47t-32.5 40t-40 16.5q-40 0 -69.5 -40.5t-43.5 -96.5h-88q26 112 77.5 176.5t123.5 64.5q42 0 73.5 -17t48.5 -41t31 -48t30.5 -41t37.5 -17q42 0 73 43.5t50 114.5h92q-58 -258 -219 -258zM578 1512l413 356l250 -356h-149
l-129 196l-226 -196h-159zM104 0l326 1413h909l-26 -113h-774l-123 -538h661l-26 -109h-662l-123 -532h774l-26 -121h-910z" />
    <glyph glyph-name="uni1EC5" unicode="&#x1ec5;" horiz-adv-x="1028" 
d="M885 1571q-37 0 -66 16.5t-46.5 40t-32 47t-32.5 40t-40 16.5q-40 0 -69.5 -40.5t-43.5 -96.5h-88q26 112 77.5 176.5t123.5 64.5q42 0 73.5 -17t48.5 -41t31 -48t30.5 -41t37.5 -17q42 0 73 43.5t50 114.5h92q-58 -258 -219 -258zM312 1098l413 356l250 -356h-149
l-129 196l-226 -196h-159zM430 -12q-108 0 -185 40t-114 110t-46.5 164.5t17.5 203.5q23 101 69.5 191t112.5 161t155 112.5t188 41.5q94 0 161 -29.5t103.5 -79t51.5 -119.5t10 -146.5t-25 -164.5l-3 -7l-5 -15h-699q-21 -72 -16.5 -136t27.5 -113t74 -77.5t124 -28.5
q99 0 175.5 25t146.5 86l79 -74q-98 -78 -191.5 -111.5t-209.5 -33.5zM246 559h585q40 158 -11.5 248t-196.5 90q-141 0 -241 -97t-136 -241z" />
    <glyph glyph-name="uni1ED0" unicode="&#x1ed0;" horiz-adv-x="1511" 
d="M997 1952l283 289h180l-336 -289h-127zM654 1512l413 356l250 -356h-149l-129 196l-226 -196h-159zM645 -20q-125 0 -220 38.5t-153 106.5t-87.5 161t-29 202.5t28.5 230.5q34 148 101 275.5t163 226.5t228 156t282 57q126 0 222.5 -38.5t154.5 -106.5t88 -161.5t29 -203
t-29 -230.5q-27 -118 -75 -223t-118 -195.5t-156 -156t-196.5 -102.5t-232.5 -37zM651 106q105 0 199 33.5t166 90.5t130.5 136t97 167t61.5 186q21 94 23.5 178.5t-18 160t-64 130.5t-119 87t-177.5 32q-127 0 -237.5 -50.5t-190 -137.5t-134 -194.5t-83.5 -230.5
q-21 -94 -23.5 -178.5t17.5 -160t62.5 -130.5t116 -87t173.5 -32z" />
    <glyph glyph-name="uni1ED1" unicode="&#x1ed1;" horiz-adv-x="1116" 
d="M704 1538l283 289h180l-336 -289h-127zM361 1098l413 356l250 -356h-149l-129 196l-226 -196h-159zM449 -20q-83 0 -151.5 27t-114 75t-73.5 114.5t-30 145t16 166.5q32 139 114 253.5t202 182.5t252 68q136 0 229 -71.5t125.5 -192t-0.5 -265.5q-32 -138 -115.5 -253
t-203.5 -182.5t-250 -67.5zM453 92q86 0 159 34.5t125 93.5t87.5 131.5t54.5 156.5q15 63 17.5 119t-9 106.5t-38 86.5t-75 57.5t-115.5 21.5q-84 0 -156.5 -34.5t-124.5 -93.5t-87.5 -132t-54.5 -156q-21 -76 -18 -146.5t24 -125t75 -87t136 -32.5z" />
    <glyph glyph-name="uni1ED2" unicode="&#x1ed2;" horiz-adv-x="1511" 
d="M1020 1954l-180 287h172l149 -287h-141zM654 1512l413 356l250 -356h-149l-129 196l-226 -196h-159zM645 -20q-125 0 -220 38.5t-153 106.5t-87.5 161t-29 202.5t28.5 230.5q34 148 101 275.5t163 226.5t228 156t282 57q126 0 222.5 -38.5t154.5 -106.5t88 -161.5
t29 -203t-29 -230.5q-27 -118 -75 -223t-118 -195.5t-156 -156t-196.5 -102.5t-232.5 -37zM651 106q105 0 199 33.5t166 90.5t130.5 136t97 167t61.5 186q21 94 23.5 178.5t-18 160t-64 130.5t-119 87t-177.5 32q-127 0 -237.5 -50.5t-190 -137.5t-134 -194.5t-83.5 -230.5
q-21 -94 -23.5 -178.5t17.5 -160t62.5 -130.5t116 -87t173.5 -32z" />
    <glyph glyph-name="uni1ED3" unicode="&#x1ed3;" horiz-adv-x="1116" 
d="M727 1540l-180 287h172l149 -287h-141zM361 1098l413 356l250 -356h-149l-129 196l-226 -196h-159zM449 -20q-83 0 -151.5 27t-114 75t-73.5 114.5t-30 145t16 166.5q32 139 114 253.5t202 182.5t252 68q136 0 229 -71.5t125.5 -192t-0.5 -265.5q-32 -138 -115.5 -253
t-203.5 -182.5t-250 -67.5zM453 92q86 0 159 34.5t125 93.5t87.5 131.5t54.5 156.5q15 63 17.5 119t-9 106.5t-38 86.5t-75 57.5t-115.5 21.5q-84 0 -156.5 -34.5t-124.5 -93.5t-87.5 -132t-54.5 -156q-21 -76 -18 -146.5t24 -125t75 -87t136 -32.5z" />
    <glyph glyph-name="uni1ED6" unicode="&#x1ed6;" horiz-adv-x="1511" 
d="M1227 1985q-37 0 -66 16.5t-46.5 40t-32 47t-32.5 40t-40 16.5q-40 0 -69.5 -40.5t-43.5 -96.5h-88q26 112 77.5 176.5t123.5 64.5q42 0 73.5 -17t48.5 -41t31 -48t30.5 -41t37.5 -17q42 0 73 43.5t50 114.5h92q-58 -258 -219 -258zM654 1512l413 356l250 -356h-149
l-129 196l-226 -196h-159zM645 -20q-125 0 -220 38.5t-153 106.5t-87.5 161t-29 202.5t28.5 230.5q34 148 101 275.5t163 226.5t228 156t282 57q126 0 222.5 -38.5t154.5 -106.5t88 -161.5t29 -203t-29 -230.5q-27 -118 -75 -223t-118 -195.5t-156 -156t-196.5 -102.5
t-232.5 -37zM651 106q105 0 199 33.5t166 90.5t130.5 136t97 167t61.5 186q21 94 23.5 178.5t-18 160t-64 130.5t-119 87t-177.5 32q-127 0 -237.5 -50.5t-190 -137.5t-134 -194.5t-83.5 -230.5q-21 -94 -23.5 -178.5t17.5 -160t62.5 -130.5t116 -87t173.5 -32z" />
    <glyph glyph-name="uni1ED7" unicode="&#x1ed7;" horiz-adv-x="1116" 
d="M934 1571q-37 0 -66 16.5t-46.5 40t-32 47t-32.5 40t-40 16.5q-40 0 -69.5 -40.5t-43.5 -96.5h-88q26 112 77.5 176.5t123.5 64.5q42 0 73.5 -17t48.5 -41t31 -48t30.5 -41t37.5 -17q42 0 73 43.5t50 114.5h92q-58 -258 -219 -258zM361 1098l413 356l250 -356h-149
l-129 196l-226 -196h-159zM449 -20q-83 0 -151.5 27t-114 75t-73.5 114.5t-30 145t16 166.5q32 139 114 253.5t202 182.5t252 68q136 0 229 -71.5t125.5 -192t-0.5 -265.5q-32 -138 -115.5 -253t-203.5 -182.5t-250 -67.5zM453 92q86 0 159 34.5t125 93.5t87.5 131.5
t54.5 156.5q15 63 17.5 119t-9 106.5t-38 86.5t-75 57.5t-115.5 21.5q-84 0 -156.5 -34.5t-124.5 -93.5t-87.5 -132t-54.5 -156q-21 -76 -18 -146.5t24 -125t75 -87t136 -32.5z" />
    <glyph glyph-name="Ygrave" unicode="&#x1ef2;" horiz-adv-x="1315" 
d="M825 1540l-180 287h172l149 -287h-141zM477 0l129 553l-330 860h152l268 -719l607 719h157l-725 -860l-129 -553h-129z" />
    <glyph glyph-name="ygrave" unicode="&#x1ef3;" horiz-adv-x="961" 
d="M547 1126l-180 287h172l149 -287h-141zM41 -430l270 430l-151 999h137l104 -847l490 847h139l-856 -1429h-133z" />
    <glyph glyph-name="uni1EF8" unicode="&#x1ef8;" horiz-adv-x="1315" 
d="M1032 1571q-37 0 -66 16.5t-46.5 40t-32 47t-32.5 40t-40 16.5q-40 0 -69.5 -40.5t-43.5 -96.5h-88q26 112 77.5 176.5t123.5 64.5q42 0 73.5 -17t48.5 -41t31 -48t30.5 -41t37.5 -17q42 0 73 43.5t50 114.5h92q-58 -258 -219 -258zM477 0l129 553l-330 860h152l268 -719
l607 719h157l-725 -860l-129 -553h-129z" />
    <glyph glyph-name="uni1EF9" unicode="&#x1ef9;" horiz-adv-x="961" 
d="M754 1157q-37 0 -66 16.5t-46.5 40t-32 47t-32.5 40t-40 16.5q-40 0 -69.5 -40.5t-43.5 -96.5h-88q26 112 77.5 176.5t123.5 64.5q42 0 73.5 -17t48.5 -41t31 -48t30.5 -41t37.5 -17q42 0 73 43.5t50 114.5h92q-58 -258 -219 -258zM41 -430l270 430l-151 999h137
l104 -847l490 847h139l-856 -1429h-133z" />
    <glyph glyph-name="endash" unicode="&#x2013;" horiz-adv-x="1016" 
d="M190 596l23 96h680l-23 -96h-680z" />
    <glyph glyph-name="emdash" unicode="&#x2014;" horiz-adv-x="1671" 
d="M190 596l23 96h1335l-22 -96h-1336z" />
    <glyph glyph-name="uni2015" unicode="&#x2015;" horiz-adv-x="1507" 
d="M190 596l23 96h1171l-22 -96h-1172z" />
    <glyph glyph-name="quoteleft" unicode="&#x2018;" horiz-adv-x="563" 
d="M434 944l-104 469h172l6 -469h-74z" />
    <glyph glyph-name="quoteright" unicode="&#x2019;" horiz-adv-x="561" 
d="M254 944l225 469h178l-323 -469h-80z" />
    <glyph glyph-name="quotesinglbase" unicode="&#x201a;" horiz-adv-x="571" 
d="M-14 -225l231 489h184l-327 -489h-88z" />
    <glyph glyph-name="quotedblleft" unicode="&#x201c;" horiz-adv-x="850" 
d="M434 944l-104 469h172l6 -469h-74zM725 944l-107 469h170l9 -469h-72z" />
    <glyph glyph-name="quotedblright" unicode="&#x201d;" horiz-adv-x="850" 
d="M254 944l225 469h178l-323 -469h-80zM543 944l227 469h176l-321 -469h-82z" />
    <glyph glyph-name="quotedblbase" unicode="&#x201e;" horiz-adv-x="877" 
d="M-14 -225l231 489h184l-327 -489h-88zM293 -225l231 489h185l-328 -489h-88z" />
    <glyph glyph-name="dagger" unicode="&#x2020;" horiz-adv-x="813" 
d="M178 -205l244 1059h-221l30 131h222l98 428h133l-98 -428h221l-31 -131h-221l-244 -1059h-133z" />
    <glyph glyph-name="daggerdbl" unicode="&#x2021;" horiz-adv-x="874" 
d="M209 -205l98 426h-221l31 135h221l115 498h-222l31 131h221l99 428h133l-99 -428h222l-31 -131h-221l-115 -498h221l-30 -135h-222l-98 -426h-133z" />
    <glyph glyph-name="bullet" unicode="&#x2022;" horiz-adv-x="848" 
d="M377 244q-103 0 -159.5 73t-33.5 177q22 93 103.5 159t175.5 66q103 0 159 -73.5t33 -176.5q-23 -94 -103.5 -159.5t-174.5 -65.5z" />
    <glyph glyph-name="uni2023" unicode="&#x2023;" horiz-adv-x="774" 
d="M195 260l98 436l342 -217z" />
    <glyph glyph-name="twodotenleader" unicode="&#x2025;" horiz-adv-x="1087" 
d="M129 0l41 176h186l-41 -176h-186zM543 0l41 176h186l-41 -176h-186z" />
    <glyph glyph-name="ellipsis" unicode="&#x2026;" horiz-adv-x="1501" 
d="M129 0l41 176h186l-41 -176h-186zM543 0l41 176h186l-41 -176h-186zM956 0l41 176h187l-41 -176h-187z" />
    <glyph glyph-name="perthousand" unicode="&#x2030;" horiz-adv-x="2167" 
d="M467 813q-54 0 -93.5 20.5t-59.5 53.5t-29 76t-6.5 86t12.5 86q11 51 34 101t57.5 96.5t86.5 75t113 28.5t104 -28.5t61.5 -74.5t22.5 -104.5t-12 -118.5q-19 -77 -56 -142t-99.5 -110t-135.5 -45zM244 8l1063 1387h116l-1063 -1387h-116zM461 895q52 0 97 39.5t71.5 92
t40.5 110.5q9 51 10 98.5t-23.5 82t-72.5 34.5q-77 0 -134 -74t-77 -168q-10 -51 -11 -98.5t24.5 -82t74.5 -34.5zM1108 6q-45 0 -80.5 14t-56.5 38.5t-34 55.5t-16.5 67.5t-1 72.5t10.5 72q9 40 24.5 79t41 79t57.5 70.5t75.5 49.5t92.5 19q61 0 103.5 -28t61 -74t23 -104
t-11.5 -118q-27 -120 -104 -206.5t-185 -86.5zM1688 6q-54 0 -93.5 20t-60 52.5t-29.5 75.5t-7.5 85.5t11.5 86.5q12 51 34.5 100t57.5 95t86.5 74t112.5 28t104.5 -28t62 -74t23 -104t-11.5 -118q-26 -119 -104 -206t-186 -87zM1102 88q52 0 97.5 39t72.5 91t39 108
q9 51 10 98t-23.5 81t-72.5 34q-78 0 -134 -72t-77 -166q-10 -50 -11 -97t24.5 -81.5t74.5 -34.5zM1683 88q51 0 96 39t71 91t38 108q10 51 11 98t-23.5 81t-71.5 34q-76 0 -132 -72t-77 -166q-9 -50 -10 -97t24 -81.5t74 -34.5z" />
    <glyph glyph-name="uni2031" unicode="&#x2031;" horiz-adv-x="2728" 
d="M467 813q-54 0 -93.5 20.5t-59.5 53.5t-29 76.5t-6.5 86.5t12.5 87q11 51 33.5 100t57 95.5t87 75t113.5 28.5q60 0 102.5 -28.5t60.5 -74.5t22.5 -104.5t-11.5 -118.5q-18 -76 -56.5 -141.5t-100 -110.5t-132.5 -45zM244 8l1063 1385h114l-1061 -1385h-116zM461 895
q52 0 97 39.5t71.5 92t40.5 110.5q9 52 10 100t-23 82.5t-71 34.5q-79 0 -136.5 -74t-78.5 -168q-10 -51 -11 -99t25 -83t76 -35zM1108 6q-45 0 -80.5 14t-56.5 38.5t-34 55.5t-16.5 67.5t-1 72.5t10.5 72q9 40 24.5 79t41 79t57.5 70.5t75.5 49.5t92.5 19q60 0 102 -28.5
t60.5 -74.5t23 -104t-11.5 -117q-27 -119 -104.5 -206t-182.5 -87zM1686 6q-54 0 -93.5 20t-60 52.5t-29.5 75.5t-7.5 85.5t11.5 86.5q12 51 34.5 100t57.5 95t86.5 74t112.5 28t104 -28.5t60.5 -74.5t21.5 -104t-12 -117q-27 -120 -103.5 -206.5t-182.5 -86.5zM2253 6
q-54 0 -93.5 20t-60 52.5t-29.5 75.5t-7 85.5t12 86.5q11 51 33.5 100t57.5 95t86.5 74t112.5 28t104 -28.5t61 -74.5t22 -104t-12 -117q-27 -119 -104 -206t-183 -87zM1102 86q76 0 132.5 74.5t76.5 165.5q9 51 10 98.5t-23.5 82t-72.5 34.5q-79 0 -135.5 -73t-77.5 -167
q-9 -38 -10.5 -74t6.5 -68.5t32 -52.5t62 -20zM1679 86q52 0 98 39t72.5 92t38.5 109q10 51 11 98.5t-24 82t-73 34.5q-79 0 -135 -73t-78 -167q-9 -50 -10 -97.5t24.5 -82.5t75.5 -35zM2247 86q76 0 132.5 74.5t76.5 165.5q9 51 10 98.5t-23.5 82t-72.5 34.5
q-79 0 -135.5 -73t-77.5 -167q-9 -38 -10.5 -74t6.5 -68.5t32 -52.5t62 -20z" />
    <glyph glyph-name="guilsinglleft" unicode="&#x2039;" horiz-adv-x="612" 
d="M369 193l-283 319l426 317l-31 -149l-237 -168l155 -170z" />
    <glyph glyph-name="guilsinglright" unicode="&#x203a;" horiz-adv-x="612" 
d="M102 193l31 149l238 170l-156 168l31 149l282 -317z" />
    <glyph glyph-name="fraction" unicode="&#x2044;" horiz-adv-x="723" 
d="M-82 0l748 1413h139l-746 -1413h-141z" />
    <glyph glyph-name="Euro" unicode="&#x20ac;" horiz-adv-x="1282" 
d="M668 -20q-104 0 -181.5 38t-123 106.5t-65 159.5t-13.5 201l-131 -6l75 115l64 6l26 119q17 75 33 119l-119 -7l76 109l82 6q94 223 245 356.5t343 133.5q229 0 328 -193l-107 -69q-29 79 -87 110t-144 31q-141 0 -261 -107.5t-194 -273.5l526 6l-75 -115l-498 -6
q-25 -89 -31 -119q-1 -4 -24 -116l546 6l-75 -117l-480 -6q-1 -106 24.5 -186t88 -130.5t158.5 -50.5q182 0 303 156l70 -109q-168 -167 -379 -167z" />
    <glyph glyph-name="uni20B1" unicode="&#x20b1;" horiz-adv-x="1354" 
d="M1350 1079l-21 -88h-91q-47 -165 -180.5 -252.5t-330.5 -87.5h-256l-149 -651h-136l229 991h-134l20 88h134l77 334h379q186 0 283.5 -89t81.5 -245h94zM621 1296l-51 -217h554q13 105 -51 161t-196 56h-256zM744 768q132 0 225.5 57t133.5 166h-553l-52 -223h246z" />
    <glyph glyph-name="uni20B3" unicode="&#x20b3;" horiz-adv-x="1296" 
d="M1237 629h-217l30 -219h136l-25 -103h-97l42 -307h-141l-37 307h-639l-178 -307h-150l184 307h-98l25 103h135l131 219h-215l22 102h255l409 682h104l93 -682h254zM829 1255l-306 -524h365zM924 410l-25 219h-436l-128 -219h589z" />
    <glyph glyph-name="uni20B4" unicode="&#x20b4;" horiz-adv-x="1241" 
d="M1122 1071q-14 -62 -48 -114.5t-72.5 -87t-99 -68.5t-107 -54t-119.5 -49.5t-113 -48.5h416l-21 -88h-546q-104 -81 -131 -199q-31 -131 31.5 -194.5t195.5 -63.5q141 0 262 77t168 216l113 -51q-47 -119 -136 -202.5t-194 -121.5t-219 -38q-190 0 -288.5 114t-55.5 299
q11 49 33 92.5t47 75.5t63 62.5t70 50.5t81 43.5t81.5 37t86.5 35t83 33.5h-377l20 88h521q110 79 137 195q22 95 -33 152t-148 57q-95 0 -184 -44t-150 -128l-86 80q173 207 424 207q160 0 246.5 -102.5t48.5 -260.5z" />
    <glyph glyph-name="uni20B8" unicode="&#x20b8;" horiz-adv-x="1436" 
d="M350 1305l25 106h1108l-25 -106h-1108zM537 0l237 1028h-487l22 105h1108l-22 -105h-488l-237 -1028h-133z" />
    <glyph glyph-name="uni20BD" unicode="&#x20bd;" horiz-adv-x="1327" 
d="M227 0l88 381h-174l27 119h174l35 149h-174l26 119h174l150 645h379q202 0 298 -106t54 -289q-41 -178 -177 -273.5t-339 -95.5h-258l-35 -149h395l-26 -119h-395l-89 -381h-133zM537 768h247q147 0 247 70.5t130 203.5q28 122 -35.5 188t-207.5 66h-259z" />
    <glyph glyph-name="uni2116" unicode="&#x2116;" horiz-adv-x="2345" 
d="M104 0l326 1413h213l324 -1288l299 1288h135l-326 -1413h-217l-317 1290l-299 -1290h-138zM1672 290q-90 0 -159 36t-107 97.5t-50.5 145t11.5 177.5q42 184 180 309.5t310 125.5q117 0 198 -62t109 -166t-1 -229q-42 -182 -181.5 -308t-309.5 -126zM1675 386
q74 0 137.5 29.5t108 81t75 114.5t47.5 135q18 66 15.5 126.5t-20.5 107.5t-65.5 75t-119.5 28q-73 0 -135.5 -29.5t-107 -80.5t-75.5 -114t-47 -135q-13 -54 -15.5 -102t7.5 -92t32.5 -75.5t64 -50t98.5 -18.5zM1430 0v113h667v-113h-667z" />
    <glyph glyph-name="trademark" unicode="&#x2122;" horiz-adv-x="1268" 
d="M387 877l113 485h-146l13 51h354l-12 -51h-146l-112 -485h-64zM653 877l125 536h76l57 -362l230 362h76l-125 -536h-64l98 415l-198 -334h-64l-49 336l-98 -417h-64z" />
    <glyph glyph-name="uni2126" unicode="&#x2126;" horiz-adv-x="1677" 
d="M76 0l26 115l367 2q-144 85 -205.5 251t-15.5 359q29 128 102 254.5t168 216.5q115 96 254.5 152.5t265.5 56.5q134 0 248 -62t180 -165q61 -81 79.5 -209.5t-13.5 -265.5q-43 -189 -170.5 -349t-300.5 -239l338 2l-27 -119h-491l22 123q181 59 322.5 233.5t195.5 409.5
q21 91 11 184.5t-48 163.5q-58 80 -153.5 128t-196.5 48q-111 0 -231.5 -53.5t-210.5 -142.5q-76 -62 -135 -157t-82 -196q-47 -205 10.5 -372.5t204.5 -249.5l-23 -119h-491z" />
    <glyph glyph-name="arrowleft" unicode="&#x2190;" horiz-adv-x="2185" 
d="M1020 154l-868 485l868 481l53 -96l-649 -346h1655v-86h-1641l635 -346z" />
    <glyph glyph-name="arrowright" unicode="&#x2192;" horiz-adv-x="2179" 
d="M1227 154l-53 92l634 346h-1640v86h1653l-647 346l53 96l868 -481z" />
    <glyph glyph-name="partialdiff" unicode="&#x2202;" horiz-adv-x="1313" 
d="M455 -10q-186 0 -272 124t-40 322q38 165 138 300.5t244.5 214.5t303.5 79q88 0 153.5 -35.5t98.5 -97.5q40 206 -17.5 310t-197.5 104q-187 0 -303 -170l-129 43q76 118 190 180.5t253 62.5q462 0 301 -708q-26 -112 -69 -215t-108 -197.5t-144 -164t-183 -111
t-219 -41.5zM469 106q125 0 237.5 72t187 186t105.5 248q32 138 -15.5 218.5t-174.5 80.5q-93 0 -183.5 -44.5t-159.5 -116.5t-119 -161.5t-71 -180.5q-31 -134 20 -218t173 -84z" />
    <glyph glyph-name="uni2206" unicode="&#x2206;" horiz-adv-x="1309" 
d="M4 0l860 1413l211 -1413h-1071zM207 117h727l-141 956z" />
    <glyph glyph-name="product" unicode="&#x220f;" horiz-adv-x="1333" 
d="M160 0l299 1296h-82l26 117h949l-27 -117h-82l-299 -1296h-117l299 1296h-551l-299 -1296h-116z" />
    <glyph glyph-name="summation" unicode="&#x2211;" horiz-adv-x="1270" 
d="M18 0l11 53l735 654l-430 653l10 53h993l-26 -117h-776l401 -587l-670 -592h772l-26 -117h-994z" />
    <glyph glyph-name="minus" unicode="&#x2212;" horiz-adv-x="1108" 
d="M285 580v96h600v-96h-600z" />
    <glyph glyph-name="radical" unicode="&#x221a;" horiz-adv-x="1221" 
d="M367 -158l-82 744h-148l27 116h227l45 -550l762 1261l105 -41z" />
    <glyph glyph-name="infinity" unicode="&#x221e;" horiz-adv-x="1917" 
d="M608 354q-166 0 -260 104t-94 277q0 174 94 277.5t260 103.5q113 0 218 -63.5t188 -178.5q81 114 186 178t219 64q165 0 259 -104t94 -277t-94 -277t-259 -104q-114 0 -219 64t-186 178q-83 -115 -188 -178.5t-218 -63.5zM639 463q90 0 174.5 74.5t138.5 197.5
q-53 119 -139 196t-174 77q-115 0 -185.5 -73.5t-70.5 -199.5t70.5 -199t185.5 -73zM1389 463q113 0 183 73t70 199t-70 199.5t-183 73.5q-91 0 -176 -75t-140 -198q56 -120 142 -196t174 -76z" />
    <glyph glyph-name="integral" unicode="&#x222b;" horiz-adv-x="1016" 
d="M-104 -457l16 117q184 0 289 81t145 257l270 1171q30 125 118.5 203t193.5 78q103 0 186 -80l-90 -84q-39 47 -102 47q-61 0 -116 -46.5t-73 -125.5l-272 -1173q-50 -220 -197.5 -332.5t-367.5 -112.5z" />
    <glyph glyph-name="approxequal" unicode="&#x2248;" horiz-adv-x="1176" 
d="M791 733q-44 0 -82.5 19.5t-67 47.5t-56 55.5t-60.5 47t-68 19.5q-56 0 -80.5 -46.5t-22.5 -115.5h-82q0 106 46.5 175t136.5 69q52 0 95 -19.5t72 -47t55 -54.5t56.5 -46.5t63.5 -19.5q112 0 112 182h88q0 -126 -54.5 -196t-151.5 -70zM793 389q-43 0 -81.5 19.5
t-67.5 48t-57 56.5t-61.5 47.5t-68.5 19.5q-38 0 -62.5 -24.5t-33 -60t-7.5 -79.5h-82q0 106 46.5 176t136.5 70q52 0 95 -19.5t72 -47t55 -54.5t56.5 -46.5t63.5 -19.5q112 0 112 180h88q0 -125 -54 -195.5t-150 -70.5z" />
    <glyph glyph-name="notequal" unicode="&#x2260;" horiz-adv-x="1122" 
d="M164 0l229 434h-168v129h236l117 217h-353v129h422l266 504h142l-267 -504h189v-129h-256l-117 -217h373v-129h-442l-228 -434h-143z" />
    <glyph glyph-name="lessequal" unicode="&#x2264;" horiz-adv-x="1372" 
d="M1030 111l-876 491l876 488l60 -103l-723 -385l723 -389zM76 -96v96h1036v-96h-1036z" />
    <glyph glyph-name="greaterequal" unicode="&#x2265;" horiz-adv-x="1495" 
d="M289 111l-60 102l723 389l-723 385l60 103l876 -488zM207 -96v96h1036v-96h-1036z" />
    <glyph glyph-name="lozenge" unicode="&#x25ca;" horiz-adv-x="1135" 
d="M379 0l-201 717l527 717h151l199 -717l-525 -717h-151zM477 131l434 586l-155 586l-434 -586z" />
    <glyph glyph-name="uniF8FF" unicode="&#xf8ff;" horiz-adv-x="1855" 
d="M977 -61q-158 0 -301 61t-247 165t-165 247t-61 301t61 301t165 247t247 165t301 61t301 -61t247 -165t165 -247t61 -301t-61 -301t-165 -247t-247 -165t-301 -61zM977 10q143 0 273 55.5t224 149.5t149.5 224.5t55.5 273.5t-55.5 273t-149.5 224t-224 149.5t-273 55.5
t-273.5 -55.5t-224.5 -149.5t-149.5 -224t-55.5 -273q0 -191 94 -353t256 -256t353 -94zM573 410q-14 0 -24 9.5t-10 24.5v537q0 15 10 26t24 11q16 0 26.5 -11t10.5 -26v-537q0 -15 -10.5 -24.5t-26.5 -9.5zM977 410q-16 0 -25.5 9.5t-9.5 24.5v537q0 15 10 26t25 11
t25 -11t10 -26v-537q0 -15 -10 -24.5t-25 -9.5zM1378 410q-14 0 -22 10l-271 268q-8 11 -8 25q0 16 8 24l273 269q6 12 20 12t25.5 -11.5t11.5 -25.5t-10 -25l-244 -243l244 -244q10 -10 10 -25q0 -13 -11.5 -23.5t-25.5 -10.5zM709 678q-16 0 -25.5 9.5t-9.5 25.5
q0 15 9.5 25t25.5 10h133q15 0 26 -10t11 -25t-11 -25t-26 -10h-133z" />
    <glyph glyph-name="i.loclTRK" horiz-adv-x="477" 
d="M329 1229l43 184h152l-43 -184h-152zM59 0l230 999h129l-230 -999h-129z" />
    <glyph glyph-name="f_t" horiz-adv-x="1212" 
d="M987 897l-152 -653q-19 -82 4.5 -123t77.5 -41q43 0 103 24l-15 -108q-40 -16 -120 -16q-239 0 -172 288l145 629h-426l-207 -897h-123l207 897h-182l23 100h182l47 205q27 112 110 172t191 60q85 0 158 -39l-43 -90q-56 26 -115 26q-68 0 -117 -36.5t-65 -108.5
l-43 -187h425l50 220l159 131l-80 -351h254l-22 -102h-254z" />
    </font>
</defs>
</svg>
