<?xml version="1.0" standalone="no"?>
<!DOCTYPE svg PUBLIC "-//W3C//DTD SVG 1.1//EN" "http://www.w3.org/Graphics/SVG/1.1/DTD/svg11.dtd" >
<svg xmlns="http://www.w3.org/2000/svg" xmlns:xlink="http://www.w3.org/1999/xlink" version="1.1">
<metadata>
Created by FontForge 20161013 at Sun Mar 19 13:47:48 2017
 By ,,,
Copyright (c)2015, HK Grotesk Latin by Alfredo Marco Pradil (ammpradil@gmail.com) and HK Grotesk Cyrillic by Stefan Peev (http://www.contextbg.net/). HK Grotesk is a trademark of Alfredo Marco Pradil.
</metadata>
<defs>
<font id="HKGrotesk-Light" horiz-adv-x="1104" >
  <font-face 
    font-family="HK Grotesk Light"
    font-weight="300"
    font-stretch="normal"
    units-per-em="2048"
    panose-1="0 0 4 0 0 0 0 0 0 0"
    ascent="1434"
    descent="-614"
    x-height="999"
    cap-height="1413"
    bbox="-922 -512 2587 2249"
    underline-thickness="82"
    underline-position="-410"
    unicode-range="U+0020-FB02"
  />
<missing-glyph horiz-adv-x="1167" 
d="M174 0v954h819v-954h-819zM276 102h615v750h-615v-750z" />
    <glyph glyph-name="fi" unicode="fi" horiz-adv-x="971" 
d="M180 0v897h-145v102h147q0 70 9.5 130t34 117.5t63.5 98t101.5 65t144.5 24.5q86 0 147.5 -30.5t124.5 -92.5l-70 -80q-95 100 -207 100q-235 0 -235 -332h502v-999h-111v897h-391v-897h-115z" />
    <glyph glyph-name="fl" unicode="fl" horiz-adv-x="977" 
d="M813 -20q-42 0 -69.5 18.5t-39 54.5t-15 68.5t-3.5 81.5v1059q-3 22 -51 44.5t-113 22.5q-124 0 -175.5 -42t-51.5 -152v-136h227v-102h-227v-897h-115v897h-145v102h147v156q0 139 89 209t239 70q148 0 289 -129v-1153v-17t2 -13.5t6 -12.5t12.5 -6t20.5 -3q32 0 73 13
v-113l4 -1q-11 -9 -68 -16z" />
    <glyph glyph-name="f_f_i" unicode="ffi" horiz-adv-x="1483" 
d="M813 999h506v-999h-111v897h-395v-897h-115v897h-409v-897h-119v897h-135v102h137v136q0 132 89.5 215.5t223.5 83.5q163 0 277 -111q42 47 113.5 79t150.5 32q141 0 289 -117l-57 -85q-8 12 -33.5 33t-80.5 43.5t-114 22.5q-94 0 -155.5 -54t-61.5 -147v-131zM700 1135
q0 61 7 102q-4 9 -19.5 23t-41 30.5t-66.5 28.5t-86 12q-95 0 -150 -53.5t-55 -147.5v-131h411v136zM1258 1232q2 -2 1 -2t-2 1z" />
    <glyph glyph-name="f_f_l" unicode="ffl" horiz-adv-x="1487" 
d="M1331 -20q-35 0 -59.5 9.5t-36.5 22t-18.5 34t-7.5 35t-1 34.5v1134q-17 34 -64 58t-100 24q-94 0 -150 -58.5t-56 -152.5v-121h161v-102h-161v-897h-115v897h-434v-897h-119v897h-135v102h137v123q0 133 90.5 222.5t229.5 89.5q71 0 135 -21.5t93.5 -41.5t65.5 -50
q46 53 105 83t151 30q86 0 141 -25t136 -102v-1151q0 -4 -0.5 -13t0 -12.5t1 -10t3 -9t7 -6t11.5 -4.5t17 -1q36 0 69 13v-113q-48 -20 -96 -20zM289 999h436q0 185 10 222q-86 110 -223 110q-97 0 -160 -55t-63 -152v-125z" />
    <glyph glyph-name=".notdef" horiz-adv-x="1167" 
d="M174 0v954h819v-954h-819zM276 102h615v750h-615v-750z" />
    <glyph glyph-name=".null" horiz-adv-x="0" 
 />
    <glyph glyph-name="nonmarkingreturn" horiz-adv-x="682" 
 />
    <glyph glyph-name="space" unicode=" " horiz-adv-x="553" 
 />
    <glyph glyph-name="exclam" unicode="!" horiz-adv-x="629" 
d="M266 369l-28 1067h153l-29 -1067h-96zM225 0v176h178v-176h-178z" />
    <glyph glyph-name="quotedbl" unicode="&#x22;" horiz-adv-x="895" 
d="M244 1014v399h116v-399h-116zM532 1014v399h119v-399h-119z" />
    <glyph glyph-name="numbersign" unicode="#" horiz-adv-x="1364" 
d="M266 0l90 444h-241v99h262l69 350h-249v92h270l94 449h103l-95 -437h338l92 437h103l-92 -445h241v-96h-260l-71 -350h249v-92h-270l-92 -451h-102l92 436h-338l-90 -436h-103zM479 543h338l70 350h-336z" />
    <glyph glyph-name="dollar" unicode="$" horiz-adv-x="1110" 
d="M512 -246v234q-161 14 -278 112t-142 262l129 39q15 -139 113.5 -213.5t236.5 -74.5q133 0 214 67t81 197q0 60 -23.5 109t-62.5 83.5t-90 63.5t-107.5 54l-113 50t-107.5 56.5t-90 69.5t-62.5 92.5t-23.5 121.5q0 146 92 241.5t234 111.5v229h84v-227q237 -18 346 -220
l-102 -71q-45 85 -119.5 128.5t-161.5 43.5q-96 0 -166.5 -60.5t-70.5 -158.5q0 -73 37.5 -128t97.5 -91t132 -67.5t144.5 -67t132.5 -78.5t97.5 -112.5t37.5 -160.5q0 -177 -114 -287.5t-291 -115.5v-232h-84z" />
    <glyph glyph-name="percent" unicode="%" horiz-adv-x="1585" 
d="M383 813q-65 0 -114 29.5t-75 77.5t-38.5 99t-12.5 103q0 42 7 84t24.5 84t43.5 74t67 52t92 20q78 0 134 -47.5t80.5 -116.5t24.5 -150q0 -79 -24 -147.5t-78.5 -115t-130.5 -46.5zM358 8l744 1387h112l-743 -1387h-113zM381 895q49 0 82 37.5t46 87t13 104.5
q0 56 -13.5 105.5t-47.5 86t-84 36.5q-38 0 -67.5 -21t-46 -55t-24.5 -73t-8 -81q0 -56 13.5 -105t49 -85.5t87.5 -36.5zM1210 6q-65 0 -113.5 29t-74.5 76t-38.5 98t-12.5 104q0 42 7 83t24.5 82.5t43 73t66.5 51.5t92 20q114 0 177 -93t63 -219q0 -79 -24 -146.5t-79 -113
t-131 -45.5zM1208 88q37 0 66.5 21.5t45.5 55.5t24 72t8 76q0 56 -13.5 105t-48.5 85t-86 36q-50 0 -84 -36t-47.5 -85t-13.5 -105q0 -88 37 -156.5t112 -68.5z" />
    <glyph glyph-name="ampersand" unicode="&#x26;" horiz-adv-x="1374" 
d="M1255 20l-79 -69l-201 238q-166 -209 -447 -209q-170 0 -279.5 81t-109.5 234q0 64 21 123.5t51.5 104t82 91.5t94 78t105.5 72q-40 48 -65 82t-59.5 86.5t-52 102t-17.5 93.5q0 138 95.5 220t234.5 82q128 0 215.5 -86t87.5 -216q0 -62 -22 -117t-67 -103.5t-89.5 -84.5
t-110.5 -80l319 -376q61 131 82 323l107 -12q-22 -233 -115 -399zM403 1126q0 -111 174 -308q61 40 101 70t79.5 69.5t59 82t19.5 88.5q0 84 -62 139.5t-143 55.5q-91 0 -159.5 -52.5t-68.5 -144.5zM532 94q243 0 373 177l-349 414q-74 -48 -119 -82t-95 -83.5t-74 -104
t-24 -116.5q0 -72 44 -120t106 -66.5t138 -18.5z" />
    <glyph glyph-name="quotesingle" unicode="'" horiz-adv-x="604" 
d="M244 1042v400h116v-400h-116z" />
    <glyph glyph-name="parenleft" unicode="(" horiz-adv-x="557" 
d="M373 -8q-107 119 -172.5 330.5t-65.5 382.5q0 178 59 374t177 340h106q-114 -153 -175.5 -340t-61.5 -377q0 -183 60 -372t175 -338h-102z" />
    <glyph glyph-name="parenright" unicode=")" horiz-adv-x="557" 
d="M82 -8q112 149 173.5 342.5t61.5 370.5t-65 372t-172 342h104q119 -140 178.5 -332.5t59.5 -379.5q0 -176 -66 -388t-172 -327h-102z" />
    <glyph glyph-name="asterisk" unicode="*" horiz-adv-x="860" 
d="M303 854l-76 59l176 207l-253 43l28 99l236 -105l-31 256h92l-31 -256l236 105l31 -99l-256 -43l178 -207l-78 -59l-127 238z" />
    <glyph glyph-name="plus" unicode="+" horiz-adv-x="1268" 
d="M586 106v472h-457v96h457v469h96v-469h457v-96h-457v-472h-96z" />
    <glyph glyph-name="comma" unicode="," horiz-adv-x="618" 
d="M150 -332l145 596h172l-242 -596h-75z" />
    <glyph glyph-name="hyphen" unicode="-" horiz-adv-x="827" 
d="M166 596v96h496v-96h-496z" />
    <glyph glyph-name="period" unicode="." horiz-adv-x="666" 
d="M240 0v176h186v-176h-186z" />
    <glyph glyph-name="slash" unicode="/" horiz-adv-x="926" 
d="M23 -430l747 1946h133l-745 -1946h-135z" />
    <glyph glyph-name="zero" unicode="0" horiz-adv-x="1147" 
d="M584 -20q-93 0 -171 31.5t-133 86.5t-96.5 125.5t-65.5 153.5t-36 165t-12 165q0 71 8 142t26.5 143.5t45.5 137t67.5 121t90.5 97.5t117 64.5t144 23.5q123 0 222.5 -62t161.5 -166t95 -234t33 -272q0 -140 -32.5 -268.5t-93 -230.5t-156.5 -162.5t-215 -60.5zM578 100
q79 0 143 40.5t103.5 103.5t66 145.5t37 162t10.5 157.5q0 67 -8 133t-24.5 135.5t-46 128t-69 105.5t-96.5 73.5t-125 26.5q-81 0 -146 -39t-105.5 -100t-67.5 -143t-38 -161.5t-11 -160.5t11 -160.5t38.5 -161.5t69 -144t108 -101.5t150.5 -39.5z" />
    <glyph glyph-name="one" unicode="1" horiz-adv-x="1147" 
d="M588 0v1100h-379v108h213q85 0 132.5 51t47.5 130v24h121v-1413h-135z" />
    <glyph glyph-name="two" unicode="2" horiz-adv-x="1147" 
d="M88 0v127q128 81 227.5 160t136 115.5t97.5 101.5q140 152 209 272.5t69 253.5q0 138 -70.5 210.5t-185.5 72.5q-129 0 -207 -92.5t-88 -257.5l-133 14q0 222 114 338.5t308 116.5q190 0 298 -108.5t108 -291.5q0 -154 -81 -294.5t-257 -317.5q-42 -42 -78.5 -77
t-70.5 -64t-56 -47.5t-53 -40.5t-41.5 -29t-42.5 -28t-35 -23h784v-111h-952z" />
    <glyph glyph-name="three" unicode="3" horiz-adv-x="1147" 
d="M551 -20q-132 0 -235.5 44t-166.5 137.5t-63 225.5l121 14q0 -95 49.5 -166.5t126.5 -106t168 -34.5q65 0 125.5 19.5t109 56.5t78 96.5t29.5 132.5q0 141 -93.5 216t-230.5 75h-84v119h84q111 0 178.5 65.5t67.5 182.5q0 120 -78.5 190t-189.5 70q-115 0 -194.5 -71
t-80.5 -187l-118 16q0 166 111 262.5t282 96.5q167 0 279 -98t112 -263q0 -101 -45 -183t-131 -130q123 -38 186 -134.5t66 -228.5q0 -199 -130 -308t-333 -109z" />
    <glyph glyph-name="four" unicode="4" horiz-adv-x="1147" 
d="M705 0v393h-652v76l660 944h123v-909h225v-111h-225v-393h-131zM205 504h500v706z" />
    <glyph glyph-name="five" unicode="5" horiz-adv-x="1147" 
d="M571 -20q-173 0 -292 107t-156 275l117 44q12 -60 33 -110.5t58 -99.5t97.5 -77.5t138.5 -28.5q81 0 145.5 32t103 85t58 117t19.5 133q0 68 -19.5 129.5t-56.5 111t-97 78.5t-136 29q-94 0 -173 -43t-126 -119l-113 66l121 704h676v-115h-576l-82 -503q104 116 289 116
q129 0 229 -63t151.5 -166t51.5 -225q0 -129 -57.5 -237.5t-164 -174t-239.5 -65.5z" />
    <glyph glyph-name="six" unicode="6" horiz-adv-x="1147" 
d="M580 -20q-125 0 -229.5 62t-165 169t-60.5 233q0 130 65 244l410 725h143l-313 -541q73 17 150 17q192 0 323 -126t131 -317q0 -123 -57 -229.5t-162.5 -171.5t-234.5 -65zM580 98q136 0 231.5 102t95.5 244q0 144 -95.5 245.5t-231.5 101.5q-137 0 -232.5 -101.5
t-95.5 -245.5q0 -142 96 -244t232 -102z" />
    <glyph glyph-name="seven" unicode="7" horiz-adv-x="1147" 
d="M276 0l601 1298h-768v115h919v-65l-604 -1348h-148z" />
    <glyph glyph-name="eight" unicode="8" horiz-adv-x="1147" 
d="M573 -20q-95 0 -178 26t-147 75t-100.5 127.5t-36.5 176.5q0 132 67 229t193 148q-89 46 -139 129t-50 184q0 111 54 193.5t142 124t197 41.5q108 0 195.5 -41.5t141 -124t53.5 -193.5q0 -102 -48 -184t-137 -129q122 -48 189 -146.5t67 -230.5q0 -131 -64 -224.5
t-167 -137t-232 -43.5zM580 799q110 0 186 71t76 187q0 123 -76.5 193.5t-187.5 70.5q-105 0 -185 -67.5t-80 -182.5q0 -122 74 -197t193 -75zM573 88q64 0 122.5 19.5t105.5 57t74.5 97.5t27.5 135q0 143 -96 225.5t-234 82.5q-140 0 -236.5 -82.5t-96.5 -225.5
q0 -75 28.5 -135t76 -97.5t106 -57t122.5 -19.5z" />
    <glyph glyph-name="nine" unicode="9" horiz-adv-x="1147" 
d="M408 0l309 541q-70 -17 -150 -17q-192 0 -323 127t-131 316q0 123 57 229.5t163 172t236 65.5q124 0 228.5 -62.5t164.5 -169.5t60 -233q0 -129 -64 -244l-411 -725h-139zM567 623q137 0 232.5 101t95.5 245q0 142 -96 244t-232 102t-231.5 -102t-95.5 -244
q0 -144 95.5 -245t231.5 -101z" />
    <glyph glyph-name="colon" unicode=":" horiz-adv-x="670" 
d="M246 778v176h178v-176h-178zM246 0v176h178v-176h-178z" />
    <glyph glyph-name="semicolon" unicode=";" horiz-adv-x="649" 
d="M260 778v176h178v-176h-178zM132 -332l145 596h172l-242 -596h-75z" />
    <glyph glyph-name="less" unicode="&#x3c;" horiz-adv-x="1204" 
d="M993 174l-876 500l876 500l60 -103l-723 -397l723 -398z" />
    <glyph glyph-name="equal" unicode="=" horiz-adv-x="1262" 
d="M260 780v119h741v-119h-741zM260 444v119h741v-119h-741z" />
    <glyph glyph-name="greater" unicode="&#x3e;" horiz-adv-x="1204" 
d="M211 174l-59 102l722 398l-722 397l59 103l876 -500z" />
    <glyph glyph-name="question" unicode="?" horiz-adv-x="1026" 
d="M446 365v249q0 57 18.5 98.5t48 66.5t65 45t71 40.5t65 46t48 68.5t18.5 102q0 117 -77 177.5t-197 60.5q-110 0 -192 -64.5t-83 -175.5h-127q1 106 56.5 188t144.5 124.5t193 42.5q114 0 204.5 -39.5t146.5 -121.5t56 -194q0 -67 -19 -119t-48.5 -83t-66 -55.5t-73 -44
t-66 -40.5t-48.5 -52.5t-19 -72.5v-247h-119zM420 0v176h178v-176h-178z" />
    <glyph glyph-name="at" unicode="@" horiz-adv-x="2079" 
d="M1032 -348q-179 0 -336.5 59t-276.5 167t-188 272.5t-69 363.5q0 258 110 466.5t314.5 330t466.5 121.5q190 0 352.5 -66t275.5 -181.5t176.5 -276t63.5 -345.5q0 -93 -16 -180t-50.5 -165.5t-85 -137t-125.5 -93t-165 -34.5q-140 0 -212 76.5t-50 206.5
q-57 -77 -143.5 -120.5t-180.5 -43.5q-148 0 -227.5 105t-79.5 263q0 79 20 162t59.5 159.5t93 137t127.5 97t156 36.5q106 0 180.5 -55.5t90.5 -147.5l30 154h138q-11 -58 -51 -217.5t-67.5 -297t-27.5 -222.5q0 -83 30.5 -117.5t104.5 -34.5q61 0 111 20.5t84 56.5
t59 81.5t39 100t20.5 106.5t6.5 106q0 158 -53.5 295t-149 235t-233.5 154t-301 56q-226 0 -400.5 -104.5t-267 -283t-92.5 -399.5q0 -172 59 -312t160.5 -230t235.5 -138.5t286 -48.5q128 0 250 39l49 -125q-145 -51 -301 -51zM911 209q85 0 155 44.5t112.5 114t65 148
t22.5 152.5q0 107 -49 167t-150 60q-69 0 -128.5 -29t-100 -76.5t-70 -108t-43.5 -122.5t-14 -121q0 -107 49.5 -168t150.5 -61z" />
    <glyph glyph-name="A" unicode="A" horiz-adv-x="1296" 
d="M76 0l522 1413h104l519 -1413h-144l-108 307h-639l-107 -307h-147zM375 434h549l-273 780z" />
    <glyph glyph-name="B" unicode="B" horiz-adv-x="1235" 
d="M219 0v1413h367q90 0 168 -19t143 -58t103 -107t38 -158q0 -117 -49 -194.5t-139 -131.5q60 -27 104 -58t80.5 -75t55 -105t18.5 -138q0 -83 -25.5 -148t-68 -106t-101.5 -67.5t-120.5 -37t-130.5 -10.5h-443zM350 778h230q138 0 224.5 68.5t86.5 202.5q0 58 -16.5 102
t-43.5 70.5t-67 42.5t-82 22t-94 6h-238v-514zM350 123h316q309 0 309 250q0 282 -303 282h-322v-532z" />
    <glyph glyph-name="C" unicode="C" horiz-adv-x="1417" 
d="M752 -20q-123 0 -225 37.5t-174 104t-121.5 158.5t-73 200.5t-23.5 230.5q0 120 22.5 226t72 198t122.5 158.5t179.5 104.5t236.5 38q415 0 551 -369l-123 -55q-22 82 -68 143t-107 94t-125.5 48.5t-135.5 15.5q-104 0 -188 -32.5t-140 -88.5t-93.5 -133.5t-54 -164
t-16.5 -183.5q0 -99 17 -186.5t55.5 -166t95 -134.5t140.5 -89t188 -33q96 0 175.5 27.5t149.5 97t109 179.5l123 -56q-79 -178 -224 -274t-345 -96z" />
    <glyph glyph-name="D" unicode="D" horiz-adv-x="1405" 
d="M219 0v1413h348q341 0 524 -184.5t183 -532.5q0 -334 -185 -515t-524 -181h-346zM354 123h187q127 0 234.5 36t189 106t128 183.5t46.5 258.5q0 282 -147 434.5t-429 152.5h-209v-1171z" />
    <glyph glyph-name="E" unicode="E" horiz-adv-x="1237" 
d="M219 0v1413h909v-113h-774v-538h662v-109h-662v-532h774v-121h-909z" />
    <glyph glyph-name="F" unicode="F" horiz-adv-x="1186" 
d="M219 0v1413h883v-113h-748v-538h660v-109h-660v-653h-135z" />
    <glyph glyph-name="G" unicode="G" horiz-adv-x="1503" 
d="M758 -20q-156 0 -277 57.5t-195.5 158t-112.5 230t-38 281.5q0 151 38.5 281t113.5 231t195.5 159t273.5 58q196 0 339.5 -94.5t223.5 -274.5l-125 -55q-142 293 -440 293q-125 0 -220.5 -47.5t-152 -130.5t-85 -186.5t-28.5 -223.5q0 -126 28.5 -233t85.5 -192.5
t153.5 -134t222.5 -48.5q95 0 177.5 32t145.5 92.5t99.5 154.5t36.5 210h-324v104h448v-702h-114l4 272q-43 -120 -169 -206t-304 -86z" />
    <glyph glyph-name="H" unicode="H" horiz-adv-x="1446" 
d="M219 0v1413h135v-651h738v651h135v-1413h-135v653h-738v-653h-135z" />
    <glyph glyph-name="I" unicode="I" horiz-adv-x="573" 
d="M219 0v1413h135v-1413h-135z" />
    <glyph glyph-name="J" unicode="J" horiz-adv-x="1114" 
d="M496 -20q-182 0 -291.5 114.5t-122.5 290.5l131 18q4 -59 22 -111.5t50.5 -97.5t87 -71.5t123.5 -26.5q70 0 121.5 20.5t82.5 54.5t50 85t25.5 103.5t6.5 119.5v821h-532v113h668v-913q0 -520 -422 -520z" />
    <glyph glyph-name="K" unicode="K" horiz-adv-x="1442" 
d="M219 0v1413h135v-852l805 852h170l-526 -551l565 -862h-160l-493 768l-361 -373v-395h-135z" />
    <glyph glyph-name="L" unicode="L" horiz-adv-x="1030" 
d="M219 0v1413h135v-1292h604v-121h-739z" />
    <glyph glyph-name="M" unicode="M" horiz-adv-x="1753" 
d="M219 0v1413h238l415 -1167l424 1167h238v-1413h-135v1331l-445 -1208h-155l-443 1208v-1331h-137z" />
    <glyph glyph-name="N" unicode="N" horiz-adv-x="1409" 
d="M219 0v1413h223l613 -1309v1309h135v-1413h-227l-607 1311v-1311h-137z" />
    <glyph glyph-name="O" unicode="O" horiz-adv-x="1511" 
d="M754 -20q-153 0 -273.5 58t-195.5 158.5t-113.5 230.5t-38.5 280q0 119 24 226.5t74 199t122.5 158.5t175 105t225.5 38q124 0 227.5 -38t176 -104.5t122.5 -158.5t74 -199.5t24 -226.5q0 -120 -24 -227t-74 -199t-122.5 -158.5t-176 -104.5t-227.5 -38zM754 106
q128 0 226.5 49.5t156.5 135t87 190.5t29 226q0 96 -17.5 182t-56.5 163t-96 133.5t-141.5 89t-187.5 32.5q-101 0 -184.5 -32.5t-140 -89t-95.5 -133.5t-56.5 -163.5t-17.5 -181.5q0 -96 17.5 -182.5t56.5 -163.5t95.5 -133.5t140 -89t184.5 -32.5z" />
    <glyph glyph-name="P" unicode="P" horiz-adv-x="1143" 
d="M219 0v1413h385q203 0 321.5 -102.5t118.5 -280.5q0 -182 -117.5 -280.5t-322.5 -98.5h-250v-651h-135zM354 768h250q147 0 227 66t80 196q0 126 -81 196t-226 70h-250v-528z" />
    <glyph glyph-name="Q" unicode="Q" horiz-adv-x="1538" 
d="M1333 -92l-190 198q-146 -126 -389 -126q-153 0 -273.5 58t-195.5 158.5t-113.5 230.5t-38.5 280q0 119 24 226.5t74 199t122.5 158.5t175 105t225.5 38q124 0 227.5 -37.5t176 -104.5t122.5 -158.5t74 -199t24 -227.5q0 -325 -159 -519l192 -198zM754 100q177 0 297 93
l-201 210l74 84l204 -211q115 165 115 431q0 96 -16.5 182.5t-54 165t-93 135t-139 90t-186.5 33.5q-101 0 -183.5 -33.5t-138 -90t-93 -135t-54.5 -165t-17 -182.5t17 -183t54.5 -165t93 -135t138 -90.5t183.5 -33.5z" />
    <glyph glyph-name="R" unicode="R" horiz-adv-x="1208" 
d="M219 -2v1413h391q188 0 310 -105t122 -282q0 -144 -83 -242t-224 -123l381 -661h-160l-354 641h-248v-641h-135zM356 770h281q123 6 198.5 72t75.5 184q0 126 -83 196t-216 70h-256v-522z" />
    <glyph glyph-name="S" unicode="S" 
d="M567 -16q-179 0 -313 96t-162 272l123 39q15 -139 115 -213t237 -74t218 67.5t81 203.5q0 61 -23.5 111t-62.5 84.5t-90 64t-107.5 55l-113 51t-107.5 57.5t-90 70t-62.5 93t-23.5 122q0 154 107 252.5t262 98.5q257 0 383 -213l-96 -68q-43 83 -119 124.5t-168 41.5
q-97 0 -168.5 -60.5t-71.5 -160.5q0 -67 37.5 -119t97.5 -88t132.5 -69t145 -71t132.5 -84t97.5 -118t37.5 -164q0 -181 -120.5 -291t-307.5 -110z" />
    <glyph glyph-name="T" unicode="T" horiz-adv-x="1247" 
d="M555 0v1307h-485v106h1108v-106h-486v-1307h-137z" />
    <glyph glyph-name="U" unicode="U" horiz-adv-x="1346" 
d="M672 -20q-124 0 -219 44.5t-150 120.5t-82.5 168.5t-27.5 196.5v903h135v-854q0 -453 344 -453q77 0 137.5 23.5t99.5 64t64.5 99t36 124t10.5 142.5v854h135v-893q0 -86 -17 -163.5t-54.5 -147t-92.5 -120t-137 -80t-182 -29.5z" />
    <glyph glyph-name="V" unicode="V" horiz-adv-x="1319" 
d="M600 0l-524 1413h137l449 -1253l448 1253h133l-520 -1413h-123z" />
    <glyph glyph-name="W" unicode="W" horiz-adv-x="1966" 
d="M477 0l-391 1413h137l344 -1263l361 1181h110l363 -1181l342 1263h137l-391 -1413h-156l-346 1112l-354 -1112h-156z" />
    <glyph glyph-name="X" unicode="X" horiz-adv-x="1239" 
d="M84 0l467 707l-465 706h160l375 -596l376 596h156l-461 -706l463 -707h-156l-381 586l-374 -586h-160z" />
    <glyph glyph-name="Y" unicode="Y" horiz-adv-x="1315" 
d="M594 0v553l-528 860h155l436 -719l439 719h153l-526 -860v-553h-129z" />
    <glyph glyph-name="Z" unicode="Z" horiz-adv-x="1274" 
d="M94 0v111l922 1189h-877v113h1030v-117l-917 -1173h917v-123h-1075z" />
    <glyph glyph-name="bracketleft" unicode="[" horiz-adv-x="631" 
d="M211 -76v1563h344v-74h-236v-1413h236v-76h-344z" />
    <glyph glyph-name="backslash" unicode="\" horiz-adv-x="926" 
d="M770 -430l-747 1946h135l745 -1946h-133z" />
    <glyph glyph-name="bracketright" unicode="]" horiz-adv-x="631" 
d="M76 -76v76h235v1413h-235v74h344v-1563h-344z" />
    <glyph glyph-name="asciicircum" unicode="^" horiz-adv-x="973" 
d="M139 848l346 563l351 -563h-138l-213 342l-209 -342h-137z" />
    <glyph glyph-name="underscore" unicode="_" horiz-adv-x="1233" 
d="M236 -96v96h761v-96h-761z" />
    <glyph glyph-name="grave" unicode="`" horiz-adv-x="537" 
d="M311 1126l-245 287h176l215 -287h-146z" />
    <glyph glyph-name="a" unicode="a" horiz-adv-x="1016" 
d="M397 -20q-140 0 -227.5 78t-87.5 212q0 295 450 295h222q0 346 -258 346q-175 0 -287 -153l-90 71q137 191 366 191q184 0 282.5 -109.5t98.5 -296.5v-614h-108v205q-50 -112 -147 -168.5t-214 -56.5zM410 86q79 0 146 35.5t109 91.5t65.5 122.5t23.5 131.5h-207
q-171 0 -252.5 -45t-81.5 -154q0 -94 54.5 -138t142.5 -44z" />
    <glyph glyph-name="b" unicode="b" horiz-adv-x="1116" 
d="M616 -20q-209 0 -317 165v-145h-123v1413h123v-559q111 166 317 166q124 0 215.5 -71t136 -187.5t44.5 -261.5q0 -146 -44.5 -262t-136 -187t-215.5 -71zM584 82q76 0 135.5 35t95 94.5t54 133t18.5 155.5q0 81 -18.5 154.5t-54 133t-95 95t-135.5 35.5q-75 0 -133.5 -35
t-93 -95t-51.5 -133t-17 -155q0 -112 29 -203.5t97.5 -153t168.5 -61.5z" />
    <glyph glyph-name="c" unicode="c" horiz-adv-x="967" 
d="M522 -20q-134 0 -231.5 73.5t-144 189t-46.5 255.5q0 103 27 196t78 166t132.5 116.5t182.5 43.5q129 0 227 -69t152 -189l-119 -53q-22 95 -94 152t-166 57q-78 0 -136.5 -38.5t-91 -102t-48 -134t-15.5 -145.5q0 -76 15.5 -146t47.5 -132.5t91 -100t137 -37.5
q96 0 167 56t93 149l107 -49q-44 -122 -139 -190t-226 -68z" />
    <glyph glyph-name="d" unicode="d" horiz-adv-x="1118" 
d="M817 1413h125v-1413h-125v146q-55 -78 -130.5 -122t-188.5 -44q-121 0 -212 70.5t-136.5 187.5t-45.5 262t45.5 262t136.5 187.5t212 70.5q209 0 319 -166v559zM530 82q77 0 136 35t93 95t51 132.5t17 155.5q0 82 -17 154.5t-51 133t-93 95.5t-136 35q-75 0 -133.5 -35
t-93.5 -95t-52.5 -133t-17.5 -155t17.5 -155.5t52.5 -133t93.5 -94.5t133.5 -35z" />
    <glyph glyph-name="e" unicode="e" horiz-adv-x="1030" 
d="M537 -12q-107 0 -192 40.5t-137.5 110.5t-80 160.5t-27.5 194.5q0 82 16.5 157.5t51.5 141.5t84 114.5t118 76.5t150 28q92 0 165 -28.5t118.5 -75t76 -110.5t42.5 -130.5t12 -139.5q0 -35 -4 -71h-699q-5 -151 76 -256t228 -105q96 0 164.5 23.5t125.5 83.5l86 -66
q-81 -79 -168.5 -114t-205.5 -35zM231 565h584q0 66 -15 124t-47.5 109t-92 81t-140.5 30q-70 0 -125 -28t-90 -76.5t-53.5 -109.5t-20.5 -130z" />
    <glyph glyph-name="f" unicode="f" horiz-adv-x="676" 
d="M217 0v897h-182v102h182v177q0 126 73 192t185 66q84 0 160 -37l-25 -99q-71 33 -127 33q-66 0 -104.5 -40.5t-38.5 -119.5v-172h301v-102h-301v-897h-123z" />
    <glyph glyph-name="g" unicode="g" horiz-adv-x="1018" 
d="M508 123q176 -25 245 -49q144 -51 168 -174q5 -27 5 -58q0 -96 -56.5 -165t-142.5 -100.5t-190 -31.5q-186 0 -304 97t-118 239q0 23 2 37l154 158q-134 70 -134 207q0 97 68 156q-84 90 -84 227q0 156 103.5 251t260.5 95q161 0 263 -102l151 139l74 -95l-165 -128
q36 -75 36 -160q0 -156 -101.5 -247t-259.5 -91q-103 0 -187 42q-46 -37 -46 -83q0 -39 20.5 -68.5t59.5 -48t81 -29.5t97 -18zM481 911q-104 0 -168.5 -71t-64.5 -170q0 -108 63.5 -173t169.5 -65q107 0 171.5 65t64.5 173q0 101 -65.5 171t-170.5 70zM551 -338
q109 0 187.5 45t78.5 129q0 26 -8.5 47t-20 35.5t-34.5 27t-42 20t-53 15t-56.5 11t-64 10t-63.5 10.5q-56 10 -104 24l-135 -157q-2 -83 83.5 -150t231.5 -67z" />
    <glyph glyph-name="h" unicode="h" horiz-adv-x="1112" 
d="M176 0v1413h123v-590q48 85 140 139t194 54q85 0 149.5 -31.5t102.5 -86.5t57 -125t19 -152v-621h-127v598q0 57 -9.5 106t-32.5 94.5t-68.5 72t-109.5 26.5q-133 0 -224 -103.5t-91 -246.5v-547h-123z" />
    <glyph glyph-name="i" unicode="i" horiz-adv-x="477" 
d="M164 1229v184h149v-184h-149zM176 0v999h125v-999h-125z" />
    <glyph glyph-name="j" unicode="j" horiz-adv-x="481" 
d="M166 1237v176h149v-176h-149zM57 -438q-64 0 -145 30l25 89q53 -17 122 -17q63 0 90 42.5t27 103.5v1189h129v-1167q0 -126 -60.5 -198t-187.5 -72z" />
    <glyph glyph-name="k" unicode="k" horiz-adv-x="1030" 
d="M176 0v1413h127v-983l463 569h154l-314 -362l385 -637h-149l-310 547l-229 -254v-293h-127z" />
    <glyph glyph-name="l" unicode="l" horiz-adv-x="504" 
d="M322 -20q-32 0 -56 7t-40 15.5t-26.5 27t-16 31.5t-8.5 40t-3 40v44v18v1210h127v-1272q0 -42 28 -51q6 -2 13 -2q54 0 104 10v-98q-52 -20 -122 -20z" />
    <glyph glyph-name="m" unicode="m" horiz-adv-x="1688" 
d="M174 0v999h127v-168q28 78 104.5 133.5t172.5 55.5q113 0 195.5 -54.5t115.5 -162.5q45 105 122 161t183 56q89 0 156.5 -32t107 -89.5t59 -130t19.5 -160.5v-608h-127v598q0 45 -5.5 87t-21.5 85.5t-40.5 75t-65.5 52t-94 20.5q-82 0 -144 -55.5t-91 -137t-29 -170.5
v-555h-127v602q0 59 -10 110t-33 100t-69.5 77.5t-111.5 28.5q-63 0 -114.5 -35.5t-84 -94t-50 -129.5t-17.5 -145v-514h-127z" />
    <glyph glyph-name="n" unicode="n" horiz-adv-x="1108" 
d="M174 0v999h125v-188q50 95 133 150t197 55q111 0 186.5 -56.5t108 -146t32.5 -205.5v-608h-125v598q0 57 -11 108.5t-35.5 100t-73 77.5t-115.5 29q-128 0 -212.5 -105t-84.5 -296v-512h-125z" />
    <glyph glyph-name="o" unicode="o" horiz-adv-x="1116" 
d="M555 -20q-134 0 -240 71t-163.5 190t-57.5 261t57.5 260t163.5 188t240 70t241.5 -70t166.5 -188.5t59 -259.5q0 -142 -59 -261t-166.5 -190t-241.5 -71zM557 82q84 0 151 36t107 96.5t61 134t21 153.5q0 109 -35 201t-113.5 153.5t-189.5 61.5q-84 0 -150.5 -35.5
t-107 -94.5t-61.5 -132.5t-21 -153.5q0 -81 21 -155t61.5 -134t106.5 -95.5t149 -35.5z" />
    <glyph glyph-name="p" unicode="p" horiz-adv-x="1118" 
d="M176 -438v1437h125v-145q50 77 129.5 121.5t181.5 44.5q128 0 220.5 -70.5t137 -186.5t44.5 -263q0 -146 -44 -261.5t-136.5 -187t-221.5 -71.5q-100 0 -179.5 43t-131.5 122v-583h-125zM588 82q76 0 135 35t94.5 94.5t53.5 133t18 155.5t-18 155t-53.5 133t-94.5 95
t-135 35q-101 0 -170.5 -62t-99 -153.5t-29.5 -202.5q0 -112 29.5 -203.5t99 -153t170.5 -61.5z" />
    <glyph glyph-name="q" unicode="q" horiz-adv-x="1120" 
d="M817 -438v583q-112 -165 -311 -165q-127 0 -219.5 70.5t-137.5 186.5t-45 263q0 146 45 262.5t137.5 187t219.5 70.5q101 0 181 -44t130 -122v145h127v-1437h-127zM532 82q76 0 134.5 35t92.5 95.5t51 133t17 154.5t-17 154.5t-51 133t-92.5 95.5t-134.5 35t-135 -35
t-94 -94.5t-52.5 -133t-17.5 -155.5t17.5 -155.5t52.5 -133t94 -94.5t135 -35z" />
    <glyph glyph-name="r" unicode="r" horiz-adv-x="791" 
d="M174 0v999h127v-180q40 92 122 146.5t179 54.5q87 0 156 -47l-51 -111q-44 39 -125 39q-137 0 -210 -101t-73 -282v-518h-125z" />
    <glyph glyph-name="s" unicode="s" horiz-adv-x="858" 
d="M444 -20q-130 0 -227 69t-133 170l109 60q28 -90 94 -143.5t164 -53.5q89 0 146.5 44.5t57.5 131.5q0 47 -18.5 83.5t-49.5 59.5t-71.5 41t-85 33l-89 30t-85 35.5t-71.5 47.5t-49.5 68.5t-18.5 95.5q0 124 87 196t216 72q108 0 189.5 -52.5t125.5 -142.5l-90 -53
q-70 146 -229 146q-85 0 -136 -42t-51 -110q0 -45 23.5 -78t62 -52t87.5 -37.5t100.5 -32.5t100.5 -38t87.5 -53.5t62 -80t23.5 -115.5q0 -73 -27.5 -131t-74.5 -94t-106 -55t-124 -19z" />
    <glyph glyph-name="t" unicode="t" horiz-adv-x="653" 
d="M432 -20q-122 0 -172.5 73t-50.5 209v635h-160v102h160v220l125 131v-351h254v-102h-254v-647q0 -82 36 -126t95 -44q41 0 90 22v-104q-41 -18 -123 -18z" />
    <glyph glyph-name="u" unicode="u" 
d="M487 -23q-88 0 -154.5 33.5t-105.5 93t-58 135.5t-19 167v593h124v-604q0 -45 5.5 -86.5t20.5 -84.5t38.5 -73.5t63 -50.5t90.5 -20q127 0 221 104.5t94 235.5v579h123v-999h-123v182q-29 -75 -117 -140t-203 -65z" />
    <glyph glyph-name="v" unicode="v" horiz-adv-x="936" 
d="M412 0l-365 999h137l285 -835l287 835h133l-363 -999h-114z" />
    <glyph glyph-name="w" unicode="w" horiz-adv-x="1407" 
d="M332 0l-273 999h134l213 -845l239 845h119l240 -843l210 843h134l-273 -999h-127l-241 850l-248 -850h-127z" />
    <glyph glyph-name="x" unicode="x" horiz-adv-x="893" 
d="M55 0l336 504l-336 495h154l240 -381l241 381h148l-330 -495l330 -504h-148l-241 389l-240 -389h-154z" />
    <glyph glyph-name="y" unicode="y" horiz-adv-x="961" 
d="M260 -430l168 430l-383 999h139l303 -847l291 847h137l-526 -1429h-129z" />
    <glyph glyph-name="z" unicode="z" horiz-adv-x="911" 
d="M831 999v-110l-613 -780h613v-109h-761v100l622 797h-594v102h733z" />
    <glyph glyph-name="braceleft" unicode="{" horiz-adv-x="594" 
d="M403 -111q-86 0 -147 76q-33 42 -33 135v369q0 79 -131 125v104q131 31 131 156v428q0 101 46 152t155 51h53q4 0 11.5 0.5t14.5 0.5t13 -1v-72q-22 4 -55 4q-119 0 -119 -69v-506q0 -70 -44 -117.5t-144 -85.5q96 -32 142 -69t46 -97v-364q0 -154 141 -154q18 0 33 6
v-72q-6 -1 -13.5 -1t-15.5 0.5t-12 0.5h-72z" />
    <glyph glyph-name="bar" unicode="|" horiz-adv-x="621" 
d="M264 -512v2046h92v-2046h-92z" />
    <glyph glyph-name="braceright" unicode="}" horiz-adv-x="594" 
d="M121 -111q-5 0 -14 -0.5t-16 -0.5t-13 1v72q18 -6 33 -6q141 0 141 154v364q0 60 48.5 98.5t139.5 67.5q-105 40 -146.5 86.5t-41.5 116.5v506q0 69 -119 69q-31 0 -55 -4v72q0 1 20 0.5t21 -0.5h51q109 0 155 -51t46 -152v-428q0 -125 131 -156v-104q-131 -46 -131 -125
v-369q0 -100 -29 -137q-32 -37 -65 -55.5t-84 -18.5h-72z" />
    <glyph glyph-name="asciitilde" unicode="~" horiz-adv-x="1161" 
d="M739 379q-43 0 -82 19.5t-68 47.5t-56.5 56t-60 47.5t-66.5 19.5q-57 0 -82 -47t-23 -116h-82q0 106 47 175.5t137 69.5q52 0 95 -19t71.5 -46.5t54 -55t56 -46.5t65.5 -19q109 0 109 180h90q0 -126 -54 -196t-151 -70z" />
    <glyph glyph-name="uni00A0" unicode="&#xa0;" horiz-adv-x="563" 
 />
    <glyph glyph-name="exclamdown" unicode="&#xa1;" horiz-adv-x="627" 
d="M223 823v176h178v-176h-178zM236 -436l28 1067h96l29 -1067h-153z" />
    <glyph glyph-name="cent" unicode="&#xa2;" horiz-adv-x="1139" 
d="M557 -205v191q-122 12 -209.5 86t-128.5 184t-41 242t40.5 241t128.5 184.5t210 88.5v188h92v-188q112 -13 201.5 -79t134.5 -171l-131 -55q-22 80 -91.5 131t-156.5 51q-77 0 -135 -35t-90.5 -93t-48 -124.5t-15.5 -138.5q0 -73 15 -139t47.5 -124.5t90.5 -93.5t136 -35
q86 0 156.5 50.5t91.5 132.5l119 -51q-38 -111 -124 -178t-200 -76v-189h-92z" />
    <glyph glyph-name="sterling" unicode="&#xa3;" horiz-adv-x="1251" 
d="M170 0v96q10 8 26.5 22.5t58.5 57.5t74 84.5t58.5 97t26.5 101.5q0 36 -7 82.5t-13 74.5l-7 29h-215v115h186q-6 14 -14.5 38t-22.5 90t-14 122q0 114 43.5 208t133 153t210.5 59q127 0 222 -78t141 -201l-109 -41q-33 93 -100 149t-154 56q-126 0 -199 -84.5t-73 -218.5
q0 -54 13 -117t25 -99l13 -36h471v-115h-440q22 -100 22 -184q0 -55 -18.5 -111t-45.5 -96.5t-54 -73t-46 -48.5l-18 -17h836v-115h-1010z" />
    <glyph glyph-name="currency" unicode="&#xa4;" horiz-adv-x="1382" 
d="M319 176l-83 88l104 103q-91 115 -91.5 264.5t91.5 263.5l-102 100l84 90l102 -106q117 92 266 93t266 -91l103 102l84 -84l-101 -102q91 -116 91 -266t-91 -266l101 -101l-82 -88l-105 105q-116 -92 -266.5 -92t-267.5 92zM457 403q97 -97 231.5 -97t231.5 97
q93 94 92.5 227.5t-94.5 227.5q-98 95 -230 94t-229 -96q-92 -92 -93 -226.5t91 -226.5z" />
    <glyph glyph-name="yen" unicode="&#xa5;" horiz-adv-x="1303" 
d="M588 0v322h-299v100h299v119h-299v98h252l-475 774h147l440 -708l439 708h145l-475 -772h254v-100h-301v-119h301v-100h-301v-322h-127z" />
    <glyph glyph-name="brokenbar" unicode="&#xa6;" horiz-adv-x="612" 
d="M264 731v744h84v-744h-84zM264 -307v727h84v-727h-84z" />
    <glyph glyph-name="section" unicode="&#xa7;" horiz-adv-x="1128" 
d="M569 -18q-149 0 -254 71t-147 209l115 41q52 -207 286 -207q46 0 86 7.5t78 26t60 55.5t22 89q0 41 -20.5 70t-55 46t-79.5 29.5t-94.5 22.5t-99 22t-94.5 32t-79.5 48t-55 74.5t-20.5 108.5q0 63 28.5 121t78.5 98q-48 31 -76.5 84t-28.5 113q0 133 100.5 212t237.5 79
q130 0 224 -65.5t143 -197.5l-123 -28q-49 176 -246 176q-88 0 -154.5 -46t-66.5 -134q0 -49 33 -80.5t85.5 -47t116.5 -27.5t128 -30t116.5 -46t85.5 -84t33 -136q0 -136 -101 -215q101 -70 101 -201q0 -74 -30.5 -131.5t-82 -91t-115 -50.5t-135.5 -17zM700 522
q115 48 115 174q0 41 -20 73t-49 51t-72 34.5t-77 22.5t-77.5 15.5t-60.5 12.5q-59 -23 -92 -69.5t-33 -106.5q0 -39 21 -70t52.5 -49.5t75 -34t80 -23t78 -16.5t59.5 -14z" />
    <glyph glyph-name="dieresis" unicode="&#xa8;" horiz-adv-x="831" 
d="M170 1229v184h160v-184h-160zM502 1229v184h160v-184h-160z" />
    <glyph glyph-name="copyright" unicode="&#xa9;" horiz-adv-x="1753" 
d="M877 -51q-152 0 -289.5 60t-237 161.5t-158.5 242t-59 294.5t59 294t158.5 241.5t237 161.5t289.5 60q151 0 288.5 -60t237 -161.5t158.5 -241.5t59 -294t-59 -294.5t-158.5 -242t-237 -161.5t-288.5 -60zM877 51q171 0 319 89.5t235 241t87 325.5q0 130 -51.5 251
t-138 209.5t-205 141.5t-246.5 53t-247.5 -53t-206 -141.5t-138.5 -209.5t-52 -251q0 -174 87.5 -325.5t236.5 -241t320 -89.5zM893 309q-165 0 -254.5 111.5t-89.5 284.5q0 172 89.5 283.5t254.5 111.5q97 0 176.5 -46.5t118.5 -129.5l-92 -39q-28 53 -82.5 83.5
t-120.5 30.5q-121 0 -183.5 -85t-62.5 -209q0 -123 61.5 -208t182.5 -85q64 0 120 30.5t83 85.5l94 -41q-39 -84 -118 -131t-177 -47z" />
    <glyph glyph-name="ordfeminine" unicode="&#xaa;" horiz-adv-x="823" 
d="M328 709q-95 0 -160.5 58t-65.5 151q0 105 69 155.5t187 50.5h217q0 222 -178 222q-58 0 -106.5 -29.5t-75.5 -71.5l-84 53q52 70 116 103t154 33q131 0 202 -75.5t71 -205.5v-430h-88l-6 125q-47 -72 -107 -105.5t-145 -33.5zM354 801q92 0 157.5 73t63.5 162h-206
q-65 0 -108.5 -31.5t-43.5 -86.5q0 -51 43 -84t94 -33z" />
    <glyph glyph-name="guillemotleft" unicode="&#xab;" horiz-adv-x="965" 
d="M430 193l-354 319l354 317v-149l-197 -168l197 -170v-149zM795 193l-357 319l357 317v-149l-199 -168l199 -170v-149z" />
    <glyph glyph-name="logicalnot" unicode="&#xac;" horiz-adv-x="1280" 
d="M901 291v393h-743v113h860v-506h-117z" />
    <glyph glyph-name="uni00AD" unicode="&#xad;" horiz-adv-x="971" 
d="M166 596v96h639v-96h-639z" />
    <glyph glyph-name="registered" unicode="&#xae;" horiz-adv-x="1753" 
d="M877 -49q-152 0 -289.5 60t-237 161.5t-158.5 242t-59 294.5t59 294t158.5 241.5t237 161.5t289.5 60q151 0 288.5 -60t237 -161.5t158.5 -241.5t59 -294t-59 -294.5t-158.5 -242t-237 -161.5t-288.5 -60zM877 45q174 0 323.5 89.5t237.5 243t88 331.5t-88 331
t-237.5 242.5t-323.5 89.5q-175 0 -325 -89.5t-238.5 -242.5t-88.5 -331t88.5 -331.5t238.5 -243t325 -89.5zM633 307v789h297q256 0 256 -228q0 -96 -48.5 -149.5t-123.5 -65.5l203 -346h-125l-179 338h-174v-338h-106zM729 739h201q160 0 160 129q0 69 -39.5 100
t-120.5 31h-201v-260z" />
    <glyph glyph-name="macron" unicode="&#xaf;" horiz-adv-x="868" 
d="M162 1192v121h536v-121h-536z" />
    <glyph glyph-name="degree" unicode="&#xb0;" horiz-adv-x="969" 
d="M485 848q-121 0 -206.5 86t-85.5 207t85.5 207t206.5 86q120 0 205.5 -86t85.5 -207t-85.5 -207t-205.5 -86zM485 924q88 0 151.5 64t63.5 153t-63.5 153t-151.5 64q-89 0 -153 -64t-64 -153t64 -153t153 -64z" />
    <glyph glyph-name="plusminus" unicode="&#xb1;" horiz-adv-x="1317" 
d="M610 106v472h-456v96h456v469h97v-469h456v-96h-456v-472h-97zM154 -96v96h1009v-96h-1009z" />
    <glyph glyph-name="acute" unicode="&#xb4;" horiz-adv-x="530" 
d="M74 1124l215 289h176l-268 -289h-123z" />
    <glyph glyph-name="uni00B5" unicode="&#xb5;" horiz-adv-x="1298" 
d="M264 -266v1265h139v-600q0 -59 9.5 -108t32 -94t66 -71t105.5 -26q125 0 216.5 98t91.5 226v575h139v-999h-139v186q-31 -78 -121 -143.5t-201 -65.5q-109 0 -196 56l-23 -299h-119z" />
    <glyph glyph-name="paragraph" unicode="&#xb6;" horiz-adv-x="1350" 
d="M586 -246v869q-119 0 -221 45.5t-167 137.5t-65 212t65 212t167 137.5t221 45.5h127v-1659h-127zM958 -246v1659h127v-1659h-127z" />
    <glyph glyph-name="periodcentered" unicode="&#xb7;" horiz-adv-x="649" 
d="M324 711q-49 0 -84 34.5t-35 83.5q0 52 34 85.5t85 33.5q50 0 84 -34t34 -85q0 -49 -34.5 -83.5t-83.5 -34.5z" />
    <glyph glyph-name="cedilla" unicode="&#xb8;" horiz-adv-x="580" 
d="M266 -500q-62 0 -110 35.5t-68 87.5l90 49q5 -31 31 -54.5t63 -23.5q46 0 74.5 29.5t28.5 71.5q0 52 -48.5 90.5t-142.5 38.5h-34l92 176h112l-65 -121q90 -1 137 -52t47 -124q0 -79 -56.5 -141t-150.5 -62z" />
    <glyph glyph-name="ordmasculine" unicode="&#xba;" horiz-adv-x="874" 
d="M438 711q-147 0 -241.5 104.5t-94.5 257.5q0 152 95 256.5t241 104.5t240 -104.5t94 -256.5q0 -153 -94 -257.5t-240 -104.5zM438 811q107 0 159 74t52 188q0 113 -52 187.5t-159 74.5q-73 0 -122.5 -38t-70 -95t-20.5 -129q0 -114 52.5 -188t160.5 -74z" />
    <glyph glyph-name="guillemotright" unicode="&#xbb;" horiz-adv-x="965" 
d="M168 193v149l197 170l-197 168v149l354 -317zM530 193v149l197 170l-197 168v149l357 -317z" />
    <glyph glyph-name="questiondown" unicode="&#xbf;" horiz-adv-x="1026" 
d="M428 823v176h178v-176h-178zM526 -434q-175 0 -290 93t-115 261q0 68 19 120t48.5 83.5t66 56t73 44t66 40t48.5 52t19 73.5v246h119v-248q0 -58 -18.5 -100t-48 -67t-65 -45l-71 -40t-65 -46t-48 -69.5t-18.5 -103.5q0 -116 77 -175.5t197 -59.5q117 0 195.5 67
t79.5 184h127q-1 -167 -114 -266.5t-282 -99.5z" />
    <glyph glyph-name="Agrave" unicode="&#xc0;" horiz-adv-x="1296" 
d="M575 1540l-245 287h176l215 -287h-146zM76 0l522 1413h104l519 -1413h-144l-108 307h-639l-107 -307h-147zM375 434h549l-273 780z" />
    <glyph glyph-name="Aacute" unicode="&#xc1;" horiz-adv-x="1296" 
d="M559 1538l215 289h176l-268 -289h-123zM76 0l522 1413h104l519 -1413h-144l-108 307h-639l-107 -307h-147zM375 434h549l-273 780z" />
    <glyph glyph-name="Acircumflex" unicode="&#xc2;" horiz-adv-x="1296" 
d="M317 1512l332 356l332 -356h-154l-178 196l-176 -196h-156zM76 0l522 1413h104l519 -1413h-144l-108 307h-639l-107 -307h-147zM375 434h549l-273 780z" />
    <glyph glyph-name="Atilde" unicode="&#xc3;" horiz-adv-x="1296" 
d="M768 1571q-36 0 -68 16.5t-54.5 40t-43 47t-43 40t-45.5 16.5q-70 0 -70 -137h-90q0 108 41 174.5t117 66.5q41 0 75 -17t56.5 -41t42 -48t41 -41t43.5 -17q74 0 74 158h96q0 -125 -44.5 -191.5t-127.5 -66.5zM76 0l522 1413h104l519 -1413h-144l-108 307h-639l-107 -307
h-147zM375 434h549l-273 780z" />
    <glyph glyph-name="Adieresis" unicode="&#xc4;" horiz-adv-x="1296" 
d="M401 1643v184h160v-184h-160zM733 1643v184h160v-184h-160zM76 0l522 1413h104l519 -1413h-144l-108 307h-639l-107 -307h-147zM375 434h549l-273 780z" />
    <glyph glyph-name="Aring" unicode="&#xc5;" horiz-adv-x="1296" 
d="M76 0l493 1339q-52 24 -84 73t-32 110q0 82 56.5 139t137.5 57t140 -56.5t59 -139.5q0 -59 -32.5 -108t-84.5 -71l492 -1343h-144l-108 307h-639l-107 -307h-147zM647 1421q42 0 71.5 29t29.5 72q0 42 -28.5 70t-72.5 28t-71 -27t-27 -71t28 -72.5t70 -28.5zM375 434h549
l-273 780z" />
    <glyph glyph-name="AE" unicode="&#xc6;" horiz-adv-x="1804" 
d="M76 0l518 1413h1100v-108h-748v-541h660v-115h-660v-534h748v-115h-883v307h-483l-111 -307h-141zM369 434h442v871h-129z" />
    <glyph glyph-name="Ccedilla" unicode="&#xc7;" horiz-adv-x="1417" 
d="M1321 350q-69 -156 -188.5 -249t-283.5 -115l-58 -107q90 -1 137 -52t47 -124q0 -79 -56.5 -141t-150.5 -62q-62 0 -110 35.5t-68 87.5l90 49q5 -31 31 -54.5t63 -23.5q46 0 74.5 29.5t28.5 71.5q0 52 -48.5 90.5t-142.5 38.5h-34l82 156q-149 4 -265 62.5t-188 158.5
t-109 229.5t-37 280.5q0 120 22.5 226t72 198t122.5 158.5t179.5 104.5t236.5 38q415 0 551 -369l-123 -55q-22 82 -68 143t-107 94t-125.5 48.5t-135.5 15.5q-104 0 -188 -32.5t-140 -88.5t-93.5 -133.5t-54 -164t-16.5 -183.5q0 -99 17 -186.5t55.5 -166t95 -134.5
t140.5 -89t188 -33q96 0 175.5 27.5t149.5 97t109 179.5z" />
    <glyph glyph-name="Egrave" unicode="&#xc8;" horiz-adv-x="1237" 
d="M604 1540l-245 287h176l215 -287h-146zM219 0v1413h909v-113h-774v-538h662v-109h-662v-532h774v-121h-909z" />
    <glyph glyph-name="Eacute" unicode="&#xc9;" horiz-adv-x="1237" 
d="M588 1538l215 289h176l-268 -289h-123zM219 0v1413h909v-113h-774v-538h662v-109h-662v-532h774v-121h-909z" />
    <glyph glyph-name="Ecircumflex" unicode="&#xca;" horiz-adv-x="1237" 
d="M346 1512l332 356l332 -356h-154l-178 196l-176 -196h-156zM219 0v1413h909v-113h-774v-538h662v-109h-662v-532h774v-121h-909z" />
    <glyph glyph-name="Edieresis" unicode="&#xcb;" horiz-adv-x="1237" 
d="M430 1643v184h160v-184h-160zM762 1643v184h160v-184h-160zM219 0v1413h909v-113h-774v-538h662v-109h-662v-532h774v-121h-909z" />
    <glyph glyph-name="Igrave" unicode="&#xcc;" horiz-adv-x="573" 
d="M211 1540l-245 287h176l215 -287h-146zM219 0v1413h135v-1413h-135z" />
    <glyph glyph-name="Iacute" unicode="&#xcd;" horiz-adv-x="573" 
d="M195 1538l215 289h176l-268 -289h-123zM219 0v1413h135v-1413h-135z" />
    <glyph glyph-name="Icircumflex" unicode="&#xce;" horiz-adv-x="573" 
d="M-47 1512l332 356l332 -356h-154l-178 196l-176 -196h-156zM219 0v1413h135v-1413h-135z" />
    <glyph glyph-name="Idieresis" unicode="&#xcf;" horiz-adv-x="573" 
d="M37 1643v184h160v-184h-160zM369 1643v184h160v-184h-160zM219 0v1413h135v-1413h-135z" />
    <glyph glyph-name="Eth" unicode="&#xd0;" horiz-adv-x="1421" 
d="M236 0v664h-113v98h113v651h356q338 0 518 -184.5t180 -532.5q0 -334 -182.5 -515t-517.5 -181h-354zM379 129h186q126 0 230 34.5t183 103t123 181t44 259.5q0 282 -140.5 430.5t-416.5 148.5h-209v-524h381v-98h-381v-535z" />
    <glyph glyph-name="Ntilde" unicode="&#xd1;" horiz-adv-x="1409" 
d="M821 1571q-36 0 -68 16.5t-54.5 40t-43 47t-43 40t-45.5 16.5q-70 0 -70 -137h-90q0 108 41 174.5t117 66.5q41 0 75 -17t56.5 -41t42 -48t41 -41t43.5 -17q74 0 74 158h96q0 -125 -44.5 -191.5t-127.5 -66.5zM219 0v1413h223l613 -1309v1309h135v-1413h-227l-607 1311
v-1311h-137z" />
    <glyph glyph-name="Ograve" unicode="&#xd2;" horiz-adv-x="1511" 
d="M680 1540l-245 287h176l215 -287h-146zM754 -20q-153 0 -273.5 58t-195.5 158.5t-113.5 230.5t-38.5 280q0 119 24 226.5t74 199t122.5 158.5t175 105t225.5 38q124 0 227.5 -38t176 -104.5t122.5 -158.5t74 -199.5t24 -226.5q0 -120 -24 -227t-74 -199t-122.5 -158.5
t-176 -104.5t-227.5 -38zM754 106q128 0 226.5 49.5t156.5 135t87 190.5t29 226q0 96 -17.5 182t-56.5 163t-96 133.5t-141.5 89t-187.5 32.5q-101 0 -184.5 -32.5t-140 -89t-95.5 -133.5t-56.5 -163.5t-17.5 -181.5q0 -96 17.5 -182.5t56.5 -163.5t95.5 -133.5t140 -89
t184.5 -32.5z" />
    <glyph glyph-name="Oacute" unicode="&#xd3;" horiz-adv-x="1511" 
d="M664 1538l215 289h176l-268 -289h-123zM754 -20q-153 0 -273.5 58t-195.5 158.5t-113.5 230.5t-38.5 280q0 119 24 226.5t74 199t122.5 158.5t175 105t225.5 38q124 0 227.5 -38t176 -104.5t122.5 -158.5t74 -199.5t24 -226.5q0 -120 -24 -227t-74 -199t-122.5 -158.5
t-176 -104.5t-227.5 -38zM754 106q128 0 226.5 49.5t156.5 135t87 190.5t29 226q0 96 -17.5 182t-56.5 163t-96 133.5t-141.5 89t-187.5 32.5q-101 0 -184.5 -32.5t-140 -89t-95.5 -133.5t-56.5 -163.5t-17.5 -181.5q0 -96 17.5 -182.5t56.5 -163.5t95.5 -133.5t140 -89
t184.5 -32.5z" />
    <glyph glyph-name="Ocircumflex" unicode="&#xd4;" horiz-adv-x="1511" 
d="M422 1512l332 356l332 -356h-154l-178 196l-176 -196h-156zM754 -20q-153 0 -273.5 58t-195.5 158.5t-113.5 230.5t-38.5 280q0 119 24 226.5t74 199t122.5 158.5t175 105t225.5 38q124 0 227.5 -38t176 -104.5t122.5 -158.5t74 -199.5t24 -226.5q0 -120 -24 -227
t-74 -199t-122.5 -158.5t-176 -104.5t-227.5 -38zM754 106q128 0 226.5 49.5t156.5 135t87 190.5t29 226q0 96 -17.5 182t-56.5 163t-96 133.5t-141.5 89t-187.5 32.5q-101 0 -184.5 -32.5t-140 -89t-95.5 -133.5t-56.5 -163.5t-17.5 -181.5q0 -96 17.5 -182.5t56.5 -163.5
t95.5 -133.5t140 -89t184.5 -32.5z" />
    <glyph glyph-name="Otilde" unicode="&#xd5;" horiz-adv-x="1511" 
d="M873 1571q-36 0 -68 16.5t-54.5 40t-43 47t-43 40t-45.5 16.5q-70 0 -70 -137h-90q0 108 41 174.5t117 66.5q41 0 75 -17t56.5 -41t42 -48t41 -41t43.5 -17q74 0 74 158h96q0 -125 -44.5 -191.5t-127.5 -66.5zM754 -20q-153 0 -273.5 58t-195.5 158.5t-113.5 230.5
t-38.5 280q0 119 24 226.5t74 199t122.5 158.5t175 105t225.5 38q124 0 227.5 -38t176 -104.5t122.5 -158.5t74 -199.5t24 -226.5q0 -120 -24 -227t-74 -199t-122.5 -158.5t-176 -104.5t-227.5 -38zM754 106q128 0 226.5 49.5t156.5 135t87 190.5t29 226q0 96 -17.5 182
t-56.5 163t-96 133.5t-141.5 89t-187.5 32.5q-101 0 -184.5 -32.5t-140 -89t-95.5 -133.5t-56.5 -163.5t-17.5 -181.5q0 -96 17.5 -182.5t56.5 -163.5t95.5 -133.5t140 -89t184.5 -32.5z" />
    <glyph glyph-name="Odieresis" unicode="&#xd6;" horiz-adv-x="1511" 
d="M506 1643v184h160v-184h-160zM838 1643v184h160v-184h-160zM754 -20q-153 0 -273.5 58t-195.5 158.5t-113.5 230.5t-38.5 280q0 119 24 226.5t74 199t122.5 158.5t175 105t225.5 38q124 0 227.5 -38t176 -104.5t122.5 -158.5t74 -199.5t24 -226.5q0 -120 -24 -227
t-74 -199t-122.5 -158.5t-176 -104.5t-227.5 -38zM754 106q128 0 226.5 49.5t156.5 135t87 190.5t29 226q0 96 -17.5 182t-56.5 163t-96 133.5t-141.5 89t-187.5 32.5q-101 0 -184.5 -32.5t-140 -89t-95.5 -133.5t-56.5 -163.5t-17.5 -181.5q0 -96 17.5 -182.5t56.5 -163.5
t95.5 -133.5t140 -89t184.5 -32.5z" />
    <glyph glyph-name="multiply" unicode="&#xd7;" horiz-adv-x="1108" 
d="M231 233l-69 68l323 324l-331 331l67 70l334 -334l322 324l69 -68l-323 -323l331 -332l-67 -70l-332 334z" />
    <glyph glyph-name="Oslash" unicode="&#xd8;" horiz-adv-x="1511" 
d="M1143 1303q116 -97 175.5 -253t59.5 -343q0 -120 -24 -227t-74 -199t-122.5 -158.5t-176 -104.5t-227.5 -38q-174 0 -307 75l-31 -55h-114l63 113q-114 98 -173 253t-59 341q0 119 24 226.5t74 199t122.5 158.5t175 105t225.5 38q174 0 306 -74l30 53h115zM260 707
q0 -146 42 -271.5t127 -207.5l569 1020q-104 59 -244 59q-101 0 -184.5 -32.5t-140 -89t-95.5 -133.5t-56.5 -163.5t-17.5 -181.5zM754 106q128 0 226.5 49.5t156.5 135t87 190.5t29 226q0 147 -43 273t-130 208l-571 -1021q105 -61 245 -61z" />
    <glyph glyph-name="Ugrave" unicode="&#xd9;" horiz-adv-x="1346" 
d="M604 1540l-245 287h176l215 -287h-146zM672 -20q-124 0 -219 44.5t-150 120.5t-82.5 168.5t-27.5 196.5v903h135v-854q0 -453 344 -453q77 0 137.5 23.5t99.5 64t64.5 99t36 124t10.5 142.5v854h135v-893q0 -86 -17 -163.5t-54.5 -147t-92.5 -120t-137 -80t-182 -29.5z
" />
    <glyph glyph-name="Uacute" unicode="&#xda;" horiz-adv-x="1346" 
d="M588 1538l215 289h176l-268 -289h-123zM672 -20q-124 0 -219 44.5t-150 120.5t-82.5 168.5t-27.5 196.5v903h135v-854q0 -453 344 -453q77 0 137.5 23.5t99.5 64t64.5 99t36 124t10.5 142.5v854h135v-893q0 -86 -17 -163.5t-54.5 -147t-92.5 -120t-137 -80t-182 -29.5z
" />
    <glyph glyph-name="Ucircumflex" unicode="&#xdb;" horiz-adv-x="1346" 
d="M346 1512l332 356l332 -356h-154l-178 196l-176 -196h-156zM672 -20q-124 0 -219 44.5t-150 120.5t-82.5 168.5t-27.5 196.5v903h135v-854q0 -453 344 -453q77 0 137.5 23.5t99.5 64t64.5 99t36 124t10.5 142.5v854h135v-893q0 -86 -17 -163.5t-54.5 -147t-92.5 -120
t-137 -80t-182 -29.5z" />
    <glyph glyph-name="Udieresis" unicode="&#xdc;" horiz-adv-x="1346" 
d="M430 1643v184h160v-184h-160zM762 1643v184h160v-184h-160zM672 -20q-124 0 -219 44.5t-150 120.5t-82.5 168.5t-27.5 196.5v903h135v-854q0 -453 344 -453q77 0 137.5 23.5t99.5 64t64.5 99t36 124t10.5 142.5v854h135v-893q0 -86 -17 -163.5t-54.5 -147t-92.5 -120
t-137 -80t-182 -29.5z" />
    <glyph glyph-name="Yacute" unicode="&#xdd;" horiz-adv-x="1315" 
d="M567 1538l215 289h176l-268 -289h-123zM594 0v553l-528 860h155l436 -719l439 719h153l-526 -860v-553h-129z" />
    <glyph glyph-name="Thorn" unicode="&#xde;" horiz-adv-x="1149" 
d="M219 0v1413h141v-201h248q201 0 322 -104.5t121 -288.5q0 -177 -120.5 -278t-322.5 -101h-248v-440h-141zM360 571h248q144 0 222.5 62.5t78.5 183.5t-79 186.5t-222 65.5h-248v-498z" />
    <glyph glyph-name="germandbls" unicode="&#xdf;" horiz-adv-x="1176" 
d="M717 -18q-125 0 -281 73l56 123q113 -65 225 -65q74 0 138.5 51.5t64.5 122.5q0 45 -18 85t-46.5 70t-63 59t-69 57.5t-63 59t-46.5 70.5t-18 86q0 40 17.5 72t43.5 51.5t56.5 42.5t56.5 43t43.5 53.5t17.5 75.5q0 88 -70 145.5t-183 57.5q-277 0 -277 -436v-879h-125
v881q0 152 30 261.5t85.5 172t125.5 91t158 28.5q94 0 182 -39.5t147 -117.5t59 -175q0 -54 -23.5 -94t-57.5 -64.5t-68 -46.5t-57.5 -53.5t-23.5 -71.5q0 -33 17.5 -63t45.5 -55t61.5 -50.5t67 -55t61.5 -63t45.5 -80t17.5 -100.5q0 -141 -95.5 -232t-236.5 -91z" />
    <glyph glyph-name="agrave" unicode="&#xe0;" horiz-adv-x="1016" 
d="M428 1126l-245 287h176l215 -287h-146zM397 -20q-140 0 -227.5 78t-87.5 212q0 295 450 295h222q0 346 -258 346q-175 0 -287 -153l-90 71q137 191 366 191q184 0 282.5 -109.5t98.5 -296.5v-614h-108v205q-50 -112 -147 -168.5t-214 -56.5zM410 86q79 0 146 35.5
t109 91.5t65.5 122.5t23.5 131.5h-207q-171 0 -252.5 -45t-81.5 -154q0 -94 54.5 -138t142.5 -44z" />
    <glyph glyph-name="aacute" unicode="&#xe1;" horiz-adv-x="1016" 
d="M412 1124l215 289h176l-268 -289h-123zM397 -20q-140 0 -227.5 78t-87.5 212q0 295 450 295h222q0 346 -258 346q-175 0 -287 -153l-90 71q137 191 366 191q184 0 282.5 -109.5t98.5 -296.5v-614h-108v205q-50 -112 -147 -168.5t-214 -56.5zM410 86q79 0 146 35.5
t109 91.5t65.5 122.5t23.5 131.5h-207q-171 0 -252.5 -45t-81.5 -154q0 -94 54.5 -138t142.5 -44z" />
    <glyph glyph-name="acircumflex" unicode="&#xe2;" horiz-adv-x="1016" 
d="M170 1098l332 356l332 -356h-154l-178 196l-176 -196h-156zM397 -20q-140 0 -227.5 78t-87.5 212q0 295 450 295h222q0 346 -258 346q-175 0 -287 -153l-90 71q137 191 366 191q184 0 282.5 -109.5t98.5 -296.5v-614h-108v205q-50 -112 -147 -168.5t-214 -56.5zM410 86
q79 0 146 35.5t109 91.5t65.5 122.5t23.5 131.5h-207q-171 0 -252.5 -45t-81.5 -154q0 -94 54.5 -138t142.5 -44z" />
    <glyph glyph-name="atilde" unicode="&#xe3;" horiz-adv-x="1016" 
d="M621 1157q-36 0 -68 16.5t-54.5 40t-43 47t-43 40t-45.5 16.5q-70 0 -70 -137h-90q0 108 41 174.5t117 66.5q41 0 75 -17t56.5 -41t42 -48t41 -41t43.5 -17q74 0 74 158h96q0 -125 -44.5 -191.5t-127.5 -66.5zM397 -20q-140 0 -227.5 78t-87.5 212q0 295 450 295h222
q0 346 -258 346q-175 0 -287 -153l-90 71q137 191 366 191q184 0 282.5 -109.5t98.5 -296.5v-614h-108v205q-50 -112 -147 -168.5t-214 -56.5zM410 86q79 0 146 35.5t109 91.5t65.5 122.5t23.5 131.5h-207q-171 0 -252.5 -45t-81.5 -154q0 -94 54.5 -138t142.5 -44z" />
    <glyph glyph-name="adieresis" unicode="&#xe4;" horiz-adv-x="1016" 
d="M254 1229v184h160v-184h-160zM586 1229v184h160v-184h-160zM397 -20q-140 0 -227.5 78t-87.5 212q0 295 450 295h222q0 346 -258 346q-175 0 -287 -153l-90 71q137 191 366 191q184 0 282.5 -109.5t98.5 -296.5v-614h-108v205q-50 -112 -147 -168.5t-214 -56.5zM410 86
q79 0 146 35.5t109 91.5t65.5 122.5t23.5 131.5h-207q-171 0 -252.5 -45t-81.5 -154q0 -94 54.5 -138t142.5 -44z" />
    <glyph glyph-name="aring" unicode="&#xe5;" horiz-adv-x="1016" 
d="M500 1081q-83 0 -139.5 57.5t-56.5 139.5q0 81 57 139t139 58q81 0 139 -57t58 -140q0 -82 -57.5 -139.5t-139.5 -57.5zM500 1178q41 0 71 29t30 71q0 41 -29 69.5t-72 28.5q-44 0 -71 -27t-27 -71t28 -72t70 -28zM397 -20q-140 0 -227.5 78t-87.5 212q0 295 450 295h222
q0 346 -258 346q-175 0 -287 -153l-90 71q137 191 366 191q184 0 282.5 -109.5t98.5 -296.5v-614h-108v205q-50 -112 -147 -168.5t-214 -56.5zM410 86q79 0 146 35.5t109 91.5t65.5 122.5t23.5 131.5h-207q-171 0 -252.5 -45t-81.5 -154q0 -94 54.5 -138t142.5 -44z" />
    <glyph glyph-name="ae" unicode="&#xe6;" horiz-adv-x="1661" 
d="M395 -20q-131 0 -221 80.5t-90 207.5q0 152 94.5 224.5t261.5 72.5h320q0 353 -266 353q-89 0 -159.5 -43.5t-111.5 -108.5l-100 63q75 95 164 141t215 46q249 0 325 -197q91 193 328 193q94 0 167.5 -29t120 -77t76.5 -117t42 -143t12 -161v-28h-699q-3 -98 29 -178.5
t103 -131.5t170 -51q96 0 164.5 23t132.5 84l79 -66q-79 -79 -168 -114t-206 -35q-160 0 -258.5 83.5t-135.5 227.5q-94 -319 -389 -319zM872 565h584q5 150 -71.5 241t-225.5 91q-135 0 -210 -94.5t-77 -237.5zM434 90q93 0 171 53.5t119.5 138t35.5 175.5h-305
q-98 0 -165 -49t-67 -140q0 -70 70 -124t141 -54z" />
    <glyph glyph-name="ccedilla" unicode="&#xe7;" horiz-adv-x="967" 
d="M520 82q96 0 167 56t93 149l107 -49q-39 -109 -119.5 -175.5t-191.5 -79.5l-56 -104q90 -1 137 -52t47 -124q0 -79 -56.5 -141t-150.5 -62q-62 0 -110 35.5t-68 87.5l90 49q5 -31 31 -54.5t63 -23.5q46 0 74.5 29.5t28.5 71.5q0 52 -48.5 90.5t-142.5 38.5h-34l83 160
q-116 15 -200 90.5t-124 185t-40 238.5q0 103 27 196t78 166t132.5 116.5t182.5 43.5q129 0 227 -69t152 -189l-119 -53q-22 95 -94 152t-166 57q-78 0 -136.5 -38.5t-91 -102t-48 -134t-15.5 -145.5q0 -76 15.5 -146t47.5 -132.5t91 -100t137 -37.5z" />
    <glyph glyph-name="egrave" unicode="&#xe8;" horiz-adv-x="1030" 
d="M434 1126l-245 287h176l215 -287h-146zM537 -12q-107 0 -192 40.5t-137.5 110.5t-80 160.5t-27.5 194.5q0 82 16.5 157.5t51.5 141.5t84 114.5t118 76.5t150 28q92 0 165 -28.5t118.5 -75t76 -110.5t42.5 -130.5t12 -139.5q0 -35 -4 -71h-699q-5 -151 76 -256t228 -105
q96 0 164.5 23.5t125.5 83.5l86 -66q-81 -79 -168.5 -114t-205.5 -35zM231 565h584q0 66 -15 124t-47.5 109t-92 81t-140.5 30q-70 0 -125 -28t-90 -76.5t-53.5 -109.5t-20.5 -130z" />
    <glyph glyph-name="eacute" unicode="&#xe9;" horiz-adv-x="1030" 
d="M418 1124l215 289h176l-268 -289h-123zM537 -12q-107 0 -192 40.5t-137.5 110.5t-80 160.5t-27.5 194.5q0 82 16.5 157.5t51.5 141.5t84 114.5t118 76.5t150 28q92 0 165 -28.5t118.5 -75t76 -110.5t42.5 -130.5t12 -139.5q0 -35 -4 -71h-699q-5 -151 76 -256t228 -105
q96 0 164.5 23.5t125.5 83.5l86 -66q-81 -79 -168.5 -114t-205.5 -35zM231 565h584q0 66 -15 124t-47.5 109t-92 81t-140.5 30q-70 0 -125 -28t-90 -76.5t-53.5 -109.5t-20.5 -130z" />
    <glyph glyph-name="ecircumflex" unicode="&#xea;" horiz-adv-x="1030" 
d="M176 1098l332 356l332 -356h-154l-178 196l-176 -196h-156zM537 -12q-107 0 -192 40.5t-137.5 110.5t-80 160.5t-27.5 194.5q0 82 16.5 157.5t51.5 141.5t84 114.5t118 76.5t150 28q92 0 165 -28.5t118.5 -75t76 -110.5t42.5 -130.5t12 -139.5q0 -35 -4 -71h-699
q-5 -151 76 -256t228 -105q96 0 164.5 23.5t125.5 83.5l86 -66q-81 -79 -168.5 -114t-205.5 -35zM231 565h584q0 66 -15 124t-47.5 109t-92 81t-140.5 30q-70 0 -125 -28t-90 -76.5t-53.5 -109.5t-20.5 -130z" />
    <glyph glyph-name="edieresis" unicode="&#xeb;" horiz-adv-x="1030" 
d="M260 1229v184h160v-184h-160zM592 1229v184h160v-184h-160zM537 -12q-107 0 -192 40.5t-137.5 110.5t-80 160.5t-27.5 194.5q0 82 16.5 157.5t51.5 141.5t84 114.5t118 76.5t150 28q92 0 165 -28.5t118.5 -75t76 -110.5t42.5 -130.5t12 -139.5q0 -35 -4 -71h-699
q-5 -151 76 -256t228 -105q96 0 164.5 23.5t125.5 83.5l86 -66q-81 -79 -168.5 -114t-205.5 -35zM231 565h584q0 66 -15 124t-47.5 109t-92 81t-140.5 30q-70 0 -125 -28t-90 -76.5t-53.5 -109.5t-20.5 -130z" />
    <glyph glyph-name="igrave" unicode="&#xec;" horiz-adv-x="498" 
d="M174 1126l-245 287h176l215 -287h-146zM174 0v999h150v-999h-150z" />
    <glyph glyph-name="iacute" unicode="&#xed;" horiz-adv-x="498" 
d="M158 1124l215 289h176l-268 -289h-123zM174 0v999h150v-999h-150z" />
    <glyph glyph-name="icircumflex" unicode="&#xee;" horiz-adv-x="498" 
d="M-84 1098l332 356l332 -356h-154l-178 196l-176 -196h-156zM174 0v999h150v-999h-150z" />
    <glyph glyph-name="idieresis" unicode="&#xef;" horiz-adv-x="498" 
d="M0 1229v184h160v-184h-160zM332 1229v184h160v-184h-160zM174 0v999h150v-999h-150z" />
    <glyph glyph-name="eth" unicode="&#xf0;" horiz-adv-x="1151" 
d="M631 1380q205 -137 303 -346t98 -522q0 -103 -32 -197.5t-90.5 -168.5t-148.5 -118t-198 -44q-107 0 -196.5 43.5t-148 117.5t-90.5 169.5t-32 201.5q0 216 123 360t326 144q89 0 165 -28.5t110 -67.5q-34 192 -260 351l-93 -138l-88 57l92 138q-86 50 -174 87l68 97
q95 -38 174 -81l61 91l92 -56zM565 106q81 0 144 35t101 93.5t57.5 130.5t19.5 151q0 81 -20 154t-59 130.5t-101.5 91.5t-141.5 34q-81 0 -145 -35t-101.5 -93.5t-57 -130.5t-19.5 -151t19.5 -151t57 -130.5t101.5 -93.5t145 -35z" />
    <glyph glyph-name="ntilde" unicode="&#xf1;" horiz-adv-x="1108" 
d="M660 1157q-36 0 -68 16.5t-54.5 40t-43 47t-43 40t-45.5 16.5q-70 0 -70 -137h-90q0 108 41 174.5t117 66.5q41 0 75 -17t56.5 -41t42 -48t41 -41t43.5 -17q74 0 74 158h96q0 -125 -44.5 -191.5t-127.5 -66.5zM174 0v999h125v-188q50 95 133 150t197 55
q111 0 186.5 -56.5t108 -146t32.5 -205.5v-608h-125v598q0 57 -11 108.5t-35.5 100t-73 77.5t-115.5 29q-128 0 -212.5 -105t-84.5 -296v-512h-125z" />
    <glyph glyph-name="ograve" unicode="&#xf2;" horiz-adv-x="1116" 
d="M483 1126l-245 287h176l215 -287h-146zM555 -20q-134 0 -240 71t-163.5 190t-57.5 261t57.5 260t163.5 188t240 70t241.5 -70t166.5 -188.5t59 -259.5q0 -142 -59 -261t-166.5 -190t-241.5 -71zM557 82q84 0 151 36t107 96.5t61 134t21 153.5q0 109 -35 201t-113.5 153.5
t-189.5 61.5q-84 0 -150.5 -35.5t-107 -94.5t-61.5 -132.5t-21 -153.5q0 -81 21 -155t61.5 -134t106.5 -95.5t149 -35.5z" />
    <glyph glyph-name="oacute" unicode="&#xf3;" horiz-adv-x="1116" 
d="M467 1124l215 289h176l-268 -289h-123zM555 -20q-134 0 -240 71t-163.5 190t-57.5 261t57.5 260t163.5 188t240 70t241.5 -70t166.5 -188.5t59 -259.5q0 -142 -59 -261t-166.5 -190t-241.5 -71zM557 82q84 0 151 36t107 96.5t61 134t21 153.5q0 109 -35 201t-113.5 153.5
t-189.5 61.5q-84 0 -150.5 -35.5t-107 -94.5t-61.5 -132.5t-21 -153.5q0 -81 21 -155t61.5 -134t106.5 -95.5t149 -35.5z" />
    <glyph glyph-name="ocircumflex" unicode="&#xf4;" horiz-adv-x="1116" 
d="M225 1098l332 356l332 -356h-154l-178 196l-176 -196h-156zM555 -20q-134 0 -240 71t-163.5 190t-57.5 261t57.5 260t163.5 188t240 70t241.5 -70t166.5 -188.5t59 -259.5q0 -142 -59 -261t-166.5 -190t-241.5 -71zM557 82q84 0 151 36t107 96.5t61 134t21 153.5
q0 109 -35 201t-113.5 153.5t-189.5 61.5q-84 0 -150.5 -35.5t-107 -94.5t-61.5 -132.5t-21 -153.5q0 -81 21 -155t61.5 -134t106.5 -95.5t149 -35.5z" />
    <glyph glyph-name="otilde" unicode="&#xf5;" horiz-adv-x="1116" 
d="M676 1157q-36 0 -68 16.5t-54.5 40t-43 47t-43 40t-45.5 16.5q-70 0 -70 -137h-90q0 108 41 174.5t117 66.5q41 0 75 -17t56.5 -41t42 -48t41 -41t43.5 -17q74 0 74 158h96q0 -125 -44.5 -191.5t-127.5 -66.5zM555 -20q-134 0 -240 71t-163.5 190t-57.5 261t57.5 260
t163.5 188t240 70t241.5 -70t166.5 -188.5t59 -259.5q0 -142 -59 -261t-166.5 -190t-241.5 -71zM557 82q84 0 151 36t107 96.5t61 134t21 153.5q0 109 -35 201t-113.5 153.5t-189.5 61.5q-84 0 -150.5 -35.5t-107 -94.5t-61.5 -132.5t-21 -153.5q0 -81 21 -155t61.5 -134
t106.5 -95.5t149 -35.5z" />
    <glyph glyph-name="odieresis" unicode="&#xf6;" horiz-adv-x="1116" 
d="M309 1229v184h160v-184h-160zM641 1229v184h160v-184h-160zM555 -20q-134 0 -240 71t-163.5 190t-57.5 261t57.5 260t163.5 188t240 70t241.5 -70t166.5 -188.5t59 -259.5q0 -142 -59 -261t-166.5 -190t-241.5 -71zM557 82q84 0 151 36t107 96.5t61 134t21 153.5
q0 109 -35 201t-113.5 153.5t-189.5 61.5q-84 0 -150.5 -35.5t-107 -94.5t-61.5 -132.5t-21 -153.5q0 -81 21 -155t61.5 -134t106.5 -95.5t149 -35.5z" />
    <glyph glyph-name="divide" unicode="&#xf7;" horiz-adv-x="881" 
d="M346 920v176h178v-176h-178zM135 580v96h600v-96h-600zM346 141v176h178v-176h-178z" />
    <glyph glyph-name="oslash" unicode="&#xf8;" horiz-adv-x="1116" 
d="M834 923q88 -72 138 -182.5t50 -238.5q0 -142 -59 -261t-166.5 -190t-241.5 -71q-118 0 -216 56l-20 -35h-81l42 76q-87 72 -136.5 183.5t-49.5 241.5q0 142 57.5 260t163.5 188t240 70q117 0 220 -57l19 35h82zM219 502q0 -96 29.5 -183t85.5 -145l391 700
q-72 44 -166 44q-84 0 -150.5 -35.5t-107 -94.5t-61.5 -132.5t-21 -153.5zM557 82q84 0 151 36t107 96.5t61 134t21 153.5q0 97 -29.5 183t-86.5 144l-391 -701q73 -46 167 -46z" />
    <glyph glyph-name="ugrave" unicode="&#xf9;" 
d="M481 1126l-245 287h176l215 -287h-146zM487 -23q-88 0 -154.5 33.5t-105.5 93t-58 135.5t-19 167v593h124v-604q0 -45 5.5 -86.5t20.5 -84.5t38.5 -73.5t63 -50.5t90.5 -20q127 0 221 104.5t94 235.5v579h123v-999h-123v182q-29 -75 -117 -140t-203 -65z" />
    <glyph glyph-name="uacute" unicode="&#xfa;" 
d="M465 1124l215 289h176l-268 -289h-123zM487 -23q-88 0 -154.5 33.5t-105.5 93t-58 135.5t-19 167v593h124v-604q0 -45 5.5 -86.5t20.5 -84.5t38.5 -73.5t63 -50.5t90.5 -20q127 0 221 104.5t94 235.5v579h123v-999h-123v182q-29 -75 -117 -140t-203 -65z" />
    <glyph glyph-name="ucircumflex" unicode="&#xfb;" 
d="M223 1098l332 356l332 -356h-154l-178 196l-176 -196h-156zM487 -23q-88 0 -154.5 33.5t-105.5 93t-58 135.5t-19 167v593h124v-604q0 -45 5.5 -86.5t20.5 -84.5t38.5 -73.5t63 -50.5t90.5 -20q127 0 221 104.5t94 235.5v579h123v-999h-123v182q-29 -75 -117 -140
t-203 -65z" />
    <glyph glyph-name="udieresis" unicode="&#xfc;" 
d="M307 1229v184h160v-184h-160zM639 1229v184h160v-184h-160zM487 -23q-88 0 -154.5 33.5t-105.5 93t-58 135.5t-19 167v593h124v-604q0 -45 5.5 -86.5t20.5 -84.5t38.5 -73.5t63 -50.5t90.5 -20q127 0 221 104.5t94 235.5v579h123v-999h-123v182q-29 -75 -117 -140
t-203 -65z" />
    <glyph glyph-name="yacute" unicode="&#xfd;" horiz-adv-x="961" 
d="M385 1124l215 289h176l-268 -289h-123zM260 -430l168 430l-383 999h139l303 -847l291 847h137l-526 -1429h-129z" />
    <glyph glyph-name="thorn" unicode="&#xfe;" horiz-adv-x="1137" 
d="M178 -438v1851h141v-567q49 82 132 128t192 46q122 0 211.5 -71t133.5 -187.5t44 -261.5q0 -146 -44 -262t-133.5 -187t-211.5 -71q-217 0 -324 174v-592h-141zM602 100q75 0 133 32t92.5 88.5t52 127t17.5 152.5q0 81 -17.5 151.5t-52 126.5t-92.5 88.5t-133 32.5
q-74 0 -132.5 -32.5t-94 -88.5t-54 -126.5t-18.5 -151.5q0 -110 31 -198.5t100.5 -145t167.5 -56.5z" />
    <glyph glyph-name="ydieresis" unicode="&#xff;" horiz-adv-x="961" 
d="M227 1229v184h160v-184h-160zM559 1229v184h160v-184h-160zM260 -430l168 430l-383 999h139l303 -847l291 847h137l-526 -1429h-129z" />
    <glyph glyph-name="Amacron" unicode="&#x100;" horiz-adv-x="1296" 
d="M383 1606v121h536v-121h-536zM76 0l522 1413h104l519 -1413h-144l-108 307h-639l-107 -307h-147zM375 434h549l-273 780z" />
    <glyph glyph-name="amacron" unicode="&#x101;" horiz-adv-x="1016" 
d="M236 1192v121h536v-121h-536zM397 -20q-140 0 -227.5 78t-87.5 212q0 295 450 295h222q0 346 -258 346q-175 0 -287 -153l-90 71q137 191 366 191q184 0 282.5 -109.5t98.5 -296.5v-614h-108v205q-50 -112 -147 -168.5t-214 -56.5zM410 86q79 0 146 35.5t109 91.5
t65.5 122.5t23.5 131.5h-207q-171 0 -252.5 -45t-81.5 -154q0 -94 54.5 -138t142.5 -44z" />
    <glyph glyph-name="Abreve" unicode="&#x102;" horiz-adv-x="1296" 
d="M649 1557q-132 0 -218.5 72t-86.5 198h127q0 -71 51.5 -117.5t126.5 -46.5q74 0 125 46t51 118h127q0 -127 -85.5 -198.5t-217.5 -71.5zM76 0l522 1413h104l519 -1413h-144l-108 307h-639l-107 -307h-147zM375 434h549l-273 780z" />
    <glyph glyph-name="abreve" unicode="&#x103;" horiz-adv-x="1016" 
d="M502 1143q-132 0 -218.5 72t-86.5 198h127q0 -71 51.5 -117.5t126.5 -46.5q74 0 125 46t51 118h127q0 -127 -85.5 -198.5t-217.5 -71.5zM397 -20q-140 0 -227.5 78t-87.5 212q0 295 450 295h222q0 346 -258 346q-175 0 -287 -153l-90 71q137 191 366 191
q184 0 282.5 -109.5t98.5 -296.5v-614h-108v205q-50 -112 -147 -168.5t-214 -56.5zM410 86q79 0 146 35.5t109 91.5t65.5 122.5t23.5 131.5h-207q-171 0 -252.5 -45t-81.5 -154q0 -94 54.5 -138t142.5 -44z" />
    <glyph glyph-name="Aogonek" unicode="&#x104;" horiz-adv-x="1296" 
d="M1207 -281l86 -59q-37 -54 -84.5 -82.5t-118.5 -28.5q-87 0 -143.5 56.5t-56.5 148.5q0 53 23 97.5t60.5 73.5t71.5 46.5t70 28.5h-38l-108 307h-639l-107 -307h-147l522 1413h104l519 -1413l-12 -4q-12 -5 -33 -15t-45 -23.5t-49.5 -33.5t-45.5 -42.5t-33 -52.5t-13 -62
q0 -51 26 -82t64 -31q80 0 127 65zM375 434h549l-273 780z" />
    <glyph glyph-name="aogonek" unicode="&#x105;" horiz-adv-x="1016" 
d="M852 -281l86 -59q-37 -54 -84.5 -82.5t-118.5 -28.5q-87 0 -143.5 56.5t-56.5 148.5q0 53 23 97.5t60.5 73.5t71.5 46.5t70 28.5h-2v205q-50 -112 -147 -168.5t-214 -56.5q-140 0 -227.5 78t-87.5 212q0 295 450 295h222q0 346 -258 346q-175 0 -287 -153l-90 71
q137 191 366 191q184 0 282.5 -109.5t98.5 -296.5v-614l-12 -4q-12 -5 -33 -15t-45 -23.5t-49.5 -33.5t-45.5 -42.5t-33 -52.5t-13 -62q0 -51 26 -82t64 -31q80 0 127 65zM410 86q79 0 146 35.5t109 91.5t65.5 122.5t23.5 131.5h-207q-171 0 -252.5 -45t-81.5 -154
q0 -94 54.5 -138t142.5 -44z" />
    <glyph glyph-name="Cacute" unicode="&#x106;" horiz-adv-x="1417" 
d="M629 1538l215 289h176l-268 -289h-123zM752 -20q-123 0 -225 37.5t-174 104t-121.5 158.5t-73 200.5t-23.5 230.5q0 120 22.5 226t72 198t122.5 158.5t179.5 104.5t236.5 38q415 0 551 -369l-123 -55q-22 82 -68 143t-107 94t-125.5 48.5t-135.5 15.5q-104 0 -188 -32.5
t-140 -88.5t-93.5 -133.5t-54 -164t-16.5 -183.5q0 -99 17 -186.5t55.5 -166t95 -134.5t140.5 -89t188 -33q96 0 175.5 27.5t149.5 97t109 179.5l123 -56q-79 -178 -224 -274t-345 -96z" />
    <glyph glyph-name="cacute" unicode="&#x107;" horiz-adv-x="967" 
d="M432 1124l215 289h176l-268 -289h-123zM522 -20q-134 0 -231.5 73.5t-144 189t-46.5 255.5q0 103 27 196t78 166t132.5 116.5t182.5 43.5q129 0 227 -69t152 -189l-119 -53q-22 95 -94 152t-166 57q-78 0 -136.5 -38.5t-91 -102t-48 -134t-15.5 -145.5q0 -76 15.5 -146
t47.5 -132.5t91 -100t137 -37.5q96 0 167 56t93 149l107 -49q-44 -122 -139 -190t-226 -68z" />
    <glyph glyph-name="Cdotaccent" unicode="&#x10a;" horiz-adv-x="1417" 
d="M641 1643v184h152v-184h-152zM752 -20q-123 0 -225 37.5t-174 104t-121.5 158.5t-73 200.5t-23.5 230.5q0 120 22.5 226t72 198t122.5 158.5t179.5 104.5t236.5 38q415 0 551 -369l-123 -55q-22 82 -68 143t-107 94t-125.5 48.5t-135.5 15.5q-104 0 -188 -32.5
t-140 -88.5t-93.5 -133.5t-54 -164t-16.5 -183.5q0 -99 17 -186.5t55.5 -166t95 -134.5t140.5 -89t188 -33q96 0 175.5 27.5t149.5 97t109 179.5l123 -56q-79 -178 -224 -274t-345 -96z" />
    <glyph glyph-name="cdotaccent" unicode="&#x10b;" horiz-adv-x="967" 
d="M444 1229v184h152v-184h-152zM522 -20q-134 0 -231.5 73.5t-144 189t-46.5 255.5q0 103 27 196t78 166t132.5 116.5t182.5 43.5q129 0 227 -69t152 -189l-119 -53q-22 95 -94 152t-166 57q-78 0 -136.5 -38.5t-91 -102t-48 -134t-15.5 -145.5q0 -76 15.5 -146
t47.5 -132.5t91 -100t137 -37.5q96 0 167 56t93 149l107 -49q-44 -122 -139 -190t-226 -68z" />
    <glyph glyph-name="Ccaron" unicode="&#x10c;" horiz-adv-x="1417" 
d="M719 1495l-332 332h156l176 -192l178 192h154zM752 -20q-123 0 -225 37.5t-174 104t-121.5 158.5t-73 200.5t-23.5 230.5q0 120 22.5 226t72 198t122.5 158.5t179.5 104.5t236.5 38q415 0 551 -369l-123 -55q-22 82 -68 143t-107 94t-125.5 48.5t-135.5 15.5
q-104 0 -188 -32.5t-140 -88.5t-93.5 -133.5t-54 -164t-16.5 -183.5q0 -99 17 -186.5t55.5 -166t95 -134.5t140.5 -89t188 -33q96 0 175.5 27.5t149.5 97t109 179.5l123 -56q-79 -178 -224 -274t-345 -96z" />
    <glyph glyph-name="ccaron" unicode="&#x10d;" horiz-adv-x="967" 
d="M522 1081l-332 332h156l176 -192l178 192h154zM522 -20q-134 0 -231.5 73.5t-144 189t-46.5 255.5q0 103 27 196t78 166t132.5 116.5t182.5 43.5q129 0 227 -69t152 -189l-119 -53q-22 95 -94 152t-166 57q-78 0 -136.5 -38.5t-91 -102t-48 -134t-15.5 -145.5
q0 -76 15.5 -146t47.5 -132.5t91 -100t137 -37.5q96 0 167 56t93 149l107 -49q-44 -122 -139 -190t-226 -68z" />
    <glyph glyph-name="Dcaron" unicode="&#x10e;" horiz-adv-x="1405" 
d="M721 1495l-332 332h156l176 -192l178 192h154zM219 0v1413h348q341 0 524 -184.5t183 -532.5q0 -334 -185 -515t-524 -181h-346zM354 123h187q127 0 234.5 36t189 106t128 183.5t46.5 258.5q0 282 -147 434.5t-429 152.5h-209v-1171z" />
    <glyph glyph-name="dcaron" unicode="&#x10f;" horiz-adv-x="1171" 
d="M506 -20q-127 0 -219.5 70.5t-137.5 186.5t-45 263q0 146 45 262.5t137.5 187t219.5 70.5q101 0 181 -44t130 -122v559h125v-1413h-125v145q-112 -165 -311 -165zM1053 1032l100 381h201l-203 -381h-98zM532 94q76 0 134.5 33.5t92.5 91t51 128.5t17 153t-17 152.5
t-51 127.5t-92.5 90t-134.5 33q-101 0 -170 -57.5t-99 -146t-30 -199.5q0 -65 10.5 -124t34 -111t58 -89.5t85 -59.5t111.5 -22z" />
    <glyph glyph-name="Dcroat" unicode="&#x110;" horiz-adv-x="1421" 
d="M236 0v664h-113v98h113v651h356q338 0 518 -184.5t180 -532.5q0 -334 -182.5 -515t-517.5 -181h-354zM379 129h186q126 0 230 34.5t183 103t123 181t44 259.5q0 282 -140.5 430.5t-416.5 148.5h-209v-524h381v-98h-381v-535z" />
    <glyph glyph-name="dcroat" unicode="&#x111;" horiz-adv-x="1118" 
d="M1145 1268v-105h-203v-1163h-125v146q-55 -78 -130.5 -122t-188.5 -44q-121 0 -212 70.5t-136.5 187.5t-45.5 262t45.5 262t136.5 187.5t212 70.5q209 0 319 -166v309h-307v105h307v145h125v-145h203zM530 82q77 0 136 35t93 95t51 132.5t17 155.5q0 82 -17 154.5
t-51 133t-93 95.5t-136 35q-75 0 -133.5 -35t-93.5 -95t-52.5 -133t-17.5 -155t17.5 -155.5t52.5 -133t93.5 -94.5t133.5 -35z" />
    <glyph glyph-name="Emacron" unicode="&#x112;" horiz-adv-x="1237" 
d="M412 1606v121h536v-121h-536zM219 0v1413h909v-113h-774v-538h662v-109h-662v-532h774v-121h-909z" />
    <glyph glyph-name="emacron" unicode="&#x113;" horiz-adv-x="1030" 
d="M242 1192v121h536v-121h-536zM537 -12q-107 0 -192 40.5t-137.5 110.5t-80 160.5t-27.5 194.5q0 82 16.5 157.5t51.5 141.5t84 114.5t118 76.5t150 28q92 0 165 -28.5t118.5 -75t76 -110.5t42.5 -130.5t12 -139.5q0 -35 -4 -71h-699q-5 -151 76 -256t228 -105
q96 0 164.5 23.5t125.5 83.5l86 -66q-81 -79 -168.5 -114t-205.5 -35zM231 565h584q0 66 -15 124t-47.5 109t-92 81t-140.5 30q-70 0 -125 -28t-90 -76.5t-53.5 -109.5t-20.5 -130z" />
    <glyph glyph-name="Edotaccent" unicode="&#x116;" horiz-adv-x="1237" 
d="M600 1643v184h152v-184h-152zM219 0v1413h909v-113h-774v-538h662v-109h-662v-532h774v-121h-909z" />
    <glyph glyph-name="edotaccent" unicode="&#x117;" horiz-adv-x="1030" 
d="M430 1229v184h152v-184h-152zM537 -12q-107 0 -192 40.5t-137.5 110.5t-80 160.5t-27.5 194.5q0 82 16.5 157.5t51.5 141.5t84 114.5t118 76.5t150 28q92 0 165 -28.5t118.5 -75t76 -110.5t42.5 -130.5t12 -139.5q0 -35 -4 -71h-699q-5 -151 76 -256t228 -105
q96 0 164.5 23.5t125.5 83.5l86 -66q-81 -79 -168.5 -114t-205.5 -35zM231 565h584q0 66 -15 124t-47.5 109t-92 81t-140.5 30q-70 0 -125 -28t-90 -76.5t-53.5 -109.5t-20.5 -130z" />
    <glyph glyph-name="Eogonek" unicode="&#x118;" horiz-adv-x="1237" 
d="M1114 -281l86 -59q-37 -54 -84.5 -82.5t-118.5 -28.5q-87 0 -143.5 56.5t-56.5 148.5q0 53 23 97.5t60.5 73.5t71.5 46.5t70 28.5h-803v1413h909v-113h-774v-538h662v-109h-662v-532h774v-121l-12 -4q-12 -5 -33 -15t-45 -23.5t-49.5 -33.5t-45.5 -42.5t-33 -52.5
t-13 -62q0 -51 26 -82t64 -31q80 0 127 65z" />
    <glyph glyph-name="eogonek" unicode="&#x119;" horiz-adv-x="1030" 
d="M930 457h-699q-5 -151 76 -256t228 -105q96 0 164.5 23.5t125.5 83.5l86 -66q-99 -97 -213 -129q-151 -86 -151 -196q0 -51 26 -82t64 -31q80 0 127 65l86 -59q-37 -54 -84.5 -82.5t-118.5 -28.5q-87 0 -143.5 56.5t-56.5 148.5q0 114 107 189h-17q-107 0 -192 40.5
t-137.5 110.5t-80 160.5t-27.5 194.5q0 82 16.5 157.5t51.5 141.5t84 114.5t118 76.5t150 28q92 0 165 -28.5t118.5 -75t76 -110.5t42.5 -130.5t12 -139.5q0 -35 -4 -71zM520 909q-70 0 -125 -28t-90 -76.5t-53.5 -109.5t-20.5 -130h584q0 66 -15 124t-47.5 109t-92 81
t-140.5 30z" />
    <glyph glyph-name="Ecaron" unicode="&#x11a;" horiz-adv-x="1237" 
d="M678 1495l-332 332h156l176 -192l178 192h154zM219 0v1413h909v-113h-774v-538h662v-109h-662v-532h774v-121h-909z" />
    <glyph glyph-name="ecaron" unicode="&#x11b;" horiz-adv-x="1030" 
d="M508 1081l-332 332h156l176 -192l178 192h154zM537 -12q-107 0 -192 40.5t-137.5 110.5t-80 160.5t-27.5 194.5q0 82 16.5 157.5t51.5 141.5t84 114.5t118 76.5t150 28q92 0 165 -28.5t118.5 -75t76 -110.5t42.5 -130.5t12 -139.5q0 -35 -4 -71h-699q-5 -151 76 -256
t228 -105q96 0 164.5 23.5t125.5 83.5l86 -66q-81 -79 -168.5 -114t-205.5 -35zM231 565h584q0 66 -15 124t-47.5 109t-92 81t-140.5 30q-70 0 -125 -28t-90 -76.5t-53.5 -109.5t-20.5 -130z" />
    <glyph glyph-name="Gbreve" unicode="&#x11e;" horiz-adv-x="1503" 
d="M760 1557q-132 0 -218.5 72t-86.5 198h127q0 -71 51.5 -117.5t126.5 -46.5q74 0 125 46t51 118h127q0 -127 -85.5 -198.5t-217.5 -71.5zM758 -20q-156 0 -277 57.5t-195.5 158t-112.5 230t-38 281.5q0 151 38.5 281t113.5 231t195.5 159t273.5 58q196 0 339.5 -94.5
t223.5 -274.5l-125 -55q-142 293 -440 293q-125 0 -220.5 -47.5t-152 -130.5t-85 -186.5t-28.5 -223.5q0 -126 28.5 -233t85.5 -192.5t153.5 -134t222.5 -48.5q95 0 177.5 32t145.5 92.5t99.5 154.5t36.5 210h-324v104h448v-702h-114l4 272q-43 -120 -169 -206t-304 -86z
" />
    <glyph glyph-name="gbreve" unicode="&#x11f;" horiz-adv-x="1018" 
d="M498 1143q-132 0 -218.5 72t-86.5 198h127q0 -71 51.5 -117.5t126.5 -46.5q74 0 125 46t51 118h127q0 -127 -85.5 -198.5t-217.5 -71.5zM508 123q176 -25 245 -49q144 -51 168 -174q5 -27 5 -58q0 -96 -56.5 -165t-142.5 -100.5t-190 -31.5q-186 0 -304 97t-118 239
q0 23 2 37l154 158q-134 70 -134 207q0 97 68 156q-84 90 -84 227q0 156 103.5 251t260.5 95q161 0 263 -102l151 139l74 -95l-165 -128q36 -75 36 -160q0 -156 -101.5 -247t-259.5 -91q-103 0 -187 42q-46 -37 -46 -83q0 -39 20.5 -68.5t59.5 -48t81 -29.5t97 -18zM481 911
q-104 0 -168.5 -71t-64.5 -170q0 -108 63.5 -173t169.5 -65q107 0 171.5 65t64.5 173q0 101 -65.5 171t-170.5 70zM551 -338q109 0 187.5 45t78.5 129q0 26 -8.5 47t-20 35.5t-34.5 27t-42 20t-53 15t-56.5 11t-64 10t-63.5 10.5q-56 10 -104 24l-135 -157q-2 -83 83.5 -150
t231.5 -67z" />
    <glyph glyph-name="Gdotaccent" unicode="&#x120;" horiz-adv-x="1503" 
d="M682 1643v184h152v-184h-152zM758 -20q-156 0 -277 57.5t-195.5 158t-112.5 230t-38 281.5q0 151 38.5 281t113.5 231t195.5 159t273.5 58q196 0 339.5 -94.5t223.5 -274.5l-125 -55q-142 293 -440 293q-125 0 -220.5 -47.5t-152 -130.5t-85 -186.5t-28.5 -223.5
q0 -126 28.5 -233t85.5 -192.5t153.5 -134t222.5 -48.5q95 0 177.5 32t145.5 92.5t99.5 154.5t36.5 210h-324v104h448v-702h-114l4 272q-43 -120 -169 -206t-304 -86z" />
    <glyph glyph-name="gdotaccent" unicode="&#x121;" horiz-adv-x="1018" 
d="M572 1413v-184h-152v184h152zM508 123q176 -25 245 -49q144 -51 168 -174q5 -27 5 -58q0 -96 -56.5 -165t-142.5 -100.5t-190 -31.5q-186 0 -304 97t-118 239q0 23 2 37l154 158q-134 70 -134 207q0 97 68 156q-84 90 -84 227q0 156 103.5 251t260.5 95q161 0 263 -102
l151 139l74 -95l-165 -128q36 -75 36 -160q0 -156 -101.5 -247t-259.5 -91q-103 0 -187 42q-46 -37 -46 -83q0 -39 20.5 -68.5t59.5 -48t81 -29.5t97 -18zM481 911q-104 0 -168.5 -71t-64.5 -170q0 -108 63.5 -173t169.5 -65q107 0 171.5 65t64.5 173q0 101 -65.5 171
t-170.5 70zM551 -338q109 0 187.5 45t78.5 129q0 26 -8.5 47t-20 35.5t-34.5 27t-42 20t-53 15t-56.5 11t-64 10t-63.5 10.5q-56 10 -104 24l-135 -157q-2 -83 83.5 -150t231.5 -67z" />
    <glyph glyph-name="Gcommaaccent" unicode="&#x122;" horiz-adv-x="1503" 
d="M758 -20q-156 0 -277 57.5t-195.5 158t-112.5 230t-38 281.5q0 151 38.5 281t113.5 231t195.5 159t273.5 58q196 0 339.5 -94.5t223.5 -274.5l-125 -55q-142 293 -440 293q-125 0 -220.5 -47.5t-152 -130.5t-85 -186.5t-28.5 -223.5q0 -126 28.5 -233t85.5 -192.5
t153.5 -134t222.5 -48.5q95 0 177.5 32t145.5 92.5t99.5 154.5t36.5 210h-324v104h448v-702h-114l4 272q-43 -120 -169 -206t-304 -86zM563 -442l120 329h201l-223 -329h-98z" />
    <glyph glyph-name="gcommaaccent" unicode="&#x123;" horiz-adv-x="1018" 
d="M714 1419l-120 -294h-201l223 294h98zM508 123q176 -25 245 -49q144 -51 168 -174q5 -27 5 -58q0 -96 -56.5 -165t-142.5 -100.5t-190 -31.5q-186 0 -304 97t-118 239q0 23 2 37l154 158q-134 70 -134 207q0 97 68 156q-84 90 -84 227q0 156 103.5 251t260.5 95
q161 0 263 -102l151 139l74 -95l-165 -128q36 -75 36 -160q0 -156 -101.5 -247t-259.5 -91q-103 0 -187 42q-46 -37 -46 -83q0 -39 20.5 -68.5t59.5 -48t81 -29.5t97 -18zM481 911q-104 0 -168.5 -71t-64.5 -170q0 -108 63.5 -173t169.5 -65q107 0 171.5 65t64.5 173
q0 101 -65.5 171t-170.5 70zM551 -338q109 0 187.5 45t78.5 129q0 26 -8.5 47t-20 35.5t-34.5 27t-42 20t-53 15t-56.5 11t-64 10t-63.5 10.5q-56 10 -104 24l-135 -157q-2 -83 83.5 -150t231.5 -67z" />
    <glyph glyph-name="Hbar" unicode="&#x126;" horiz-adv-x="1446" 
d="M1342 1153v-76h-115v-1077h-135v653h-738v-653h-135v1077h-118v76h118v260h135v-260h738v260h135v-260h115zM1092 762v315h-738v-315h738z" />
    <glyph glyph-name="hbar" unicode="&#x127;" horiz-adv-x="1112" 
d="M633 1016q85 0 149.5 -31.5t102.5 -86.5t57 -125t19 -152v-621h-127v598q0 57 -9.5 106t-32.5 94.5t-68.5 72t-109.5 26.5q-133 0 -224 -103.5t-91 -246.5v-547h-123v1132h-190v105h190v176h123v-176h322v-105h-322v-309q48 85 140 139t194 54z" />
    <glyph glyph-name="Itilde" unicode="&#x128;" horiz-adv-x="573" 
d="M404 1571q-36 0 -68 16.5t-54.5 40t-43 47t-43 40t-45.5 16.5q-70 0 -70 -137h-90q0 108 41 174.5t117 66.5q41 0 75 -17t56.5 -41t42 -48t41 -41t43.5 -17q74 0 74 158h96q0 -125 -44.5 -191.5t-127.5 -66.5zM219 0v1413h135v-1413h-135z" />
    <glyph glyph-name="itilde" unicode="&#x129;" horiz-adv-x="498" 
d="M367 1157q-36 0 -68 16.5t-54.5 40t-43 47t-43 40t-45.5 16.5q-70 0 -70 -137h-90q0 108 41 174.5t117 66.5q41 0 75 -17t56.5 -41t42 -48t41 -41t43.5 -17q74 0 74 158h96q0 -125 -44.5 -191.5t-127.5 -66.5zM174 0v999h150v-999h-150z" />
    <glyph glyph-name="Imacron" unicode="&#x12a;" horiz-adv-x="573" 
d="M19 1606v121h536v-121h-536zM219 0v1413h135v-1413h-135z" />
    <glyph glyph-name="imacron" unicode="&#x12b;" horiz-adv-x="498" 
d="M-18 1192v121h536v-121h-536zM174 0v999h150v-999h-150z" />
    <glyph glyph-name="Iogonek" unicode="&#x12e;" horiz-adv-x="573" 
d="M340 -281l86 -59q-37 -54 -84.5 -82.5t-118.5 -28.5q-87 0 -143.5 56.5t-56.5 148.5q0 53 23 97.5t60.5 73.5t71.5 46.5t70 28.5h-29v1413h135v-1413l-12 -4q-12 -5 -33 -15t-45 -23.5t-49.5 -33.5t-45.5 -42.5t-33 -52.5t-13 -62q0 -51 26 -82t64 -31q80 0 127 65z" />
    <glyph glyph-name="iogonek" unicode="&#x12f;" horiz-adv-x="498" 
d="M322 1413v-184h-152v184h152zM310 -281l86 -59q-37 -54 -84.5 -82.5t-118.5 -28.5q-87 0 -143.5 56.5t-56.5 148.5q0 53 23 97.5t60.5 73.5t71.5 46.5t70 28.5h-44v999h150v-999l-12 -4q-12 -5 -33 -15t-45 -23.5t-49.5 -33.5t-45.5 -42.5t-33 -52.5t-13 -62
q0 -51 26 -82t64 -31q80 0 127 65z" />
    <glyph glyph-name="Idotaccent" unicode="&#x130;" horiz-adv-x="573" 
d="M207 1643v184h152v-184h-152zM219 0v1413h135v-1413h-135z" />
    <glyph glyph-name="dotlessi" unicode="&#x131;" horiz-adv-x="498" 
d="M174 0v999h150v-999h-150z" />
    <glyph glyph-name="IJ" unicode="&#x132;" horiz-adv-x="1687" 
d="M219 0v1413h135v-1413h-135zM1069 -20q-182 0 -291.5 114.5t-122.5 290.5l131 18q4 -59 22 -111.5t50.5 -97.5t87 -71.5t123.5 -26.5q70 0 121.5 20.5t82.5 54.5t50 85t25.5 103.5t6.5 119.5v821h-532v113h668v-913q0 -520 -422 -520z" />
    <glyph glyph-name="Kcommaaccent" unicode="&#x136;" horiz-adv-x="1442" 
d="M219 0v1413h135v-852l805 852h170l-526 -551l565 -862h-160l-493 768l-361 -373v-395h-135zM475 -442l120 329h201l-223 -329h-98z" />
    <glyph glyph-name="kcommaaccent" unicode="&#x137;" horiz-adv-x="1030" 
d="M176 0v1413h127v-983l463 569h154l-314 -362l385 -637h-149l-310 547l-229 -254v-293h-127zM373 -442l120 329h201l-223 -329h-98z" />
    <glyph glyph-name="kgreenlandic" unicode="&#x138;" horiz-adv-x="1026" 
d="M174 0v999h125v-550l463 550h153l-313 -362l385 -637h-151l-308 543l-229 -254v-289h-125z" />
    <glyph glyph-name="Lacute" unicode="&#x139;" horiz-adv-x="1030" 
d="M221 1538l215 289h176l-268 -289h-123zM219 0v1413h135v-1292h604v-121h-739z" />
    <glyph glyph-name="lacute" unicode="&#x13a;" horiz-adv-x="504" 
d="M137 1538l215 289h176l-268 -289h-123zM322 -20q-32 0 -56 7t-40 15.5t-26.5 27t-16 31.5t-8.5 40t-3 40v44v18v1210h127v-1272q0 -42 28 -51q6 -2 13 -2q54 0 104 10v-98q-52 -20 -122 -20z" />
    <glyph glyph-name="Lcommaaccent" unicode="&#x13b;" horiz-adv-x="1030" 
d="M219 0v1413h135v-1292h604v-121h-739zM312 -442l120 329h201l-223 -329h-98z" />
    <glyph glyph-name="lcommaaccent" unicode="&#x13c;" horiz-adv-x="504" 
d="M322 -20q-32 0 -56 7t-40 15.5t-26.5 27t-16 31.5t-8.5 40t-3 40v44v18v1210h127v-1272q0 -42 28 -51q6 -2 13 -2q54 0 104 10v-98q-52 -20 -122 -20zM131 -442l120 329h201l-223 -329h-98z" />
    <glyph glyph-name="Lcaron" unicode="&#x13d;" horiz-adv-x="1038" 
d="M219 0v1413h135v-1292h604v-121h-739zM584 1032l100 381h201l-203 -381h-98z" />
    <glyph glyph-name="lcaron" unicode="&#x13e;" horiz-adv-x="543" 
d="M322 -20q-32 0 -56 7t-40 15.5t-26.5 27t-16 31.5t-8.5 40t-3 40v44v18v1210h127v-1272q0 -42 28 -51q6 -2 13 -2q54 0 104 10v-98q-52 -20 -122 -20zM424 1032l100 381h201l-203 -381h-98z" />
    <glyph glyph-name="Lslash" unicode="&#x141;" horiz-adv-x="1051" 
d="M370 121h604v-121h-739v317l-104 -114v164l104 118v928h135v-774l398 453v-191l-398 -436v-344z" />
    <glyph glyph-name="lslash" unicode="&#x142;" horiz-adv-x="504" 
d="M299 141q0 -42 28 -51q6 -2 13 -2q54 0 104 10v-98q-52 -20 -122 -20q-32 0 -56 7t-40 15.5t-26.5 27t-16 31.5t-8.5 40t-3 40v44v18v305l-180 -203v127l180 203v778h127v-635l199 224v-127l-199 -224v-510z" />
    <glyph glyph-name="Nacute" unicode="&#x143;" horiz-adv-x="1409" 
d="M612 1538l215 289h176l-268 -289h-123zM219 0v1413h223l613 -1309v1309h135v-1413h-227l-607 1311v-1311h-137z" />
    <glyph glyph-name="nacute" unicode="&#x144;" horiz-adv-x="1108" 
d="M451 1124l215 289h176l-268 -289h-123zM174 0v999h125v-188q50 95 133 150t197 55q111 0 186.5 -56.5t108 -146t32.5 -205.5v-608h-125v598q0 57 -11 108.5t-35.5 100t-73 77.5t-115.5 29q-128 0 -212.5 -105t-84.5 -296v-512h-125z" />
    <glyph glyph-name="Ncommaaccent" unicode="&#x145;" horiz-adv-x="1409" 
d="M219 0v1413h223l613 -1309v1309h135v-1413h-227l-607 1311v-1311h-137zM479 -442l120 329h201l-223 -329h-98z" />
    <glyph glyph-name="ncommaaccent" unicode="&#x146;" horiz-adv-x="1108" 
d="M174 0v999h125v-188q50 95 133 150t197 55q111 0 186.5 -56.5t108 -146t32.5 -205.5v-608h-125v598q0 57 -11 108.5t-35.5 100t-73 77.5t-115.5 29q-128 0 -212.5 -105t-84.5 -296v-512h-125zM318 -442l120 329h201l-223 -329h-98z" />
    <glyph glyph-name="Ncaron" unicode="&#x147;" horiz-adv-x="1409" 
d="M702 1495l-332 332h156l176 -192l178 192h154zM219 0v1413h223l613 -1309v1309h135v-1413h-227l-607 1311v-1311h-137z" />
    <glyph glyph-name="ncaron" unicode="&#x148;" horiz-adv-x="1108" 
d="M541 1081l-332 332h156l176 -192l178 192h154zM174 0v999h125v-188q50 95 133 150t197 55q111 0 186.5 -56.5t108 -146t32.5 -205.5v-608h-125v598q0 57 -11 108.5t-35.5 100t-73 77.5t-115.5 29q-128 0 -212.5 -105t-84.5 -296v-512h-125z" />
    <glyph glyph-name="Eng" unicode="&#x14a;" horiz-adv-x="1411" 
d="M850 -369v111q112 0 158.5 54t11.5 128l-664 1362v-1286h-137v1413h215l621 -1286v1286h135v-1413v-12v-49.5t-5 -60.5t-14.5 -69.5t-29.5 -64.5t-47.5 -58.5t-72.5 -38.5t-101 -16h-70z" />
    <glyph glyph-name="eng" unicode="&#x14b;" horiz-adv-x="1110" 
d="M627 -369v111h51q43 0 73.5 15.5t45 34.5t22.5 49.5t9 46.5t1 40v670q0 291 -215 291q-129 0 -220 -93.5t-91 -222.5v-573h-129v999h129v-165q45 80 132 131t186 51q90 0 157 -32.5t105.5 -90.5t56.5 -129t18 -156v-696q0 -281 -256 -281h-75z" />
    <glyph glyph-name="Omacron" unicode="&#x14c;" horiz-adv-x="1511" 
d="M488 1606v121h536v-121h-536zM754 -20q-153 0 -273.5 58t-195.5 158.5t-113.5 230.5t-38.5 280q0 119 24 226.5t74 199t122.5 158.5t175 105t225.5 38q124 0 227.5 -38t176 -104.5t122.5 -158.5t74 -199.5t24 -226.5q0 -120 -24 -227t-74 -199t-122.5 -158.5t-176 -104.5
t-227.5 -38zM754 106q128 0 226.5 49.5t156.5 135t87 190.5t29 226q0 96 -17.5 182t-56.5 163t-96 133.5t-141.5 89t-187.5 32.5q-101 0 -184.5 -32.5t-140 -89t-95.5 -133.5t-56.5 -163.5t-17.5 -181.5q0 -96 17.5 -182.5t56.5 -163.5t95.5 -133.5t140 -89t184.5 -32.5z
" />
    <glyph glyph-name="omacron" unicode="&#x14d;" horiz-adv-x="1116" 
d="M291 1192v121h536v-121h-536zM555 -20q-134 0 -240 71t-163.5 190t-57.5 261t57.5 260t163.5 188t240 70t241.5 -70t166.5 -188.5t59 -259.5q0 -142 -59 -261t-166.5 -190t-241.5 -71zM557 82q84 0 151 36t107 96.5t61 134t21 153.5q0 109 -35 201t-113.5 153.5
t-189.5 61.5q-84 0 -150.5 -35.5t-107 -94.5t-61.5 -132.5t-21 -153.5q0 -81 21 -155t61.5 -134t106.5 -95.5t149 -35.5z" />
    <glyph glyph-name="Ohungarumlaut" unicode="&#x150;" horiz-adv-x="1511" 
d="M502 1542l215 285h180l-272 -285h-123zM827 1542l215 285h177l-269 -285h-123zM754 -20q-153 0 -273.5 58t-195.5 158.5t-113.5 230.5t-38.5 280q0 119 24 226.5t74 199t122.5 158.5t175 105t225.5 38q124 0 227.5 -38t176 -104.5t122.5 -158.5t74 -199.5t24 -226.5
q0 -120 -24 -227t-74 -199t-122.5 -158.5t-176 -104.5t-227.5 -38zM754 106q128 0 226.5 49.5t156.5 135t87 190.5t29 226q0 96 -17.5 182t-56.5 163t-96 133.5t-141.5 89t-187.5 32.5q-101 0 -184.5 -32.5t-140 -89t-95.5 -133.5t-56.5 -163.5t-17.5 -181.5
q0 -96 17.5 -182.5t56.5 -163.5t95.5 -133.5t140 -89t184.5 -32.5z" />
    <glyph glyph-name="ohungarumlaut" unicode="&#x151;" horiz-adv-x="1116" 
d="M305 1128l215 285h180l-272 -285h-123zM630 1128l215 285h177l-269 -285h-123zM555 -20q-134 0 -240 71t-163.5 190t-57.5 261t57.5 260t163.5 188t240 70t241.5 -70t166.5 -188.5t59 -259.5q0 -142 -59 -261t-166.5 -190t-241.5 -71zM557 82q84 0 151 36t107 96.5
t61 134t21 153.5q0 109 -35 201t-113.5 153.5t-189.5 61.5q-84 0 -150.5 -35.5t-107 -94.5t-61.5 -132.5t-21 -153.5q0 -81 21 -155t61.5 -134t106.5 -95.5t149 -35.5z" />
    <glyph glyph-name="OE" unicode="&#x152;" horiz-adv-x="2241" 
d="M754 -20q-153 0 -273.5 58t-195.5 158.5t-113.5 230.5t-38.5 280q0 119 24 226.5t74 199t122.5 158.5t175 105t225.5 38q362 0 489 -304v283h889v-113h-754v-538h662v-109h-662v-532h754v-121h-889v283q-121 -303 -489 -303zM754 100q103 0 186.5 33.5t139 90t93 135
t54 165.5t16.5 183t-16.5 182.5t-54 165t-93 135t-139 90t-186.5 33.5q-101 0 -183.5 -33.5t-138 -90t-93 -135t-54.5 -165t-17 -182.5t17 -183t54.5 -165t93 -135t138 -90.5t183.5 -33.5z" />
    <glyph glyph-name="oe" unicode="&#x153;" horiz-adv-x="1774" 
d="M555 -20q-134 0 -240 69.5t-163.5 187t-57.5 259.5q0 141 58 259t164 187.5t239 69.5q128 0 224 -58t151 -163q45 101 133.5 161t216.5 60q92 0 163.5 -29t117 -77t75 -117.5t41 -144t11.5 -161.5v-26h-699q-2 -74 16.5 -139.5t55 -117t96 -82t135.5 -30.5q95 0 161 22
t124 85l80 -62q-76 -81 -160.5 -113t-202.5 -32q-252 0 -362 219q-53 -105 -149.5 -166t-227.5 -61zM987 565h590q5 151 -71.5 244.5t-225.5 93.5q-140 0 -215 -95.5t-78 -242.5zM557 100q85 0 149 32.5t100 89.5t53.5 125.5t17.5 148.5t-17.5 148.5t-54.5 125.5t-101 90
t-149 33q-83 0 -145.5 -33t-99 -89.5t-54.5 -125.5t-18 -149t18 -149t55 -125.5t100 -89t146 -32.5z" />
    <glyph glyph-name="Racute" unicode="&#x154;" horiz-adv-x="1208" 
d="M518 1538l215 289h176l-268 -289h-123zM219 -2v1413h391q188 0 310 -105t122 -282q0 -144 -83 -242t-224 -123l381 -661h-160l-354 641h-248v-641h-135zM356 770h281q123 6 198.5 72t75.5 184q0 126 -83 196t-216 70h-256v-522z" />
    <glyph glyph-name="racute" unicode="&#x155;" horiz-adv-x="791" 
d="M256 1124l215 289h176l-268 -289h-123zM174 0v999h127v-180q40 92 122 146.5t179 54.5q87 0 156 -47l-51 -111q-44 39 -125 39q-137 0 -210 -101t-73 -282v-518h-125z" />
    <glyph glyph-name="Rcommaaccent" unicode="&#x156;" horiz-adv-x="1208" 
d="M219 -2v1413h391q188 0 310 -105t122 -282q0 -144 -83 -242t-224 -123l381 -661h-160l-354 641h-248v-641h-135zM356 770h281q123 6 198.5 72t75.5 184q0 126 -83 196t-216 70h-256v-522zM465 -442l120 329h201l-223 -329h-98z" />
    <glyph glyph-name="rcommaaccent" unicode="&#x157;" horiz-adv-x="791" 
d="M174 0v999h127v-180q40 92 122 146.5t179 54.5q87 0 156 -47l-51 -111q-44 39 -125 39q-137 0 -210 -101t-73 -282v-518h-125zM15 -442l120 329h201l-223 -329h-98z" />
    <glyph glyph-name="Rcaron" unicode="&#x158;" horiz-adv-x="1208" 
d="M608 1495l-332 332h156l176 -192l178 192h154zM219 -2v1413h391q188 0 310 -105t122 -282q0 -144 -83 -242t-224 -123l381 -661h-160l-354 641h-248v-641h-135zM356 770h281q123 6 198.5 72t75.5 184q0 126 -83 196t-216 70h-256v-522z" />
    <glyph glyph-name="rcaron" unicode="&#x159;" horiz-adv-x="791" 
d="M346 1081l-332 332h156l176 -192l178 192h154zM174 0v999h127v-180q40 92 122 146.5t179 54.5q87 0 156 -47l-51 -111q-44 39 -125 39q-137 0 -210 -101t-73 -282v-518h-125z" />
    <glyph glyph-name="Sacute" unicode="&#x15a;" 
d="M457 1538l215 289h176l-268 -289h-123zM567 -16q-179 0 -313 96t-162 272l123 39q15 -139 115 -213t237 -74t218 67.5t81 203.5q0 61 -23.5 111t-62.5 84.5t-90 64t-107.5 55l-113 51t-107.5 57.5t-90 70t-62.5 93t-23.5 122q0 154 107 252.5t262 98.5q257 0 383 -213
l-96 -68q-43 83 -119 124.5t-168 41.5q-97 0 -168.5 -60.5t-71.5 -160.5q0 -67 37.5 -119t97.5 -88t132.5 -69t145 -71t132.5 -84t97.5 -118t37.5 -164q0 -181 -120.5 -291t-307.5 -110z" />
    <glyph glyph-name="sacute" unicode="&#x15b;" horiz-adv-x="858" 
d="M338 1124l215 289h176l-268 -289h-123zM444 -20q-130 0 -227 69t-133 170l109 60q28 -90 94 -143.5t164 -53.5q89 0 146.5 44.5t57.5 131.5q0 47 -18.5 83.5t-49.5 59.5t-71.5 41t-85 33l-89 30t-85 35.5t-71.5 47.5t-49.5 68.5t-18.5 95.5q0 124 87 196t216 72
q108 0 189.5 -52.5t125.5 -142.5l-90 -53q-70 146 -229 146q-85 0 -136 -42t-51 -110q0 -45 23.5 -78t62 -52t87.5 -37.5t100.5 -32.5t100.5 -38t87.5 -53.5t62 -80t23.5 -115.5q0 -73 -27.5 -131t-74.5 -94t-106 -55t-124 -19z" />
    <glyph glyph-name="Scedilla" unicode="&#x15e;" 
d="M995 385q0 -172 -109.5 -280.5t-283.5 -119.5l-57 -106q90 -1 137 -52t47 -124q0 -79 -56.5 -141t-150.5 -62q-62 0 -110 35.5t-68 87.5l90 49q5 -31 31 -54.5t63 -23.5q46 0 74.5 29.5t28.5 71.5q0 52 -48.5 90.5t-142.5 38.5h-34l86 165q-154 19 -264.5 112.5
t-135.5 250.5l123 39q15 -139 115 -213t237 -74t218 67.5t81 203.5q0 61 -23.5 111t-62.5 84.5t-90 64t-107.5 55l-113 51t-107.5 57.5t-90 70t-62.5 93t-23.5 122q0 154 107 252.5t262 98.5q257 0 383 -213l-96 -68q-43 83 -119 124.5t-168 41.5q-97 0 -168.5 -60.5
t-71.5 -160.5q0 -67 37.5 -119t97.5 -88t132.5 -69t145 -71t132.5 -84t97.5 -118t37.5 -164z" />
    <glyph glyph-name="scedilla" unicode="&#x15f;" horiz-adv-x="858" 
d="M776 279q0 -123 -74 -199t-188 -94l-57 -107q90 -1 137 -52t47 -124q0 -79 -56.5 -141t-150.5 -62q-62 0 -110 35.5t-68 87.5l90 49q5 -31 31 -54.5t63 -23.5q46 0 74.5 29.5t28.5 71.5q0 52 -48.5 90.5t-142.5 38.5h-34l83 158q-115 12 -200 78.5t-117 158.5l109 60
q28 -90 94 -143.5t164 -53.5q89 0 146.5 44.5t57.5 131.5q0 47 -18.5 83.5t-49.5 59.5t-71.5 41t-85 33l-89 30t-85 35.5t-71.5 47.5t-49.5 68.5t-18.5 95.5q0 124 87 196t216 72q108 0 189.5 -52.5t125.5 -142.5l-90 -53q-70 146 -229 146q-85 0 -136 -42t-51 -110
q0 -45 23.5 -78t62 -52t87.5 -37.5t100.5 -32.5t100.5 -38t87.5 -53.5t62 -80t23.5 -115.5z" />
    <glyph glyph-name="Scaron" unicode="&#x160;" 
d="M547 1495l-332 332h156l176 -192l178 192h154zM567 -16q-179 0 -313 96t-162 272l123 39q15 -139 115 -213t237 -74t218 67.5t81 203.5q0 61 -23.5 111t-62.5 84.5t-90 64t-107.5 55l-113 51t-107.5 57.5t-90 70t-62.5 93t-23.5 122q0 154 107 252.5t262 98.5
q257 0 383 -213l-96 -68q-43 83 -119 124.5t-168 41.5q-97 0 -168.5 -60.5t-71.5 -160.5q0 -67 37.5 -119t97.5 -88t132.5 -69t145 -71t132.5 -84t97.5 -118t37.5 -164q0 -181 -120.5 -291t-307.5 -110z" />
    <glyph glyph-name="scaron" unicode="&#x161;" horiz-adv-x="858" 
d="M428 1081l-332 332h156l176 -192l178 192h154zM444 -20q-130 0 -227 69t-133 170l109 60q28 -90 94 -143.5t164 -53.5q89 0 146.5 44.5t57.5 131.5q0 47 -18.5 83.5t-49.5 59.5t-71.5 41t-85 33l-89 30t-85 35.5t-71.5 47.5t-49.5 68.5t-18.5 95.5q0 124 87 196t216 72
q108 0 189.5 -52.5t125.5 -142.5l-90 -53q-70 146 -229 146q-85 0 -136 -42t-51 -110q0 -45 23.5 -78t62 -52t87.5 -37.5t100.5 -32.5t100.5 -38t87.5 -53.5t62 -80t23.5 -115.5q0 -73 -27.5 -131t-74.5 -94t-106 -55t-124 -19z" />
    <glyph glyph-name="uni0162" unicode="&#x162;" horiz-adv-x="1247" 
d="M692 1307v-1307l-65 -121q90 -1 137 -52t47 -124q0 -79 -56.5 -141t-150.5 -62q-62 0 -110 35.5t-68 87.5l90 49q5 -31 31 -54.5t63 -23.5q46 0 74.5 29.5t28.5 71.5q0 52 -48.5 90.5t-142.5 38.5h-34l92 176h-25v1307h-485v106h1108v-106h-486z" />
    <glyph glyph-name="uni0163" unicode="&#x163;" horiz-adv-x="653" 
d="M432 -121q90 -1 137 -52t47 -124q0 -79 -56.5 -141t-150.5 -62q-62 0 -110 35.5t-68 87.5l90 49q5 -31 31 -54.5t63 -23.5q46 0 74.5 29.5t28.5 71.5q0 52 -48.5 90.5t-142.5 38.5h-34l84 161q-91 16 -129.5 86.5t-38.5 190.5v635h-160v102h160v220l125 131v-351h254
v-102h-254v-647q0 -82 36 -126t95 -44q41 0 90 22v-104q-23 -9 -67 -15z" />
    <glyph glyph-name="Tcaron" unicode="&#x164;" horiz-adv-x="1247" 
d="M629 1495l-332 332h156l176 -192l178 192h154zM555 0v1307h-485v106h1108v-106h-486v-1307h-137z" />
    <glyph glyph-name="tcaron" unicode="&#x165;" horiz-adv-x="653" 
d="M465 1094l117 352h182l-217 -352h-82zM440 -20q-235 0 -235 282v635h-156v102h156v220l129 131v-351h254v-102h-254v-647q0 -162 112 -162q32 0 59 3.5t39 6.5l11 4v-104q-49 -18 -115 -18z" />
    <glyph glyph-name="Tbar" unicode="&#x166;" horiz-adv-x="1247" 
d="M1178 1307h-486v-549h255v-105h-255v-653h-137v653h-243v105h243v549h-485v106h1108v-106z" />
    <glyph glyph-name="tbar" unicode="&#x167;" horiz-adv-x="653" 
d="M627 446h-293v-196q0 -82 36 -126t95 -44q41 0 90 22v-104q-41 -18 -123 -18q-122 0 -172.5 73t-50.5 209v184h-217v105h217v346h-160v102h160v220l125 131v-351h254v-102h-254v-346h293v-105z" />
    <glyph glyph-name="Utilde" unicode="&#x168;" horiz-adv-x="1346" 
d="M797 1571q-36 0 -68 16.5t-54.5 40t-43 47t-43 40t-45.5 16.5q-70 0 -70 -137h-90q0 108 41 174.5t117 66.5q41 0 75 -17t56.5 -41t42 -48t41 -41t43.5 -17q74 0 74 158h96q0 -125 -44.5 -191.5t-127.5 -66.5zM672 -20q-124 0 -219 44.5t-150 120.5t-82.5 168.5
t-27.5 196.5v903h135v-854q0 -453 344 -453q77 0 137.5 23.5t99.5 64t64.5 99t36 124t10.5 142.5v854h135v-893q0 -86 -17 -163.5t-54.5 -147t-92.5 -120t-137 -80t-182 -29.5z" />
    <glyph glyph-name="utilde" unicode="&#x169;" 
d="M674 1157q-36 0 -68 16.5t-54.5 40t-43 47t-43 40t-45.5 16.5q-70 0 -70 -137h-90q0 108 41 174.5t117 66.5q41 0 75 -17t56.5 -41t42 -48t41 -41t43.5 -17q74 0 74 158h96q0 -125 -44.5 -191.5t-127.5 -66.5zM487 -23q-88 0 -154.5 33.5t-105.5 93t-58 135.5t-19 167
v593h124v-604q0 -45 5.5 -86.5t20.5 -84.5t38.5 -73.5t63 -50.5t90.5 -20q127 0 221 104.5t94 235.5v579h123v-999h-123v182q-29 -75 -117 -140t-203 -65z" />
    <glyph glyph-name="Umacron" unicode="&#x16a;" horiz-adv-x="1346" 
d="M412 1606v121h536v-121h-536zM672 -20q-124 0 -219 44.5t-150 120.5t-82.5 168.5t-27.5 196.5v903h135v-854q0 -453 344 -453q77 0 137.5 23.5t99.5 64t64.5 99t36 124t10.5 142.5v854h135v-893q0 -86 -17 -163.5t-54.5 -147t-92.5 -120t-137 -80t-182 -29.5z" />
    <glyph glyph-name="umacron" unicode="&#x16b;" 
d="M289 1192v121h536v-121h-536zM487 -23q-88 0 -154.5 33.5t-105.5 93t-58 135.5t-19 167v593h124v-604q0 -45 5.5 -86.5t20.5 -84.5t38.5 -73.5t63 -50.5t90.5 -20q127 0 221 104.5t94 235.5v579h123v-999h-123v182q-29 -75 -117 -140t-203 -65z" />
    <glyph glyph-name="Uring" unicode="&#x16e;" horiz-adv-x="1346" 
d="M676 1495q-83 0 -139.5 57.5t-56.5 139.5q0 81 57 139t139 58q81 0 139 -57t58 -140q0 -82 -57.5 -139.5t-139.5 -57.5zM676 1592q41 0 71 29t30 71q0 41 -29 69.5t-72 28.5q-44 0 -71 -27t-27 -71t28 -72t70 -28zM672 -20q-124 0 -219 44.5t-150 120.5t-82.5 168.5
t-27.5 196.5v903h135v-854q0 -453 344 -453q77 0 137.5 23.5t99.5 64t64.5 99t36 124t10.5 142.5v854h135v-893q0 -86 -17 -163.5t-54.5 -147t-92.5 -120t-137 -80t-182 -29.5z" />
    <glyph glyph-name="uring" unicode="&#x16f;" 
d="M553 1081q-83 0 -139.5 57.5t-56.5 139.5q0 81 57 139t139 58q81 0 139 -57t58 -140q0 -82 -57.5 -139.5t-139.5 -57.5zM553 1178q41 0 71 29t30 71q0 41 -29 69.5t-72 28.5q-44 0 -71 -27t-27 -71t28 -72t70 -28zM487 -23q-88 0 -154.5 33.5t-105.5 93t-58 135.5
t-19 167v593h124v-604q0 -45 5.5 -86.5t20.5 -84.5t38.5 -73.5t63 -50.5t90.5 -20q127 0 221 104.5t94 235.5v579h123v-999h-123v182q-29 -75 -117 -140t-203 -65z" />
    <glyph glyph-name="Uhungarumlaut" unicode="&#x170;" horiz-adv-x="1346" 
d="M426 1542l215 285h180l-272 -285h-123zM751 1542l215 285h177l-269 -285h-123zM672 -20q-124 0 -219 44.5t-150 120.5t-82.5 168.5t-27.5 196.5v903h135v-854q0 -453 344 -453q77 0 137.5 23.5t99.5 64t64.5 99t36 124t10.5 142.5v854h135v-893q0 -86 -17 -163.5
t-54.5 -147t-92.5 -120t-137 -80t-182 -29.5z" />
    <glyph glyph-name="uhungarumlaut" unicode="&#x171;" 
d="M303 1128l215 285h180l-272 -285h-123zM628 1128l215 285h177l-269 -285h-123zM487 -23q-88 0 -154.5 33.5t-105.5 93t-58 135.5t-19 167v593h124v-604q0 -45 5.5 -86.5t20.5 -84.5t38.5 -73.5t63 -50.5t90.5 -20q127 0 221 104.5t94 235.5v579h123v-999h-123v182
q-29 -75 -117 -140t-203 -65z" />
    <glyph glyph-name="Uogonek" unicode="&#x172;" horiz-adv-x="1346" 
d="M1020 1413h135v-893q0 -114 -29.5 -212t-97 -178t-167.5 -118h3l-12 -4q-12 -5 -33 -15t-45 -23.5t-49.5 -33.5t-45.5 -42.5t-33 -52.5t-13 -62q0 -51 26 -82t64 -31q80 0 127 65l86 -59q-37 -54 -84.5 -82.5t-118.5 -28.5q-87 0 -143.5 56.5t-56.5 148.5q0 136 148 214
h-9q-124 0 -219 44.5t-150 120.5t-82.5 168.5t-27.5 196.5v903h135v-854q0 -453 344 -453q77 0 137.5 23.5t99.5 64t64.5 99t36 124t10.5 142.5v854z" />
    <glyph glyph-name="uogonek" unicode="&#x173;" 
d="M916 -281l86 -59q-37 -54 -84.5 -82.5t-118.5 -28.5q-87 0 -143.5 56.5t-56.5 148.5q0 53 23 97.5t60.5 73.5t71.5 46.5t70 28.5h-17v182q-29 -75 -117 -140t-203 -65q-88 0 -154.5 33.5t-105.5 93t-58 135.5t-19 167v593h124v-604q0 -45 5.5 -86.5t20.5 -84.5
t38.5 -73.5t63 -50.5t90.5 -20q127 0 221 104.5t94 235.5v579h123v-999l-12 -4q-12 -5 -33 -15t-45 -23.5t-49.5 -33.5t-45.5 -42.5t-33 -52.5t-13 -62q0 -51 26 -82t64 -31q80 0 127 65z" />
    <glyph glyph-name="Wcircumflex" unicode="&#x174;" horiz-adv-x="1966" 
d="M655 1481l332 356l332 -356h-154l-178 196l-176 -196h-156zM477 0l-391 1413h137l344 -1263l361 1181h110l363 -1181l342 1263h137l-391 -1413h-156l-346 1112l-354 -1112h-156z" />
    <glyph glyph-name="wcircumflex" unicode="&#x175;" horiz-adv-x="1407" 
d="M375 1098l332 356l332 -356h-154l-178 196l-176 -196h-156zM332 0l-273 999h134l213 -845l239 845h119l240 -843l210 843h134l-273 -999h-127l-241 850l-248 -850h-127z" />
    <glyph glyph-name="Ycircumflex" unicode="&#x176;" horiz-adv-x="1315" 
d="M325 1512l332 356l332 -356h-154l-178 196l-176 -196h-156zM594 0v553l-528 860h155l436 -719l439 719h153l-526 -860v-553h-129z" />
    <glyph glyph-name="ycircumflex" unicode="&#x177;" horiz-adv-x="961" 
d="M143 1098l332 356l332 -356h-154l-178 196l-176 -196h-156zM260 -430l168 430l-383 999h139l303 -847l291 847h137l-526 -1429h-129z" />
    <glyph glyph-name="Ydieresis" unicode="&#x178;" horiz-adv-x="1315" 
d="M409 1643v184h160v-184h-160zM741 1643v184h160v-184h-160zM594 0v553l-528 860h155l436 -719l439 719h153l-526 -860v-553h-129z" />
    <glyph glyph-name="Zacute" unicode="&#x179;" horiz-adv-x="1274" 
d="M549 1538l215 289h176l-268 -289h-123zM94 0v111l922 1189h-877v113h1030v-117l-917 -1173h917v-123h-1075z" />
    <glyph glyph-name="zacute" unicode="&#x17a;" horiz-adv-x="911" 
d="M750 1413l-268 -289h-123l215 289h176zM831 999v-110l-613 -780h613v-109h-761v100l622 797h-594v102h733z" />
    <glyph glyph-name="Zdotaccent" unicode="&#x17b;" horiz-adv-x="1274" 
d="M561 1643v184h152v-184h-152zM94 0v111l922 1189h-877v113h1030v-117l-917 -1173h917v-123h-1075z" />
    <glyph glyph-name="zdotaccent" unicode="&#x17c;" horiz-adv-x="911" 
d="M523 1413v-184h-152v184h152zM831 999v-110l-613 -780h613v-109h-761v100l622 797h-594v102h733z" />
    <glyph glyph-name="Zcaron" unicode="&#x17d;" horiz-adv-x="1274" 
d="M639 1495l-332 332h156l176 -192l178 192h154zM94 0v111l922 1189h-877v113h1030v-117l-917 -1173h917v-123h-1075z" />
    <glyph glyph-name="zcaron" unicode="&#x17e;" horiz-adv-x="911" 
d="M781 1413l-332 -332l-332 332h156l176 -192l178 192h154zM831 999v-110l-613 -780h613v-109h-761v100l622 797h-594v102h733z" />
    <glyph glyph-name="florin" unicode="&#x192;" horiz-adv-x="1051" 
d="M127 -457v117q172 0 255 79.5t83 246.5v899h-178v114h178v170q0 122 75 201.5t183 79.5q107 0 184 -68l-76 -90q-22 20 -53 30.5t-55 10.5q-59 0 -100 -43t-41 -121v-170h305v-114h-305v-899q0 -214 -124 -328.5t-331 -114.5z" />
    <glyph glyph-name="uni01C3" unicode="&#x1c3;" horiz-adv-x="659" 
d="M283 367l-29 1069h152l-29 -1069h-94zM242 0v174h176v-174h-176z" />
    <glyph glyph-name="uni01C4" unicode="&#x1c4;" horiz-adv-x="2659" 
d="M2024 1495l-332 332h156l176 -192l178 192h154zM219 0v1413h348q341 0 524 -184.5t183 -532.5q0 -334 -185 -515t-524 -181h-346zM1479 0v111l922 1189h-877v113h1030v-117l-917 -1173h917v-123h-1075zM354 123h187q127 0 234.5 36t189 106t128 183.5t46.5 258.5
q0 282 -147 434.5t-429 152.5h-209v-1171z" />
    <glyph glyph-name="uni01C5" unicode="&#x1c5;" horiz-adv-x="2316" 
d="M567 1413q341 0 524 -184.5t183 -532.5q0 -334 -185 -515t-524 -181h-346v1413h348zM2186 1413l-332 -332l-332 332h156l176 -192l178 192h154zM541 123q127 0 234.5 36t189 106t128 183.5t46.5 258.5q0 282 -147 434.5t-429 152.5h-209v-1171h187zM2236 999v-110
l-613 -780h613v-109h-761v100l622 797h-594v102h733z" />
    <glyph glyph-name="uni01C6" unicode="&#x1c6;" horiz-adv-x="2029" 
d="M817 854v559h125v-1413h-125v146q-55 -78 -130.5 -122t-188.5 -44q-121 0 -212 70.5t-136.5 187.5t-45.5 262t45.5 262t136.5 187.5t212 70.5q209 0 319 -166zM1899 1413l-332 -332l-332 332h156l176 -192l178 192h154zM1949 999v-110l-613 -780h613v-109h-761v100
l622 797h-594v102h733zM530 82q77 0 136 35t93 95t51 132.5t17 155.5q0 82 -17 154.5t-51 133t-93 95.5t-136 35q-75 0 -133.5 -35t-93.5 -95t-52.5 -133t-17.5 -155t17.5 -155.5t52.5 -133t93.5 -94.5t133.5 -35z" />
    <glyph glyph-name="uni01C7" unicode="&#x1c7;" horiz-adv-x="2185" 
d="M219 0v1413h135v-1292h604v-121h-739zM1567 -20q-182 0 -291.5 114.5t-122.5 290.5l131 18q4 -59 22 -111.5t50.5 -97.5t87 -71.5t123.5 -26.5q70 0 121.5 20.5t82.5 54.5t50 85t25.5 103.5t6.5 119.5v821h-532v113h668v-913q0 -520 -422 -520z" />
    <glyph glyph-name="uni01C8" unicode="&#x1c8;" horiz-adv-x="1511" 
d="M219 0v1413h135v-1292h604v-121h-739zM1196 1237v176h149v-176h-149zM1087 -438q-64 0 -145 30l25 89q53 -17 122 -17q63 0 90 42.5t27 103.5v1189h129v-1167q0 -126 -60.5 -198t-187.5 -72z" />
    <glyph glyph-name="uni01C9" unicode="&#x1c9;" horiz-adv-x="985" 
d="M322 -20q-32 0 -56 7t-40 15.5t-26.5 27t-16 31.5t-8.5 40t-3 40v44v18v1210h127v-1272q0 -42 28 -51q6 -2 13 -2q54 0 104 10v-98q-52 -20 -122 -20zM670 1237v176h149v-176h-149zM561 -438q-64 0 -145 30l25 89q53 -17 122 -17q63 0 90 42.5t27 103.5v1189h129v-1167
q0 -126 -60.5 -198t-187.5 -72z" />
    <glyph glyph-name="uni01CA" unicode="&#x1ca;" horiz-adv-x="2523" 
d="M219 0v1413h223l613 -1309v1309h135v-1413h-227l-607 1311v-1311h-137zM1905 -20q-182 0 -291.5 114.5t-122.5 290.5l131 18q4 -59 22 -111.5t50.5 -97.5t87 -71.5t123.5 -26.5q70 0 121.5 20.5t82.5 54.5t50 85t25.5 103.5t6.5 119.5v821h-532v113h668v-913
q0 -520 -422 -520z" />
    <glyph glyph-name="uni01CB" unicode="&#x1cb;" horiz-adv-x="1890" 
d="M219 0v1413h223l613 -1309v1309h135v-1413h-227l-607 1311v-1311h-137zM1575 1237v176h149v-176h-149zM1466 -438q-64 0 -145 30l25 89q53 -17 122 -17q63 0 90 42.5t27 103.5v1189h129v-1167q0 -126 -60.5 -198t-187.5 -72z" />
    <glyph glyph-name="uni01CC" unicode="&#x1cc;" horiz-adv-x="1589" 
d="M1274 1237v176h149v-176h-149zM174 0v999h125v-188q50 95 133 150t197 55q111 0 186.5 -56.5t108 -146t32.5 -205.5v-608h-125v598q0 57 -11 108.5t-35.5 100t-73 77.5t-115.5 29q-128 0 -212.5 -105t-84.5 -296v-512h-125zM1165 -438q-64 0 -145 30l25 89
q53 -17 122 -17q63 0 90 42.5t27 103.5v1189h129v-1167q0 -126 -60.5 -198t-187.5 -72z" />
    <glyph glyph-name="uni01CD" unicode="&#x1cd;" horiz-adv-x="1296" 
d="M649 1495l-332 332h156l176 -192l178 192h154zM76 0l522 1413h104l519 -1413h-144l-108 307h-639l-107 -307h-147zM375 434h549l-273 780z" />
    <glyph glyph-name="uni01CE" unicode="&#x1ce;" horiz-adv-x="1016" 
d="M502 1081l-332 332h156l176 -192l178 192h154zM397 -20q-140 0 -227.5 78t-87.5 212q0 295 450 295h222q0 346 -258 346q-175 0 -287 -153l-90 71q137 191 366 191q184 0 282.5 -109.5t98.5 -296.5v-614h-108v205q-50 -112 -147 -168.5t-214 -56.5zM410 86q79 0 146 35.5
t109 91.5t65.5 122.5t23.5 131.5h-207q-171 0 -252.5 -45t-81.5 -154q0 -94 54.5 -138t142.5 -44z" />
    <glyph glyph-name="uni01CF" unicode="&#x1cf;" horiz-adv-x="573" 
d="M285 1495l-332 332h156l176 -192l178 192h154zM219 0v1413h135v-1413h-135z" />
    <glyph glyph-name="uni01D0" unicode="&#x1d0;" horiz-adv-x="498" 
d="M248 1081l-332 332h156l176 -192l178 192h154zM174 0v999h150v-999h-150z" />
    <glyph glyph-name="uni01D1" unicode="&#x1d1;" horiz-adv-x="1511" 
d="M754 1495l-332 332h156l176 -192l178 192h154zM754 -20q-153 0 -273.5 58t-195.5 158.5t-113.5 230.5t-38.5 280q0 119 24 226.5t74 199t122.5 158.5t175 105t225.5 38q124 0 227.5 -38t176 -104.5t122.5 -158.5t74 -199.5t24 -226.5q0 -120 -24 -227t-74 -199
t-122.5 -158.5t-176 -104.5t-227.5 -38zM754 106q128 0 226.5 49.5t156.5 135t87 190.5t29 226q0 96 -17.5 182t-56.5 163t-96 133.5t-141.5 89t-187.5 32.5q-101 0 -184.5 -32.5t-140 -89t-95.5 -133.5t-56.5 -163.5t-17.5 -181.5q0 -96 17.5 -182.5t56.5 -163.5
t95.5 -133.5t140 -89t184.5 -32.5z" />
    <glyph glyph-name="uni01D2" unicode="&#x1d2;" horiz-adv-x="1116" 
d="M557 1081l-332 332h156l176 -192l178 192h154zM555 -20q-134 0 -240 71t-163.5 190t-57.5 261t57.5 260t163.5 188t240 70t241.5 -70t166.5 -188.5t59 -259.5q0 -142 -59 -261t-166.5 -190t-241.5 -71zM557 82q84 0 151 36t107 96.5t61 134t21 153.5q0 109 -35 201
t-113.5 153.5t-189.5 61.5q-84 0 -150.5 -35.5t-107 -94.5t-61.5 -132.5t-21 -153.5q0 -81 21 -155t61.5 -134t106.5 -95.5t149 -35.5z" />
    <glyph glyph-name="uni01D3" unicode="&#x1d3;" horiz-adv-x="1346" 
d="M678 1495l-332 332h156l176 -192l178 192h154zM672 -20q-124 0 -219 44.5t-150 120.5t-82.5 168.5t-27.5 196.5v903h135v-854q0 -453 344 -453q77 0 137.5 23.5t99.5 64t64.5 99t36 124t10.5 142.5v854h135v-893q0 -86 -17 -163.5t-54.5 -147t-92.5 -120t-137 -80
t-182 -29.5z" />
    <glyph glyph-name="uni01D4" unicode="&#x1d4;" 
d="M555 1081l-332 332h156l176 -192l178 192h154zM487 -23q-88 0 -154.5 33.5t-105.5 93t-58 135.5t-19 167v593h124v-604q0 -45 5.5 -86.5t20.5 -84.5t38.5 -73.5t63 -50.5t90.5 -20q127 0 221 104.5t94 235.5v579h123v-999h-123v182q-29 -75 -117 -140t-203 -65z" />
    <glyph glyph-name="uni01D5" unicode="&#x1d5;" horiz-adv-x="1346" 
d="M412 2020v121h536v-121h-536zM430 1643v184h160v-184h-160zM762 1643v184h160v-184h-160zM672 -20q-124 0 -219 44.5t-150 120.5t-82.5 168.5t-27.5 196.5v903h135v-854q0 -453 344 -453q77 0 137.5 23.5t99.5 64t64.5 99t36 124t10.5 142.5v854h135v-893
q0 -86 -17 -163.5t-54.5 -147t-92.5 -120t-137 -80t-182 -29.5z" />
    <glyph glyph-name="uni01D6" unicode="&#x1d6;" 
d="M289 1606v121h536v-121h-536zM307 1229v184h160v-184h-160zM639 1229v184h160v-184h-160zM487 -23q-88 0 -154.5 33.5t-105.5 93t-58 135.5t-19 167v593h124v-604q0 -45 5.5 -86.5t20.5 -84.5t38.5 -73.5t63 -50.5t90.5 -20q127 0 221 104.5t94 235.5v579h123v-999h-123
v182q-29 -75 -117 -140t-203 -65z" />
    <glyph glyph-name="uni01D7" unicode="&#x1d7;" horiz-adv-x="1346" 
d="M588 1952l215 289h176l-268 -289h-123zM430 1643v184h160v-184h-160zM762 1643v184h160v-184h-160zM672 -20q-124 0 -219 44.5t-150 120.5t-82.5 168.5t-27.5 196.5v903h135v-854q0 -453 344 -453q77 0 137.5 23.5t99.5 64t64.5 99t36 124t10.5 142.5v854h135v-893
q0 -86 -17 -163.5t-54.5 -147t-92.5 -120t-137 -80t-182 -29.5z" />
    <glyph glyph-name="uni01D8" unicode="&#x1d8;" 
d="M465 1538l215 289h176l-268 -289h-123zM307 1229v184h160v-184h-160zM639 1229v184h160v-184h-160zM487 -23q-88 0 -154.5 33.5t-105.5 93t-58 135.5t-19 167v593h124v-604q0 -45 5.5 -86.5t20.5 -84.5t38.5 -73.5t63 -50.5t90.5 -20q127 0 221 104.5t94 235.5v579h123
v-999h-123v182q-29 -75 -117 -140t-203 -65z" />
    <glyph glyph-name="uni01D9" unicode="&#x1d9;" horiz-adv-x="1346" 
d="M678 1909l-332 332h156l176 -192l178 192h154zM430 1643v184h160v-184h-160zM762 1643v184h160v-184h-160zM672 -20q-124 0 -219 44.5t-150 120.5t-82.5 168.5t-27.5 196.5v903h135v-854q0 -453 344 -453q77 0 137.5 23.5t99.5 64t64.5 99t36 124t10.5 142.5v854h135
v-893q0 -86 -17 -163.5t-54.5 -147t-92.5 -120t-137 -80t-182 -29.5z" />
    <glyph glyph-name="uni01DA" unicode="&#x1da;" 
d="M555 1495l-332 332h156l176 -192l178 192h154zM307 1229v184h160v-184h-160zM639 1229v184h160v-184h-160zM487 -23q-88 0 -154.5 33.5t-105.5 93t-58 135.5t-19 167v593h124v-604q0 -45 5.5 -86.5t20.5 -84.5t38.5 -73.5t63 -50.5t90.5 -20q127 0 221 104.5t94 235.5
v579h123v-999h-123v182q-29 -75 -117 -140t-203 -65z" />
    <glyph glyph-name="uni01DB" unicode="&#x1db;" horiz-adv-x="1346" 
d="M604 1954l-245 287h176l215 -287h-146zM430 1643v184h160v-184h-160zM762 1643v184h160v-184h-160zM672 -20q-124 0 -219 44.5t-150 120.5t-82.5 168.5t-27.5 196.5v903h135v-854q0 -453 344 -453q77 0 137.5 23.5t99.5 64t64.5 99t36 124t10.5 142.5v854h135v-893
q0 -86 -17 -163.5t-54.5 -147t-92.5 -120t-137 -80t-182 -29.5z" />
    <glyph glyph-name="uni01DC" unicode="&#x1dc;" 
d="M481 1540l-245 287h176l215 -287h-146zM307 1229v184h160v-184h-160zM639 1229v184h160v-184h-160zM487 -23q-88 0 -154.5 33.5t-105.5 93t-58 135.5t-19 167v593h124v-604q0 -45 5.5 -86.5t20.5 -84.5t38.5 -73.5t63 -50.5t90.5 -20q127 0 221 104.5t94 235.5v579h123
v-999h-123v182q-29 -75 -117 -140t-203 -65z" />
    <glyph glyph-name="uni01DD" unicode="&#x1dd;" horiz-adv-x="1022" 
d="M504 -12q-93 0 -164.5 28.5t-117.5 77t-75 118t-41 144.5t-12 164q0 2 1 9.5t1 13.5h699q1 165 -83 263.5t-223 98.5q-93 0 -162 -24.5t-128 -85.5l-84 65q78 82 166 117t204 35q108 0 194 -40.5t139.5 -110.5t81.5 -160.5t28 -194.5t-26.5 -196t-77.5 -165t-133.5 -115
t-186.5 -42zM504 102q140 0 214.5 94.5t76.5 235.5h-584q-2 -147 73.5 -238.5t219.5 -91.5z" />
    <glyph glyph-name="uni01E3" unicode="&#x1e3;" horiz-adv-x="1667" 
d="M561 1208v111h526v-111h-526zM391 -20q-130 0 -219.5 81t-89.5 211q0 150 94.5 222.5t259.5 72.5h324q0 78 -14.5 140t-45.5 110.5t-84.5 74.5t-126.5 26q-86 0 -157 -43.5t-115 -108.5l-98 61q70 95 162 142t217 47q250 0 327 -197q94 193 326 193q95 0 168.5 -28.5
t120 -77t76 -118t41.5 -145t12 -164.5q0 -14 2 -22h-701q-1 -165 83 -264t223 -99q92 0 161 25t131 88l82 -68q-76 -81 -165 -116t-207 -35q-162 0 -259.5 82.5t-136.5 226.5q-97 -317 -391 -317zM870 567h584q1 155 -77 242.5t-218 87.5q-138 0 -212.5 -94.5t-76.5 -235.5z
M430 90q137 0 234 108t96 259h-309q-98 0 -164 -49.5t-66 -137.5q0 -73 69 -126.5t140 -53.5z" />
    <glyph glyph-name="uni01EB" unicode="&#x1eb;" horiz-adv-x="1116" 
d="M641 -12q-30 -13 -59 -30t-64.5 -44.5t-57 -66t-21.5 -80.5q0 -51 26 -82t64 -31q80 0 127 65l86 -59q-37 -54 -84.5 -82.5t-118.5 -28.5q-87 0 -143.5 56.5t-56.5 148.5q0 83 51.5 139.5t124.5 88.5q-186 16 -303.5 164.5t-117.5 355.5q0 142 57.5 260t163.5 188t240 70
t241.5 -70t166.5 -188.5t59 -259.5q0 -192 -106 -336.5t-275 -177.5zM219 502q0 -81 21 -155t61.5 -134t106.5 -95.5t149 -35.5q84 0 151 36t107 96.5t61 134t21 153.5q0 109 -35 201t-113.5 153.5t-189.5 61.5q-84 0 -150.5 -35.5t-107 -94.5t-61.5 -132.5t-21 -153.5z" />
    <glyph glyph-name="uni01F1" unicode="&#x1f1;" horiz-adv-x="2659" 
d="M219 0v1413h348q341 0 524 -184.5t183 -532.5q0 -334 -185 -515t-524 -181h-346zM1479 0v111l922 1189h-877v113h1030v-117l-917 -1173h917v-123h-1075zM354 123h187q127 0 234.5 36t189 106t128 183.5t46.5 258.5q0 282 -147 434.5t-429 152.5h-209v-1171z" />
    <glyph glyph-name="uni01F2" unicode="&#x1f2;" horiz-adv-x="2316" 
d="M567 1413q341 0 524 -184.5t183 -532.5q0 -334 -185 -515t-524 -181h-346v1413h348zM541 123q127 0 234.5 36t189 106t128 183.5t46.5 258.5q0 282 -147 434.5t-429 152.5h-209v-1171h187zM2236 999v-110l-613 -780h613v-109h-761v100l622 797h-594v102h733z" />
    <glyph glyph-name="uni01F3" unicode="&#x1f3;" horiz-adv-x="2029" 
d="M817 854v559h125v-1413h-125v146q-55 -78 -130.5 -122t-188.5 -44q-121 0 -212 70.5t-136.5 187.5t-45.5 262t45.5 262t136.5 187.5t212 70.5q209 0 319 -166zM1949 999v-110l-613 -780h613v-109h-761v100l622 797h-594v102h733zM530 82q77 0 136 35t93 95t51 132.5
t17 155.5q0 82 -17 154.5t-51 133t-93 95.5t-136 35q-75 0 -133.5 -35t-93.5 -95t-52.5 -133t-17.5 -155t17.5 -155.5t52.5 -133t93.5 -94.5t133.5 -35z" />
    <glyph glyph-name="Scommaaccent" unicode="&#x218;" 
d="M567 -16q-179 0 -313 96t-162 272l123 39q15 -139 115 -213t237 -74t218 67.5t81 203.5q0 61 -23.5 111t-62.5 84.5t-90 64t-107.5 55l-113 51t-107.5 57.5t-90 70t-62.5 93t-23.5 122q0 154 107 252.5t262 98.5q257 0 383 -213l-96 -68q-43 83 -119 124.5t-168 41.5
q-97 0 -168.5 -60.5t-71.5 -160.5q0 -67 37.5 -119t97.5 -88t132.5 -69t145 -71t132.5 -84t97.5 -118t37.5 -164q0 -181 -120.5 -291t-307.5 -110zM324 -442l120 329h201l-223 -329h-98z" />
    <glyph glyph-name="scommaaccent" unicode="&#x219;" horiz-adv-x="858" 
d="M444 -20q-130 0 -227 69t-133 170l109 60q28 -90 94 -143.5t164 -53.5q89 0 146.5 44.5t57.5 131.5q0 47 -18.5 83.5t-49.5 59.5t-71.5 41t-85 33l-89 30t-85 35.5t-71.5 47.5t-49.5 68.5t-18.5 95.5q0 124 87 196t216 72q108 0 189.5 -52.5t125.5 -142.5l-90 -53
q-70 146 -229 146q-85 0 -136 -42t-51 -110q0 -45 23.5 -78t62 -52t87.5 -37.5t100.5 -32.5t100.5 -38t87.5 -53.5t62 -80t23.5 -115.5q0 -73 -27.5 -131t-74.5 -94t-106 -55t-124 -19zM236 -442l120 329h201l-223 -329h-98z" />
    <glyph glyph-name="uni021A" unicode="&#x21a;" horiz-adv-x="1247" 
d="M555 0v1307h-485v106h1108v-106h-486v-1307h-137zM406 -442l120 329h201l-223 -329h-98z" />
    <glyph glyph-name="uni021B" unicode="&#x21b;" horiz-adv-x="653" 
d="M432 -20q-122 0 -172.5 73t-50.5 209v635h-160v102h160v220l125 131v-351h254v-102h-254v-647q0 -82 36 -126t95 -44q41 0 90 22v-104q-41 -18 -123 -18zM211 -442l120 329h201l-223 -329h-98z" />
    <glyph glyph-name="uni0237" unicode="&#x237;" horiz-adv-x="481" 
d="M57 -438q-64 0 -145 30l25 89q53 -17 122 -17q63 0 90 42.5t27 103.5v1189h129v-1167q0 -126 -60.5 -198t-187.5 -72z" />
    <glyph glyph-name="uni0250" unicode="&#x250;" horiz-adv-x="1044" 
d="M545 -20q-176 0 -273.5 107t-97.5 292v616h107l4 -186q69 106 156 156.5t212 50.5q129 0 217 -81t88 -210q0 -149 -93.5 -223t-258.5 -74h-323q0 -165 62 -250.5t208 -85.5q88 0 160.5 41.5t117.5 104.5l91 -72q-69 -96 -159 -141t-218 -45zM283 539h309q101 0 168 48
t67 138q0 93 -59.5 133.5t-151.5 40.5q-94 0 -172 -53t-119.5 -135t-41.5 -172z" />
    <glyph glyph-name="uni0254" unicode="&#x254;" horiz-adv-x="963" 
d="M449 -20q-131 0 -229 66t-150 187l118 54q25 -93 96.5 -149t164.5 -56q63 0 113.5 25.5t82.5 66.5t54 96t31 112t9 116q0 76 -15 145.5t-47 132t-91 100t-137 37.5q-95 0 -165.5 -56t-95.5 -148l-106 49q43 124 137.5 191t226.5 67q103 0 185 -42t133 -114t77.5 -164.5
t26.5 -197.5q0 -104 -26.5 -196.5t-77 -165t-132 -114.5t-183.5 -42z" />
    <glyph glyph-name="uni0258" unicode="&#x258;" horiz-adv-x="1022" 
d="M485 -12q-116 0 -204 35t-166 116l84 68q59 -63 128 -88t162 -25q139 0 223 99t83 264h-699q0 4 -1 11t-1 11q0 89 12 164.5t41 145t75 118t117.5 77t164.5 28.5q104 0 186.5 -42t133.5 -114.5t77.5 -164.5t26.5 -197t-28 -195.5t-81.5 -160.5t-139.5 -110t-194 -40z
M211 567h584q-2 141 -76.5 235.5t-214.5 94.5q-144 0 -219.5 -91t-73.5 -239z" />
    <glyph glyph-name="uni0259" unicode="&#x259;" horiz-adv-x="1022" 
d="M504 -12q-93 0 -164.5 28.5t-117.5 77t-75 118t-41 144.5t-12 164q0 2 1 9.5t1 13.5h699q1 165 -83 263.5t-223 98.5q-93 0 -162 -24.5t-128 -85.5l-84 65q78 82 166 117t204 35q108 0 194 -40.5t139.5 -110.5t81.5 -160.5t28 -194.5t-26.5 -196t-77.5 -165t-133.5 -115
t-186.5 -42zM504 102q140 0 214.5 94.5t76.5 235.5h-584q-2 -147 73.5 -238.5t219.5 -91.5z" />
    <glyph glyph-name="uni0261" unicode="&#x261;" horiz-adv-x="1108" 
d="M932 0q0 -201 -106.5 -316.5t-303.5 -115.5q-123 0 -222 48t-159 144l99 74q96 -158 280 -158q139 0 213 89.5t74 234.5v145q-48 -72 -127.5 -108.5t-177.5 -36.5q-197 0 -302.5 141.5t-105.5 366.5q0 148 45 262t136.5 182t218.5 68q203 0 313 -166v145h127zM522 109
q76 0 134.5 32.5t92.5 89.5t51 127t17 152t-17 152t-51 126.5t-92.5 88.5t-134.5 32q-101 0 -170.5 -56.5t-99 -144t-29.5 -198.5t29.5 -199t99 -145t170.5 -57z" />
    <glyph glyph-name="circumflex" unicode="&#x2c6;" horiz-adv-x="774" 
d="M51 1098l332 356l332 -356h-154l-178 196l-176 -196h-156z" />
    <glyph glyph-name="caron" unicode="&#x2c7;" horiz-adv-x="774" 
d="M387 1081l-332 332h156l176 -192l178 192h154z" />
    <glyph glyph-name="uni02D0" unicode="&#x2d0;" horiz-adv-x="524" 
d="M287 666l-226 333l377 48zM86 -47l152 381l225 -334z" />
    <glyph glyph-name="uni02D1" unicode="&#x2d1;" horiz-adv-x="551" 
d="M301 279l-225 333l377 47z" />
    <glyph glyph-name="breve" unicode="&#x2d8;" horiz-adv-x="836" 
d="M414 1143q-132 0 -218.5 72t-86.5 198h127q0 -71 51.5 -117.5t126.5 -46.5q74 0 125 46t51 118h127q0 -127 -85.5 -198.5t-217.5 -71.5z" />
    <glyph glyph-name="dotaccent" unicode="&#x2d9;" horiz-adv-x="492" 
d="M170 1229v184h152v-184h-152z" />
    <glyph glyph-name="ring" unicode="&#x2da;" horiz-adv-x="635" 
d="M313 1081q-83 0 -139.5 57.5t-56.5 139.5q0 81 57 139t139 58q81 0 139 -57t58 -140q0 -82 -57.5 -139.5t-139.5 -57.5zM313 1178q41 0 71 29t30 71q0 41 -29 69.5t-72 28.5q-44 0 -71 -27t-27 -71t28 -72t70 -28z" />
    <glyph glyph-name="ogonek" unicode="&#x2db;" horiz-adv-x="596" 
d="M313 -451q-87 0 -143.5 56.5t-56.5 148.5q0 53 23 97.5t60.5 73.5t71.5 46.5t70 28.5h106l-12 -4q-12 -5 -33 -15t-45 -23.5t-49.5 -33.5t-45.5 -42.5t-33 -52.5t-13 -62q0 -51 26 -82t64 -31q80 0 127 65l86 -59q-37 -54 -84.5 -82.5t-118.5 -28.5z" />
    <glyph glyph-name="tilde" unicode="&#x2dc;" horiz-adv-x="856" 
d="M588 1155q-36 0 -68 16.5t-54.5 40t-43 47t-43 40t-45.5 16.5q-70 0 -70 -137h-90q0 108 41 174.5t117 66.5q41 0 75 -17t56.5 -41t42 -48t41 -41t43.5 -17q74 0 74 158h96q0 -125 -44.5 -191.5t-127.5 -66.5z" />
    <glyph glyph-name="hungarumlaut" unicode="&#x2dd;" horiz-adv-x="860" 
d="M76 1128l215 285h180l-272 -285h-123zM401 1128l215 285h177l-269 -285h-123z" />
    <glyph glyph-name="uni02F5" unicode="&#x2f5;" horiz-adv-x="1343" 
d="M389 729l-227 270h182l209 -270h-164zM1016 729l-228 270h183l209 -270h-164z" />
    <glyph glyph-name="uni02F6" unicode="&#x2f6;" horiz-adv-x="1343" 
d="M164 729l211 270h180l-227 -270h-164zM791 729l210 270h181l-228 -270h-163z" />
    <glyph glyph-name="gravecomb" unicode="&#x300;" horiz-adv-x="0" 
d="M-222 1126l-245 287h176l215 -287h-146z" />
    <glyph glyph-name="acutecomb" unicode="&#x301;" horiz-adv-x="0" 
d="M-456 1124l215 289h176l-268 -289h-123z" />
    <glyph glyph-name="uni0302" unicode="&#x302;" horiz-adv-x="0" 
d="M-719 1098l332 356l332 -356h-154l-178 196l-176 -196h-156z" />
    <glyph glyph-name="tildecomb" unicode="&#x303;" horiz-adv-x="0" 
d="M-307 1155q-36 0 -68 16.5t-54.5 40t-43 47t-43 40t-45.5 16.5q-70 0 -70 -137h-90q0 108 41 174.5t117 66.5q41 0 75 -17t56.5 -41t42 -48t41 -41t43.5 -17q74 0 74 158h96q0 -125 -44.5 -191.5t-127.5 -66.5z" />
    <glyph glyph-name="uni0304" unicode="&#x304;" horiz-adv-x="0" 
d="M-702 1192v121h536v-121h-536z" />
    <glyph glyph-name="uni0306" unicode="&#x306;" horiz-adv-x="0" 
d="M-418 1143q-132 0 -218.5 72t-86.5 198h127q0 -71 51.5 -117.5t126.5 -46.5q74 0 125 46t51 118h127q0 -127 -85.5 -198.5t-217.5 -71.5z" />
    <glyph glyph-name="uni0307" unicode="&#x307;" horiz-adv-x="0" 
d="M-322 1229v184h152v-184h-152z" />
    <glyph glyph-name="uni0308" unicode="&#x308;" horiz-adv-x="0" 
d="M-661 1229v184h160v-184h-160zM-329 1229v184h160v-184h-160z" />
    <glyph glyph-name="uni030A" unicode="&#x30a;" horiz-adv-x="0" 
d="M-318 1081q-83 0 -139.5 57.5t-56.5 139.5q0 81 57 139t139 58q81 0 139 -57t58 -140q0 -82 -57.5 -139.5t-139.5 -57.5zM-318 1178q41 0 71 29t30 71q0 41 -29 69.5t-72 28.5q-44 0 -71 -27t-27 -71t28 -72t70 -28z" />
    <glyph glyph-name="uni030B" unicode="&#x30b;" horiz-adv-x="0" 
d="M-784 1128l215 285h180l-272 -285h-123zM-459 1128l215 285h177l-269 -285h-123z" />
    <glyph glyph-name="uni030C" unicode="&#x30c;" horiz-adv-x="0" 
d="M-387 1081l-332 332h156l176 -192l178 192h154z" />
    <glyph glyph-name="uni030F" unicode="&#x30f;" horiz-adv-x="0" 
d="M-568 1128l-245 285h198l215 -285h-168zM-246 1128l-244 285h199l215 -285h-170z" />
    <glyph glyph-name="uni0312" unicode="&#x312;" horiz-adv-x="0" 
d="M-115 1419l-120 -294h-201l223 294h98z" />
    <glyph glyph-name="uni031B" unicode="&#x31b;" horiz-adv-x="0" 
d="M-395 999l120 414h201l-223 -414h-98z" />
    <glyph glyph-name="uni0326" unicode="&#x326;" horiz-adv-x="0" 
d="M-395 -442l120 329h201l-223 -329h-98z" />
    <glyph glyph-name="uni0327" unicode="&#x327;" horiz-adv-x="0" 
d="M-314 -500q-62 0 -110 35.5t-68 87.5l90 49q5 -31 31 -54.5t63 -23.5q46 0 74.5 29.5t28.5 71.5q0 52 -48.5 90.5t-142.5 38.5h-34l92 176h112l-65 -121q90 -1 137 -52t47 -124q0 -79 -56.5 -141t-150.5 -62z" />
    <glyph glyph-name="uni0328" unicode="&#x328;" horiz-adv-x="0" 
d="M-283 -451q-87 0 -143.5 56.5t-56.5 148.5q0 53 23 97.5t60.5 73.5t71.5 46.5t70 28.5h106l-12 -4q-12 -5 -33 -15t-45 -23.5t-49.5 -33.5t-45.5 -42.5t-33 -52.5t-13 -62q0 -51 26 -82t64 -31q80 0 127 65l86 -59q-37 -54 -84.5 -82.5t-118.5 -28.5z" />
    <glyph glyph-name="pi" unicode="&#x3c0;" horiz-adv-x="985" 
d="M825 -20q-87 0 -143.5 68t-56.5 155v659h-295v-862h-137v862h-82v137h733v-137h-82v-659q0 -51 21.5 -81t58.5 -30q28 0 57 19l33 -101q-52 -30 -107 -30z" />
    <glyph glyph-name="uni0400" unicode="&#x400;" horiz-adv-x="1237" 
d="M604 1540l-245 287h176l215 -287h-146zM219 0v1413h909v-113h-774v-538h662v-109h-662v-532h774v-121h-909z" />
    <glyph glyph-name="uni0401" unicode="&#x401;" horiz-adv-x="1237" 
d="M430 1643v184h160v-184h-160zM762 1643v184h160v-184h-160zM219 0v1413h909v-113h-774v-538h662v-109h-662v-532h774v-121h-909z" />
    <glyph glyph-name="uni0402" unicode="&#x402;" horiz-adv-x="1636" 
d="M1151 -16q-215 0 -322 127l99 88q76 -95 227 -95q96 0 162.5 102t66.5 259q0 213 -76.5 311t-271.5 98q-104 0 -197 -41.5t-147 -111.5v-721h-135v1309h-487v104h1108v-104h-486v-447q142 139 344 139q247 0 365.5 -134.5t118.5 -401.5q0 -125 -46 -235t-132 -178
t-191 -68z" />
    <glyph glyph-name="uni0403" unicode="&#x403;" horiz-adv-x="1069" 
d="M459 1538l211 289h149l-258 -289h-102zM219 0v1413h780v-110h-647v-1303h-133z" />
    <glyph glyph-name="uni0404" unicode="&#x404;" horiz-adv-x="1417" 
d="M758 -20q-155 0 -275.5 57t-195.5 157.5t-113.5 230.5t-38.5 282t38 282.5t112.5 231t195.5 158t275 57.5q195 0 339 -93.5t224 -275.5l-123 -51q-29 103 -97.5 171.5t-154 97t-190.5 28.5q-119 0 -211.5 -44.5t-149.5 -122.5t-88 -175.5t-37 -212.5h647v-88h-647
q5 -120 36.5 -221t89 -179.5t151 -123t213.5 -44.5q327 0 438 299l125 -51q-77 -181 -222.5 -275.5t-340.5 -94.5z" />
    <glyph glyph-name="uni0405" unicode="&#x405;" 
d="M567 -16q-179 0 -313 96t-162 272l123 39q15 -139 115 -213t237 -74t218 67.5t81 203.5q0 61 -23.5 111t-62.5 84.5t-90 64t-107.5 55l-113 51t-107.5 57.5t-90 70t-62.5 93t-23.5 122q0 154 107 252.5t262 98.5q257 0 383 -213l-96 -68q-43 83 -119 124.5t-168 41.5
q-97 0 -168.5 -60.5t-71.5 -160.5q0 -67 37.5 -119t97.5 -88t132.5 -69t145 -71t132.5 -84t97.5 -118t37.5 -164q0 -181 -120.5 -291t-307.5 -110z" />
    <glyph glyph-name="uni0406" unicode="&#x406;" horiz-adv-x="573" 
d="M219 0v1413h135v-1413h-135z" />
    <glyph glyph-name="uni0407" unicode="&#x407;" horiz-adv-x="571" 
d="M49 1606v159h144v-159h-144zM375 1606v159h143v-159h-143zM219 0v1413h133v-1413h-133z" />
    <glyph glyph-name="uni0408" unicode="&#x408;" horiz-adv-x="1114" 
d="M498 -20q-182 0 -292.5 115t-123.5 290l131 21q4 -60 22.5 -113.5t51.5 -98.5t87.5 -71.5t123.5 -26.5q85 0 143 29.5t87.5 85t41.5 120t12 150.5v822h-532v110h668v-919q0 -514 -420 -514z" />
    <glyph glyph-name="uni0409" unicode="&#x409;" horiz-adv-x="2040" 
d="M225 -20q-91 0 -157 38l61 136q62 -25 102 -25q37 0 67.5 35t50.5 95.5t35 135t23 161.5t11.5 166t3.5 157v534h827v-649h252q204 0 321 -99t117 -280q0 -180 -118 -282.5t-320 -102.5h-385v1303h-561v-424q0 -84 -1 -139t-7.5 -158.5t-18 -174.5t-36 -158.5t-58.5 -141
t-87.5 -90.5t-121.5 -37zM1249 117h252q145 0 227 70.5t82 197.5t-81 194.5t-228 67.5h-252v-530z" />
    <glyph glyph-name="uni040A" unicode="&#x40a;" horiz-adv-x="2017" 
d="M219 0v1413h133v-651h740v651h135v-649h252q204 0 321 -99t117 -280q0 -180 -118 -282.5t-320 -102.5h-387v651h-740v-651h-133zM1227 117h252q143 0 225 70.5t82 197.5t-81 194.5t-226 67.5h-252v-530z" />
    <glyph glyph-name="uni040B" unicode="&#x40b;" horiz-adv-x="1657" 
d="M557 0v1309h-487v104h1108v-104h-486v-447q120 139 344 139q126 0 220.5 -46t151 -129.5t84.5 -193.5t28 -245v-387h-136v401q0 107 -17 189t-55.5 148t-108 101t-167.5 35q-104 0 -197 -41.5t-147 -111.5v-721h-135z" />
    <glyph glyph-name="uni040C" unicode="&#x40c;" horiz-adv-x="1245" 
d="M479 1538l211 289h150l-258 -289h-103zM219 0v1413h133v-590h172l394 590h165l-407 -602q89 0 159.5 -52.5t88.5 -101.5l237 -657h-157l-211 586q-14 41 -69 85t-122 44h-250v-715h-133z" />
    <glyph glyph-name="uni040D" unicode="&#x40d;" horiz-adv-x="1444" 
d="M715 1546l-226 281h150l209 -281h-133zM219 0v1413h133v-1091q0 -48 -12 -142l16 -2l695 1235h174v-1413h-133v1090q0 72 12 143l-17 2l-694 -1235h-174z" />
    <glyph glyph-name="uni040E" unicode="&#x40e;" horiz-adv-x="1116" 
d="M563 1556q-122 0 -210.5 72.5t-88.5 198.5h111q0 -73 55.5 -123.5t132.5 -50.5t133 50t56 124h110q0 -123 -87 -197t-212 -74zM272 0l199 457l-395 956h149l316 -817l346 817h153l-622 -1413h-146z" />
    <glyph glyph-name="uni040F" unicode="&#x40f;" horiz-adv-x="1444" 
d="M655 -307v307h-436v1413h133v-1300h740v1300h133v-1413h-437v-307h-133z" />
    <glyph glyph-name="uni0410" unicode="&#x410;" horiz-adv-x="1294" 
d="M76 0l520 1413h104l519 -1413h-144l-110 307h-633l-111 -307h-145zM373 434h551l-275 783z" />
    <glyph glyph-name="uni0411" unicode="&#x411;" horiz-adv-x="1237" 
d="M219 0v1413h727v-121h-594v-512h340q191 0 304.5 -100.5t113.5 -296.5q0 -177 -122 -280t-326 -103h-443zM352 123h314q121 0 214 76t93 192q0 84 -44 145t-111 89t-146 28h-320v-530z" />
    <glyph glyph-name="uni0412" unicode="&#x412;" horiz-adv-x="1235" 
d="M219 0v1413h367q90 0 168 -19t143 -58t103 -107t38 -158q0 -117 -49 -194.5t-139 -131.5q60 -27 104 -58t80.5 -75t55 -105t18.5 -138q0 -83 -25.5 -148t-68 -106t-101.5 -67.5t-120.5 -37t-130.5 -10.5h-443zM350 778h230q138 0 224.5 68.5t86.5 202.5q0 58 -16.5 102
t-43.5 70.5t-67 42.5t-82 22t-94 6h-238v-514zM350 123h316q309 0 309 250q0 282 -303 282h-322v-532z" />
    <glyph glyph-name="uni0413" unicode="&#x413;" horiz-adv-x="1069" 
d="M219 0v1413h780v-110h-647v-1303h-133z" />
    <glyph glyph-name="uni0414" unicode="&#x414;" horiz-adv-x="1458" 
d="M70 -240v346h116l482 1307h123l481 -1307h117v-346h-134v240h-1052v-240h-133zM322 106h817l-408 1147z" />
    <glyph glyph-name="uni0415" unicode="&#x415;" horiz-adv-x="1237" 
d="M219 0v1413h909v-113h-774v-538h662v-109h-662v-532h774v-121h-909z" />
    <glyph glyph-name="uni0416" unicode="&#x416;" horiz-adv-x="1919" 
d="M84 0l238 657q17 50 86.5 102t160.5 52l-407 602h164l395 -590h172v590h133v-590h172l393 590h166l-407 -602q90 0 160 -52.5t87 -101.5l238 -657h-158l-209 586q-18 52 -70 90.5t-122 38.5h-250v-715h-133v715h-250q-73 0 -121.5 -35t-68.5 -94l-211 -586h-158z" />
    <glyph glyph-name="uni0417" unicode="&#x417;" horiz-adv-x="1112" 
d="M522 -20q-148 0 -262.5 59t-165.5 174l113 74q34 -95 121.5 -147t193.5 -52q64 0 123 19.5t106 57t75 97.5t28 135q0 72 -27 129t-74 92.5t-105.5 53.5t-125.5 18h-176v121h182q113 0 189 65.5t76 180.5q0 123 -77 193.5t-190 70.5q-106 0 -185.5 -67t-78.5 -181h-129
q-1 167 111 264t280 97q166 0 277.5 -96.5t111.5 -262.5q0 -100 -47.5 -182.5t-136.5 -130.5q124 -52 190 -150.5t66 -226.5q0 -100 -36.5 -178.5t-100.5 -127.5t-147 -74t-179 -25z" />
    <glyph glyph-name="uni0418" unicode="&#x418;" horiz-adv-x="1409" 
d="M1190 0h-137v1311l-607 -1311h-227v1413h135v-1309l613 1309h223v-1413z" />
    <glyph glyph-name="uni0419" unicode="&#x419;" horiz-adv-x="1444" 
d="M754 1556q-123 0 -211 72.5t-88 198.5h110q0 -73 55.5 -123.5t133.5 -50.5q77 0 132.5 50t55.5 124h113q0 -123 -88 -197t-213 -74zM219 0v1413h133v-1091q0 -48 -12 -142l16 -2l695 1235h174v-1413h-133v1090q0 72 12 143l-17 2l-694 -1235h-174z" />
    <glyph glyph-name="uni041A" unicode="&#x41a;" horiz-adv-x="1245" 
d="M219 0v1413h133v-590h172l394 590h165l-407 -602q89 0 159.5 -52.5t88.5 -101.5l237 -657h-157l-211 586q-14 41 -69 85t-122 44h-250v-715h-133z" />
    <glyph glyph-name="uni041B" unicode="&#x41b;" horiz-adv-x="1321" 
d="M76 0l522 1413h123l524 -1413h-135l-448 1253l-447 -1253h-139z" />
    <glyph glyph-name="uni041C" unicode="&#x41c;" horiz-adv-x="1753" 
d="M219 0v1413h238l415 -1167l424 1167h238v-1413h-135v1331l-445 -1208h-155l-443 1208v-1331h-137z" />
    <glyph glyph-name="uni041D" unicode="&#x41d;" horiz-adv-x="1446" 
d="M219 0v1413h135v-651h738v651h135v-1413h-135v653h-738v-653h-135z" />
    <glyph glyph-name="uni041E" unicode="&#x41e;" horiz-adv-x="1511" 
d="M754 -20q-153 0 -273.5 58t-195.5 158.5t-113.5 230.5t-38.5 280q0 119 24 226.5t74 199t122.5 158.5t175 105t225.5 38q124 0 227.5 -38t176 -104.5t122.5 -158.5t74 -199.5t24 -226.5q0 -120 -24 -227t-74 -199t-122.5 -158.5t-176 -104.5t-227.5 -38zM754 106
q128 0 226.5 49.5t156.5 135t87 190.5t29 226q0 96 -17.5 182t-56.5 163t-96 133.5t-141.5 89t-187.5 32.5q-101 0 -184.5 -32.5t-140 -89t-95.5 -133.5t-56.5 -163.5t-17.5 -181.5q0 -96 17.5 -182.5t56.5 -163.5t95.5 -133.5t140 -89t184.5 -32.5z" />
    <glyph glyph-name="uni041F" unicode="&#x41f;" horiz-adv-x="1444" 
d="M219 0v1413h1006v-1413h-133v1303h-740v-1303h-133z" />
    <glyph glyph-name="uni0420" unicode="&#x420;" horiz-adv-x="1143" 
d="M219 0v1413h385q204 0 322 -101.5t118 -281.5q0 -182 -117.5 -281.5t-322.5 -99.5h-250v-649h-135zM354 768h250q147 0 228 66.5t81 195.5q0 126 -82 197t-227 71h-250v-530z" />
    <glyph glyph-name="uni0421" unicode="&#x421;" horiz-adv-x="1417" 
d="M758 -20q-155 0 -275.5 57t-195.5 157.5t-113.5 230.5t-38.5 282t38 282.5t112.5 231t195.5 158t275 57.5q195 0 339 -93.5t224 -275.5l-123 -51q-29 103 -97.5 171.5t-154 97t-190.5 28.5q-125 0 -220.5 -48.5t-152 -133t-85 -189t-28.5 -225.5q0 -127 28.5 -235
t85.5 -194.5t153.5 -136t222.5 -49.5q327 0 438 299l125 -51q-77 -181 -222.5 -275.5t-340.5 -94.5z" />
    <glyph glyph-name="uni0422" unicode="&#x422;" horiz-adv-x="1247" 
d="M557 0v1309h-487v104h1108v-104h-488v-1309h-133z" />
    <glyph glyph-name="uni0423" unicode="&#x423;" horiz-adv-x="1116" 
d="M272 0l199 457l-395 956h149l316 -817l346 817h153l-622 -1413h-146z" />
    <glyph glyph-name="uni0424" unicode="&#x424;" horiz-adv-x="1667" 
d="M766 0v119q-320 0 -476.5 144.5t-156.5 443.5q0 606 633 606v100h135v-100q633 0 633 -606q0 -300 -156 -444t-477 -144v-119h-135zM766 244v944q-261 0 -383.5 -120t-122.5 -361q0 -239 121.5 -351t384.5 -112zM901 244q262 0 384 112t122 351q0 241 -123.5 361
t-382.5 120v-944z" />
    <glyph glyph-name="uni0425" unicode="&#x425;" horiz-adv-x="1239" 
d="M84 0l465 707l-463 706h160l372 -598l377 598h158l-461 -706l463 -707h-158l-381 588l-372 -588h-160z" />
    <glyph glyph-name="uni0426" unicode="&#x426;" horiz-adv-x="1466" 
d="M1235 -240v240h-1016v1413h133v-1300h740v1300h133v-1300h141v-353h-131z" />
    <glyph glyph-name="uni0427" unicode="&#x427;" horiz-adv-x="1319" 
d="M965 0v551q-120 -139 -347 -139q-125 0 -219 46t-150.5 129.5t-84 193.5t-27.5 245v387h135v-401q0 -107 17 -189t55.5 -148t107.5 -101t166 -35q105 0 198.5 42t148.5 111v721h135v-1413h-135z" />
    <glyph glyph-name="uni0428" unicode="&#x428;" horiz-adv-x="1731" 
d="M219 0v1413h133v-1300h443v1300h135v-1300h448v1300h133v-1413h-1292z" />
    <glyph glyph-name="uni0429" unicode="&#x429;" horiz-adv-x="1753" 
d="M1522 -240v240h-1303v1413h133v-1300h443v1300h135v-1300h448v1300h133v-1300h142v-353h-131z" />
    <glyph glyph-name="uni042A" unicode="&#x42a;" horiz-adv-x="1360" 
d="M436 0v1311h-366v102h499v-649h252q204 0 321.5 -99t117.5 -280q0 -180 -118 -282.5t-321 -102.5h-385zM569 117h252q145 0 227 70.5t82 197.5t-81 194.5t-228 67.5h-252v-530z" />
    <glyph glyph-name="uni042B" unicode="&#x42b;" horiz-adv-x="1597" 
d="M219 0v1413h135v-649h250q205 0 322.5 -99t117.5 -280q0 -180 -118 -282.5t-322 -102.5h-385zM1245 0v1413h133v-1413h-133zM354 117h250q145 0 227 70.5t82 197.5t-81 194.5t-228 67.5h-250v-530z" />
    <glyph glyph-name="uni042C" unicode="&#x42c;" horiz-adv-x="1143" 
d="M219 0v1413h135v-649h250q205 0 322.5 -99t117.5 -280q0 -180 -118 -282.5t-322 -102.5h-385zM354 117h250q145 0 227 70.5t82 197.5t-81 194.5t-228 67.5h-250v-530z" />
    <glyph glyph-name="uni042D" unicode="&#x42d;" horiz-adv-x="1417" 
d="M659 -20q-195 0 -340 94t-223 276l125 51q111 -299 438 -299q120 0 213.5 44.5t151.5 123t89 179.5t36 221h-647v88h645q-5 115 -35.5 212.5t-87.5 175.5t-149 122.5t-211 44.5q-105 0 -191 -28.5t-154 -96.5t-98 -172l-123 51q80 182 224 275.5t340 93.5
q154 0 274.5 -57.5t195 -158t112.5 -231t38 -282.5t-38.5 -282t-113.5 -230.5t-195.5 -157.5t-275.5 -57z" />
    <glyph glyph-name="uni042E" unicode="&#x42e;" horiz-adv-x="1864" 
d="M1104 -20q-147 0 -264 52t-191.5 144.5t-116.5 212.5t-49 262h-131v-651h-133v1413h133v-651h131q7 142 49 262t116.5 212.5t191.5 145t264 52.5q156 0 277.5 -57.5t196.5 -158t113 -230t38 -281.5q0 -120 -23.5 -227.5t-73.5 -199.5t-122.5 -158.5t-176.5 -104
t-229 -37.5zM1104 106q101 0 184.5 32.5t140.5 88.5t96 133t56.5 164t17.5 183t-17.5 182.5t-56.5 163.5t-96 133t-140.5 88.5t-184.5 32.5q-126 0 -223 -49t-155 -134t-87 -190.5t-29 -226.5q0 -96 17.5 -183t56.5 -164t95.5 -133t140 -88.5t184.5 -32.5z" />
    <glyph glyph-name="uni042F" unicode="&#x42f;" horiz-adv-x="1208" 
d="M989 -2h-135v641h-248l-354 -641h-160l381 661q-141 25 -224 123t-83 242q0 177 122 282t310 105h391v-1413zM852 770v522h-256q-133 0 -216 -70t-83 -196q0 -118 75.5 -184t198.5 -72h281z" />
    <glyph glyph-name="uni0430" unicode="&#x430;" horiz-adv-x="1016" 
d="M397 -20q-140 0 -227.5 78t-87.5 212q0 295 450 295h222q0 346 -258 346q-175 0 -287 -153l-90 71q137 191 366 191q184 0 282.5 -109.5t98.5 -296.5v-614h-108v205q-50 -112 -147 -168.5t-214 -56.5zM410 86q79 0 146 35.5t109 91.5t65.5 122.5t23.5 131.5h-207
q-171 0 -252.5 -45t-81.5 -154q0 -94 54.5 -138t142.5 -44z" />
    <glyph glyph-name="uni0431" unicode="&#x431;" horiz-adv-x="1110" 
d="M596 958q127 0 224 -67t146.5 -178t49.5 -246q0 -205 -126.5 -346t-320.5 -141q-127 0 -226.5 66.5t-151.5 176.5t-52 242v377q0 291 219 407q177 93 428 185v-121q-36 -15 -97 -40t-90.5 -38t-70.5 -31t-70 -34t-55 -33q-80 -54 -113.5 -127.5t-33.5 -194.5v-32
q53 73 142.5 124t197.5 51zM569 82q82 0 143 31.5t96 87t52 122.5t17 146q0 77 -17 144t-52.5 122t-96.5 87t-142 32t-141.5 -31.5t-95 -86.5t-51.5 -121.5t-17 -145.5q0 -62 10.5 -117.5t33.5 -105.5t58 -86t87 -57t116 -21z" />
    <glyph glyph-name="uni0432" unicode="&#x432;" horiz-adv-x="1135" 
d="M582 -20q-155 0 -248.5 49t-140 162t-46.5 303v489q0 99 21.5 178t68 142t127.5 97t193 34q185 0 291 -83.5t106 -256.5q0 -70 -56.5 -156.5t-158.5 -114.5q82 -3 145 -60t93.5 -139t30.5 -171q0 -217 -116 -345t-310 -128zM567 88q166 0 233.5 93t67.5 268
q0 80 -23.5 142t-63.5 98.5t-88 54.5t-101 18q-142 0 -209 -60v109q81 48 262 55q44 1 78 25t52.5 60t28 73t9.5 72q0 115 -63.5 170t-192.5 55q-87 0 -145 -22t-87 -66.5t-40 -96t-11 -126.5v-518q0 -164 30 -251.5t90.5 -120t172.5 -32.5z" />
    <glyph glyph-name="uni0433" unicode="&#x433;" horiz-adv-x="858" 
d="M416 -20q-94 0 -167.5 26.5t-121 86.5t-47.5 147q0 68 23.5 120.5t61.5 84t87 57.5t99.5 42t99.5 36t87 40.5t61.5 55t23.5 80.5q0 137 -172 137q-152 0 -220 -129l-102 59q46 86 127.5 138.5t194.5 52.5q124 0 211.5 -69.5t87.5 -184.5q0 -77 -30 -133t-78 -87.5
t-105.5 -55t-115.5 -43t-106 -42.5t-78 -63t-30 -96q0 -46 17 -77t48.5 -45t63 -19t74.5 -5q84 0 157 53.5t99 133.5l106 -64q-32 -100 -129.5 -168.5t-226.5 -68.5z" />
    <glyph glyph-name="uni0434" unicode="&#x434;" horiz-adv-x="1108" 
d="M932 0q0 -201 -106.5 -316.5t-303.5 -115.5q-123 0 -222 48t-159 144l99 74q96 -158 280 -158q139 0 213 89.5t74 234.5v145q-48 -72 -127.5 -108.5t-177.5 -36.5q-197 0 -302.5 141.5t-105.5 366.5q0 148 45 262t136.5 182t218.5 68q203 0 313 -166v145h127zM522 109
q76 0 134.5 32.5t92.5 89.5t51 127t17 152t-17 152t-51 126.5t-92.5 88.5t-134.5 32q-101 0 -170.5 -56.5t-99 -144t-29.5 -198.5t29.5 -199t99 -145t170.5 -57z" />
    <glyph glyph-name="uni0435" unicode="&#x435;" horiz-adv-x="1030" 
d="M537 -12q-107 0 -192 40.5t-137.5 110.5t-80 160.5t-27.5 194.5q0 82 16.5 157.5t51.5 141.5t84 114.5t118 76.5t150 28q92 0 165 -28.5t118.5 -75t76 -110.5t42.5 -130.5t12 -139.5q0 -35 -4 -71h-699q-5 -151 76 -256t228 -105q96 0 164.5 23.5t125.5 83.5l86 -66
q-81 -79 -168.5 -114t-205.5 -35zM231 565h584q0 66 -15 124t-47.5 109t-92 81t-140.5 30q-70 0 -125 -28t-90 -76.5t-53.5 -109.5t-20.5 -130z" />
    <glyph glyph-name="uni0436" unicode="&#x436;" horiz-adv-x="1407" 
d="M55 0l160 430q24 66 63.5 114t88.5 48l-246 407h158l217 -374h145v788h127v-788h143l219 374h158l-246 -407q49 0 87.5 -47.5t62.5 -114.5l160 -430h-144l-123 360q-27 82 -65.5 117t-104.5 35h-147v-512h-127v512h-149q-64 0 -102.5 -35.5t-65.5 -116.5l-123 -360h-146z
" />
    <glyph glyph-name="uni0437" unicode="&#x437;" horiz-adv-x="901" 
d="M397 -461q-70 0 -124 11t-100.5 38.5t-76 51t-80.5 71.5l88 74q51 -69 117 -103t160 -34q103 0 170.5 51t96 133.5t28.5 194.5q0 81 -23.5 143t-64 98t-88.5 54t-103 18h-207v111h261q72 19 121 87t49 136q0 131 -61 186t-193 55q-83 0 -147 -42t-99 -107l-88 51
q48 89 134.5 142t199.5 53q183 0 282 -83t99 -257q0 -31 -10.5 -68.5t-32 -78t-62 -75t-92.5 -49.5q80 -3 140.5 -60.5t89 -139t28.5 -170.5q0 -221 -111 -356.5t-301 -135.5z" />
    <glyph glyph-name="uni0438" unicode="&#x438;" 
d="M487 -23q-88 0 -154.5 33.5t-105.5 93t-58 135.5t-19 167v593h124v-604q0 -45 5.5 -86.5t20.5 -84.5t38.5 -73.5t63 -50.5t90.5 -20q127 0 221 104.5t94 235.5v579h123v-999h-123v182q-29 -75 -117 -140t-203 -65z" />
    <glyph glyph-name="uni0439" unicode="&#x439;" horiz-adv-x="1128" 
d="M547 1143q-123 0 -211 72t-88 198h110q0 -73 55.5 -123.5t133.5 -50.5q76 0 132 50t56 124h111q0 -123 -87 -196.5t-212 -73.5zM512 -23q-90 0 -157 34t-105.5 94t-57 134.5t-18.5 163.5v596h125v-602q0 -59 9.5 -110.5t32.5 -100.5t68 -77.5t109 -28.5q127 0 220 104.5
t93 237.5v577h123v-999h-123v180q-29 -71 -117.5 -137t-201.5 -66z" />
    <glyph glyph-name="uni043A" unicode="&#x43a;" horiz-adv-x="944" 
d="M174 0v1413h127v-788h143l220 374h157l-246 -407q49 0 87 -47t65 -115l160 -430h-146l-123 360q-27 82 -65.5 117t-103.5 35h-148v-512h-127z" />
    <glyph glyph-name="uni043B" unicode="&#x43b;" horiz-adv-x="932" 
d="M45 0l363 999h116l363 -999h-137l-285 836l-285 -836h-135z" />
    <glyph glyph-name="uni043C" unicode="&#x43c;" horiz-adv-x="1374" 
d="M174 0v999h184l330 -841l328 839h184v-997h-129v840l-334 -840h-100l-334 838v-838h-129z" />
    <glyph glyph-name="uni043D" unicode="&#x43d;" horiz-adv-x="1128" 
d="M174 0v999h127v-399h528v399h125v-999h-125v498h-528v-498h-127z" />
    <glyph glyph-name="uni043E" unicode="&#x43e;" horiz-adv-x="1116" 
d="M555 -20q-134 0 -240 71t-163.5 190t-57.5 261t57.5 260t163.5 188t240 70t241.5 -70t166.5 -188.5t59 -259.5q0 -142 -59 -261t-166.5 -190t-241.5 -71zM557 82q84 0 151 36t107 96.5t61 134t21 153.5q0 109 -35 201t-113.5 153.5t-189.5 61.5q-84 0 -150.5 -35.5
t-107 -94.5t-61.5 -132.5t-21 -153.5q0 -81 21 -155t61.5 -134t106.5 -95.5t149 -35.5z" />
    <glyph glyph-name="uni043F" unicode="&#x43f;" horiz-adv-x="1108" 
d="M174 0v999h125v-170q45 82 131.5 134.5t185.5 52.5q90 0 157.5 -32t106 -89t57.5 -127.5t19 -155.5v-612h-125v596q0 58 -10.5 108t-34.5 94.5t-69.5 70.5t-108.5 26q-127 0 -218 -96.5t-91 -227.5v-571h-125z" />
    <glyph glyph-name="uni0440" unicode="&#x440;" horiz-adv-x="1108" 
d="M174 -438v1437h125v-147q107 168 317 168q185 0 291.5 -146.5t106.5 -373.5t-106.5 -373.5t-291.5 -146.5q-210 0 -317 167v-585h-125zM584 88q76 0 135.5 33.5t94.5 92t53 130.5t18 154q0 83 -18 155.5t-53 130.5t-94.5 91.5t-135.5 33.5t-134.5 -33.5t-92.5 -92
t-51 -130.5t-17 -155q0 -112 28.5 -201.5t97 -149t169.5 -59.5z" />
    <glyph glyph-name="uni0441" unicode="&#x441;" horiz-adv-x="967" 
d="M522 -20q-134 0 -231.5 73.5t-144 189t-46.5 255.5q0 103 27 196t78 166t132.5 116.5t182.5 43.5q129 0 227 -69t152 -189l-119 -53q-22 95 -94 152t-166 57q-78 0 -136.5 -38.5t-91 -102t-48 -134t-15.5 -145.5q0 -76 15.5 -146t47.5 -132.5t91 -100t137 -37.5
q96 0 167 56t93 149l107 -49q-44 -122 -139 -190t-226 -68z" />
    <glyph glyph-name="uni0442" unicode="&#x442;" horiz-adv-x="1688" 
d="M174 0v999h127v-188q30 92 104.5 149.5t172.5 57.5q111 0 194 -55t119 -160q87 213 303 213q91 0 158.5 -32t106.5 -89t58 -127.5t19 -155.5v-612h-127v596q0 59 -10.5 111t-34 101t-70 78t-110.5 29q-121 0 -193.5 -102t-72.5 -240v-573h-127v600q0 60 -10 111.5
t-33.5 99.5t-69.5 76t-111 28q-62 0 -113.5 -29t-84.5 -77.5t-50.5 -109.5t-17.5 -126v-573h-127z" />
    <glyph glyph-name="uni0443" unicode="&#x443;" horiz-adv-x="961" 
d="M264 -430l162 432l-381 997h139l299 -847l293 847h139l-526 -1429h-125z" />
    <glyph glyph-name="uni0444" unicode="&#x444;" horiz-adv-x="1372" 
d="M623 -430v416q-31 -6 -68 -6q-133 0 -239 69.5t-164 187t-58 259.5q0 141 58 259t164 187.5t239 69.5q37 0 68 -6v407h127v-407q30 6 65 6q101 0 188 -41t147 -110.5t94 -164t34 -200.5q0 -142 -57.5 -259.5t-164.5 -187t-241 -69.5q-35 0 -65 6v-416h-127zM555 92
q47 0 68 4v797q-32 6 -68 6q-84 0 -146.5 -33t-99 -90t-54 -127.5t-17.5 -152.5t17.5 -152.5t54 -128t99 -90.5t146.5 -33zM815 92q84 0 147.5 33t100 90.5t54.5 128t18 152.5t-18 152.5t-54.5 127.5t-100 90t-147.5 33q-35 0 -65 -6v-797q20 -4 65 -4z" />
    <glyph glyph-name="uni0445" unicode="&#x445;" horiz-adv-x="895" 
d="M55 0l334 504l-334 495h154l240 -383l241 383h150l-330 -495l330 -504h-150l-241 389l-240 -389h-154z" />
    <glyph glyph-name="uni0446" unicode="&#x446;" horiz-adv-x="1135" 
d="M954 -307v284q-58 0 -102 58t-43 145q-30 -71 -118.5 -137t-201.5 -66q-90 0 -157 34t-106 94t-57.5 134.5t-18.5 163.5v596h126v-602q0 -47 5.5 -88.5t20.5 -84.5t39 -74t63.5 -50.5t91.5 -19.5q127 0 220 104.5t93 237.5v577h127v-794q0 -74 41 -113t102 -39l-32 -360
h-93z" />
    <glyph glyph-name="uni0447" unicode="&#x447;" horiz-adv-x="1067" 
d="M766 0v446q-13 -31 -41 -64.5t-68.5 -65t-96 -52t-114.5 -20.5q-90 0 -157 33.5t-106 93.5t-58 135t-19 164v329h127v-335q0 -47 5.5 -89t20.5 -85t39 -74t63.5 -50.5t91.5 -19.5q127 0 220 104.5t93 237.5v311h127v-999h-127z" />
    <glyph glyph-name="uni0448" unicode="&#x448;" horiz-adv-x="1710" 
d="M1133 -18q-112 0 -195 54.5t-119 160.5q-90 -213 -303 -213q-91 0 -158.5 32t-106.5 89t-58 128t-19 156v610h127v-596q0 -59 10.5 -111t34 -101t69 -78t109.5 -29q82 0 145 50t93.5 127t30.5 165v573h127v-600q0 -47 5.5 -89t21 -84.5t39.5 -73t64 -49.5t91 -19
q82 0 144.5 50t93 127t30.5 165v573h127v-999h-127v188q-30 -90 -104.5 -148t-171.5 -58z" />
    <glyph glyph-name="uni0449" unicode="&#x449;" horiz-adv-x="1712" 
d="M1532 -307v284q-58 0 -102.5 62t-43.5 147q-29 -90 -104 -147t-172 -57q-112 0 -194.5 55t-118.5 160q-91 -213 -303 -213q-91 0 -158.5 32t-106.5 89t-58 128t-19 156v610h127v-596q0 -59 10.5 -111t34 -101t69 -78t109.5 -29q82 0 144.5 50t93 127t30.5 165v573h127
v-600q0 -47 5.5 -89t21 -84.5t39.5 -73t64 -49.5t91 -19q82 0 144.5 50t93 127t30.5 165v573h127v-794q0 -75 41.5 -113.5t102.5 -38.5l-33 -360h-92z" />
    <glyph glyph-name="uni044A" unicode="&#x44a;" horiz-adv-x="1145" 
d="M618 -20q-77 0 -145.5 22.5t-125 67t-89.5 119t-33 169.5v533h-188v108h317v-348q33 60 120.5 107t189.5 47q79 0 147 -24.5t122.5 -72.5t86 -129t31.5 -186q0 -106 -35 -187t-96 -129.5t-137 -72.5t-165 -24zM641 92q123 0 194.5 84.5t71.5 216.5q0 131 -76 215t-200 84
q-118 0 -197.5 -73t-79.5 -187v-80q0 -112 78.5 -186t208.5 -74z" />
    <glyph glyph-name="uni044B" unicode="&#x44b;" horiz-adv-x="1397" 
d="M596 -20q-77 0 -147.5 22.5t-128.5 67t-92.5 119t-34.5 169.5v641h129v-348q33 63 103 108.5t169 45.5q80 0 153.5 -24.5t135 -72.5t98.5 -129.5t37 -185.5q0 -105 -36.5 -186.5t-97.5 -129.5t-134.5 -72.5t-153.5 -24.5zM1176 0v999h127v-999h-127zM596 92q124 0 201 85
t77 216t-76.5 215t-201.5 84q-114 0 -188.5 -73t-85.5 -187v-80q11 -115 85.5 -187.5t188.5 -72.5z" />
    <glyph glyph-name="uni044C" unicode="&#x44c;" horiz-adv-x="1102" 
d="M575 -20q-77 0 -147 22.5t-128.5 67t-93 119t-34.5 169.5v641h129v-348q34 64 103.5 109t168.5 45q80 0 153.5 -24.5t135 -72.5t98.5 -129.5t37 -185.5q0 -105 -36.5 -186.5t-97.5 -129.5t-134.5 -72.5t-153.5 -24.5zM575 92q125 0 202 85t77 216q0 130 -77 214.5
t-202 84.5q-113 0 -188 -73t-86 -187v-80q11 -115 86 -187.5t188 -72.5z" />
    <glyph glyph-name="uni044D" unicode="&#x44d;" horiz-adv-x="961" 
d="M444 -20q-132 0 -226.5 67t-137.5 191l106 49q25 -92 95.5 -148.5t164.5 -56.5q70 0 125 30.5t89 83t52.5 113.5t24.5 131h-415v95h415q-4 72 -21.5 136t-51 120t-89.5 89t-129 33q-93 0 -164 -55.5t-96 -148.5l-118 53q52 121 149.5 187.5t228.5 66.5q103 0 184.5 -42
t132 -114.5t77 -164.5t26.5 -197q0 -83 -16.5 -159.5t-51 -142t-83.5 -113.5t-118.5 -75.5t-152.5 -27.5z" />
    <glyph glyph-name="uni044E" unicode="&#x44e;" horiz-adv-x="1405" 
d="M850 -20q-134 0 -240.5 69.5t-164 187.5t-56.5 261h-88v-498h-127v1413h127v-813h94q32 180 155.5 296t299.5 116q133 0 239 -69.5t164 -187.5t58 -259q0 -142 -58 -259.5t-164 -187t-239 -69.5zM850 92q84 0 147 33t99.5 90.5t54.5 128t18 152.5t-18 152.5t-54.5 127.5
t-99.5 90t-147 33t-147.5 -33t-100 -90t-54.5 -127.5t-18 -152.5t18 -152.5t54.5 -128t100 -90.5t147.5 -33z" />
    <glyph glyph-name="uni044F" unicode="&#x44f;" horiz-adv-x="961" 
d="M82 0l137 354q65 162 150 162q-119 20 -179.5 77t-60.5 173q0 97 73.5 165t227.5 68h356v-999h-127v471h-153q-64 0 -103 -35.5t-67 -116.5l-111 -319h-143zM502 586h157v317h-225q-77 0 -118.5 -38.5t-41.5 -104.5q0 -85 52.5 -129.5t175.5 -44.5z" />
    <glyph glyph-name="uni0450" unicode="&#x450;" horiz-adv-x="1030" 
d="M434 1126l-245 287h176l215 -287h-146zM537 -12q-107 0 -192 40.5t-137.5 110.5t-80 160.5t-27.5 194.5q0 82 16.5 157.5t51.5 141.5t84 114.5t118 76.5t150 28q92 0 165 -28.5t118.5 -75t76 -110.5t42.5 -130.5t12 -139.5q0 -35 -4 -71h-699q-5 -151 76 -256t228 -105
q96 0 164.5 23.5t125.5 83.5l86 -66q-81 -79 -168.5 -114t-205.5 -35zM231 565h584q0 66 -15 124t-47.5 109t-92 81t-140.5 30q-70 0 -125 -28t-90 -76.5t-53.5 -109.5t-20.5 -130z" />
    <glyph glyph-name="uni0451" unicode="&#x451;" horiz-adv-x="1030" 
d="M260 1229v184h160v-184h-160zM592 1229v184h160v-184h-160zM537 -12q-107 0 -192 40.5t-137.5 110.5t-80 160.5t-27.5 194.5q0 82 16.5 157.5t51.5 141.5t84 114.5t118 76.5t150 28q92 0 165 -28.5t118.5 -75t76 -110.5t42.5 -130.5t12 -139.5q0 -35 -4 -71h-699
q-5 -151 76 -256t228 -105q96 0 164.5 23.5t125.5 83.5l86 -66q-81 -79 -168.5 -114t-205.5 -35zM231 565h584q0 66 -15 124t-47.5 109t-92 81t-140.5 30q-70 0 -125 -28t-90 -76.5t-53.5 -109.5t-20.5 -130z" />
    <glyph glyph-name="uni0452" unicode="&#x452;" horiz-adv-x="1112" 
d="M612 -461q-106 0 -186 45t-170 140l92 71q45 -51 74 -78t75 -49t99 -22t92.5 12.5t65 38t42 56.5t24.5 77.5t11 90t3 104.5v569q0 47 -5.5 87.5t-21 81.5t-40 69.5t-65 46.5t-92.5 18q-130 0 -220.5 -103.5t-90.5 -246.5v-547h-123v1151h-192v104h192v158h123v-158h319
v-104h-319v-328q46 84 138.5 137.5t191.5 53.5q86 0 151.5 -31.5t104 -86.5t57.5 -124.5t19 -150.5v-609q0 -220 -84.5 -346.5t-264.5 -126.5z" />
    <glyph glyph-name="uni0453" unicode="&#x453;" horiz-adv-x="756" 
d="M328 1124l209 289h149l-256 -289h-102zM172 0v999h549v-102h-424v-897h-125z" />
    <glyph glyph-name="uni0454" unicode="&#x454;" horiz-adv-x="961" 
d="M516 -20q-83 0 -152.5 27.5t-118.5 75.5t-83.5 113.5t-51 142t-16.5 159.5q0 105 26.5 197t77 164.5t132 114.5t184.5 42q131 0 228.5 -66.5t150.5 -187.5l-119 -53q-25 94 -95.5 149t-164.5 55q-73 0 -129 -33t-89.5 -89t-51 -120t-21.5 -136h416v-95h-416
q6 -70 25 -131t52.5 -113.5t88.5 -83t125 -30.5q94 0 164.5 56.5t95.5 148.5l107 -49q-43 -124 -138 -191t-227 -67z" />
    <glyph glyph-name="uni0455" unicode="&#x455;" horiz-adv-x="858" 
d="M440 -20q-129 0 -226.5 68.5t-129.5 168.5l106 64q25 -80 98.5 -133.5t157.5 -53.5q40 0 74.5 8.5t66 27.5t50 55.5t18.5 86.5q0 56 -30.5 93t-78.5 55.5t-106.5 32t-117.5 31t-107 44t-78.5 79.5t-30.5 130q0 117 89 197t211 80q112 0 193.5 -52.5t127.5 -138.5
l-102 -59q-68 129 -219 129q-80 0 -133.5 -41t-53.5 -119q0 -37 19 -63.5t51.5 -42t74 -26.5t88 -21.5t92.5 -23t87.5 -34.5t74 -52t51.5 -79.5t19 -114.5q0 -130 -98 -213t-238 -83z" />
    <glyph glyph-name="uni0456" unicode="&#x456;" horiz-adv-x="483" 
d="M164 1231v182h155v-182h-155zM176 0v999h127v-999h-127z" />
    <glyph glyph-name="uni0457" unicode="&#x457;" horiz-adv-x="475" 
d="M0 1192v160h143v-160h-143zM326 1192v160h143v-160h-143zM162 0v999h147v-999h-147z" />
    <glyph glyph-name="uni0458" unicode="&#x458;" horiz-adv-x="479" 
d="M158 1239v184h155v-184h-155zM57 -438q-30 0 -66.5 7.5t-58.5 14.5l-22 8l24 89q62 -17 119 -17q65 0 94 43.5t29 104.5v1187h127v-1165q0 -126 -61.5 -199t-184.5 -73z" />
    <glyph glyph-name="uni0459" unicode="&#x459;" horiz-adv-x="1602" 
d="M203 -23q-38 0 -127 41l43 99q2 -1 15 -8.5t23 -12.5t25 -9.5t29 -4.5q9 0 16 1.5t20 12.5t22.5 30t21.5 59.5t19.5 95.5t12.5 142.5t5 197.5v378h596v-344h196q67 0 118.5 -7t102 -29t83.5 -58t53 -98t20 -146q0 -144 -109 -230.5t-268 -86.5h-321v897h-348v-279
q0 -162 -18 -284t-43.5 -188t-61.5 -106.5t-65 -51.5t-60 -11zM924 100h196q234 0 234 217q0 70 -18 118.5t-52 73.5t-73.5 35.5t-90.5 10.5h-196v-455z" />
    <glyph glyph-name="uni045A" unicode="&#x45a;" horiz-adv-x="1634" 
d="M174 0v999h125v-399h532v399h123v-399h199q69 0 119 -5.5t101.5 -24t83.5 -50.5t52.5 -88t20.5 -133q0 -143 -107.5 -221t-269.5 -78h-322v498h-532v-498h-125zM954 100h199q53 0 91 7.5t72.5 27.5t52 61t17.5 103q0 56 -13 95t-31.5 59.5t-52.5 31.5t-62 13t-74 2h-199
v-400z" />
    <glyph glyph-name="uni045B" unicode="&#x45b;" horiz-adv-x="1112" 
d="M633 1016q85 0 149.5 -31.5t102.5 -86.5t57 -125t19 -152v-621h-127v598q0 57 -9.5 106t-32.5 94.5t-68.5 72t-109.5 26.5q-133 0 -224 -103.5t-91 -246.5v-547h-123v1132h-190v105h190v176h123v-176h322v-105h-322v-309q48 85 140 139t194 54z" />
    <glyph glyph-name="uni045C" unicode="&#x45c;" horiz-adv-x="942" 
d="M424 1124l209 289h151l-258 -289h-102zM174 0v999h127v-374h143l220 374h157l-246 -407q49 0 87 -47t65 -115l160 -430h-146l-123 360q-27 82 -65.5 117t-103.5 35h-148v-512h-127z" />
    <glyph glyph-name="uni045D" unicode="&#x45d;" horiz-adv-x="1128" 
d="M502 1133l-226 280h150l209 -280h-133zM512 -23q-90 0 -157 34t-105.5 94t-57 134.5t-18.5 163.5v596h125v-602q0 -59 9.5 -110.5t32.5 -100.5t68 -77.5t109 -28.5q127 0 220 104.5t93 237.5v577h123v-999h-123v180q-29 -71 -117.5 -137t-201.5 -66z" />
    <glyph glyph-name="uni045E" unicode="&#x45e;" horiz-adv-x="961" 
d="M473 1143q-123 0 -211 72t-88 198h111q0 -73 55.5 -123.5t132.5 -50.5t133 50t56 124h110q0 -123 -87 -196.5t-212 -73.5zM264 -430l162 432l-381 997h139l299 -847l293 847h139l-526 -1429h-125z" />
    <glyph glyph-name="uni045F" unicode="&#x45f;" horiz-adv-x="1128" 
d="M502 -307v307h-328v999h125v-895h532v895h123v-999h-329v-307h-123z" />
    <glyph glyph-name="uni0462" unicode="&#x462;" horiz-adv-x="1352" 
d="M426 0v1112h-350v111h350v190h135v-190h363v-111h-363v-348h252q204 0 321 -99t117 -280q0 -180 -118 -282.5t-320 -102.5h-387zM561 117h252q145 0 226 70.5t81 197.5t-81 194.5t-226 67.5h-252v-530z" />
    <glyph glyph-name="uni0463" unicode="&#x463;" horiz-adv-x="979" 
d="M176 0v1151h-201v104h201v158h123v-158h213v-104h-213v-496h197q68 0 119.5 -7t102 -29t83.5 -58t53 -98t20 -146q0 -144 -109 -230.5t-269 -86.5h-320zM299 100h197q235 0 235 217q0 70 -18 118.5t-52 73.5t-73.5 35.5t-91.5 10.5h-197v-455z" />
    <glyph glyph-name="uni0464" unicode="&#x464;" horiz-adv-x="1784" 
d="M1124 -20q-148 0 -265 51.5t-192.5 143.5t-117.5 212.5t-49 263.5h-148v-651h-133v1413h133v-651h148q7 143 48.5 263.5t116.5 213t192 145t265 52.5q195 0 339.5 -94t221.5 -275l-122 -51q-30 104 -97.5 172t-153 96.5t-190.5 28.5q-119 0 -211.5 -44t-150 -121
t-88 -174t-35.5 -212h645v-111h-645q5 -119 36 -217t89 -173t151 -117t213 -42q326 0 437 299l125 -51q-77 -181 -222 -275.5t-340 -94.5z" />
    <glyph glyph-name="uni0465" unicode="&#x465;" horiz-adv-x="1300" 
d="M856 -20q-104 0 -187 42t-134 115t-77.5 166.5t-25.5 200.5h-133v-504h-125v999h125v-393h143q26 180 132 295t280 115q131 0 228.5 -66.5t150.5 -187.5l-119 -53q-26 94 -96 149t-164 55q-58 0 -108 -24t-83 -60t-56.5 -78.5t-34 -80t-9.5 -64.5h416v-94h-416
q-2 -193 73 -311.5t218 -118.5q93 0 163 56.5t97 148.5l105 -49q-42 -124 -136.5 -191t-226.5 -67z" />
    <glyph glyph-name="uni0466" unicode="&#x466;" horiz-adv-x="1294" 
d="M76 0l520 1413h104l519 -1413h-144l-239 680h-123v-680h-131v680h-121l-240 -680h-145zM500 793h297l-148 424z" />
    <glyph glyph-name="uni0467" unicode="&#x467;" horiz-adv-x="1016" 
d="M76 0l381 999h104l379 -999h-147l-134 414h-88v-414h-127v414h-82l-159 -414h-127zM397 514h230l-117 326z" />
    <glyph glyph-name="uni0468" unicode="&#x468;" horiz-adv-x="1653" 
d="M219 0v1413h133v-651h363l239 651h105l518 -1413h-143l-240 680h-123v-680h-131v680h-121l-239 -680h-146l240 651h-322v-651h-133zM858 793h297l-147 424z" />
    <glyph glyph-name="uni0469" unicode="&#x469;" horiz-adv-x="1319" 
d="M174 0v999h125v-505h266l193 505h106l379 -999h-149l-131 414h-89v-414h-129v414h-79l-160 -414h-129l149 391h-227v-391h-125zM700 514h230l-117 326z" />
    <glyph glyph-name="uni046A" unicode="&#x46a;" horiz-adv-x="1554" 
d="M74 0l243 582q40 96 121 133t215 37l-401 551v110h1042v-110l-403 -551q139 0 220.5 -38t119.5 -132l239 -582h-159l-211 510q-8 22 -11.5 30.5t-16.5 31.5t-26.5 34.5t-38 22t-53.5 10.5h-114v-639h-133v639h-113q-35 0 -62 -13t-43.5 -37.5t-24 -40t-15.5 -38.5
l-211 -510h-164zM772 801l371 502h-740z" />
    <glyph glyph-name="uni046B" unicode="&#x46b;" horiz-adv-x="1249" 
d="M1014 430l160 -430h-146l-123 360q-28 81 -74.5 111.5t-140.5 28.5v-500h-131v500q-98 1 -142.5 -28.5t-72.5 -111.5l-123 -360h-145l160 430q15 42 40.5 75.5t78.5 60t124 26.5l-250 305v102h791v-102l-248 -305q102 0 159.5 -47t82.5 -115zM624 593l240 304h-481z" />
    <glyph glyph-name="uni046C" unicode="&#x46c;" horiz-adv-x="1876" 
d="M219 0v1413h133v-659h643l-401 549v110h1042v-110l-403 -551q135 0 207.5 -37t111.5 -133l240 -582h-139l-211 510q-1 2 -6 15t-7.5 18t-9 18.5t-12 19.5t-14 17t-18 17t-21.5 12.5t-26.5 9t-31.5 2.5h-112v-639h-135v639h-111q-19 0 -35.5 -4.5t-28.5 -9.5t-23.5 -16.5
l-18.5 -18.5t-15.5 -21.5t-11.5 -20.5t-9.5 -21t-7.5 -17l-208 -510h-142l246 588q23 46 33 59h-365v-647h-133zM1114 801l371 502h-740z" />
    <glyph glyph-name="uni046D" unicode="&#x46d;" horiz-adv-x="1538" 
d="M1303 430l159 -430h-143l-123 360q-34 98 -76.5 126t-142.5 28v-514h-129v514q-101 0 -141.5 -28t-73.5 -126l-123 -360h-145l165 442q11 40 41 76h-272v-518h-125v999h125v-376h442l-223 274v102h791v-102l-234 -285q44 0 79.5 -12.5t58 -29.5t42 -45t28.5 -47t20 -48z
M912 593l241 304h-483z" />
    <glyph glyph-name="uni0472" unicode="&#x472;" horiz-adv-x="1511" 
d="M754 -20q-124 0 -227 37.5t-175 104t-122 158.5t-73.5 199.5t-23.5 227.5q0 152 38 281.5t112.5 230t195.5 158t275 57.5q156 0 277.5 -57.5t196 -158t112.5 -230t38 -281.5q0 -121 -23.5 -228t-73.5 -199t-122.5 -158.5t-176 -104t-228.5 -37.5zM262 774h985
q-8 111 -41 205t-91.5 168.5t-151 117t-209.5 42.5t-209.5 -42.5t-151 -117t-91.5 -168.5t-40 -205zM754 106q99 0 180.5 30.5t138 83.5t96 126.5t59 157t21.5 176.5h-989q2 -94 21.5 -177t59 -156.5t96 -126.5t137.5 -83.5t180 -30.5z" />
    <glyph glyph-name="uni0473" unicode="&#x473;" horiz-adv-x="1112" 
d="M555 -20q-133 0 -239 69.5t-164 187t-58 259.5q0 141 58 259t164 187.5t239 69.5q134 0 240.5 -69.5t164.5 -187.5t58 -259q0 -217 -130.5 -366.5t-332.5 -149.5zM238 565h632q-6 71 -27 130t-58.5 105.5t-96 72.5t-133.5 26q-145 0 -223.5 -92.5t-93.5 -241.5zM555 92
q65 0 118 20t88.5 54.5t60.5 83.5t36.5 103.5t13.5 117.5h-636q2 -79 21.5 -145.5t56.5 -120t98.5 -83.5t142.5 -30z" />
    <glyph glyph-name="uni0474" unicode="&#x474;" horiz-adv-x="1272" 
d="M494 0l-457 1413h137l381 -1253l307 837q65 180 158.5 281t222.5 135v-131q-47 -23 -87 -53t-64.5 -57t-45.5 -59t-30.5 -51.5t-18.5 -42.5t-10 -24l-371 -995h-122z" />
    <glyph glyph-name="uni0475" unicode="&#x475;" horiz-adv-x="958" 
d="M365 0l-318 999h137l240 -833l149 416q77 211 167 316t171 101v-135q-21 -6 -30.5 -10t-33 -21t-41 -42.5t-44 -76t-53.5 -120.5l-228 -594h-116z" />
    <glyph glyph-name="uni0478" unicode="&#x478;" horiz-adv-x="2472" 
d="M754 -20q-153 0 -273.5 58t-195.5 158.5t-113.5 230.5t-38.5 280q0 119 24 226.5t74 199t122.5 158.5t175 105t225.5 38q124 0 227.5 -38t176 -104.5t122.5 -158.5t74 -199.5t24 -226.5q0 -120 -24 -227t-74 -199t-122.5 -158.5t-176 -104.5t-227.5 -38zM754 106
q128 0 226.5 49.5t156.5 135t87 190.5t29 226q0 96 -17.5 182t-56.5 163t-96 133.5t-141.5 89t-187.5 32.5q-101 0 -184.5 -32.5t-140 -89t-95.5 -133.5t-56.5 -163.5t-17.5 -181.5q0 -96 17.5 -182.5t56.5 -163.5t95.5 -133.5t140 -89t184.5 -32.5zM1771 -430l168 430
l-383 999h139l303 -847l291 847h137l-526 -1429h-129z" />
    <glyph glyph-name="uni0479" unicode="&#x479;" horiz-adv-x="2036" 
d="M555 -20q-134 0 -240 71t-163.5 190t-57.5 261t57.5 260t163.5 188t240 70t241.5 -70t166.5 -188.5t59 -259.5q0 -142 -59 -261t-166.5 -190t-241.5 -71zM1335 -430l168 430l-383 999h139l303 -847l291 847h137l-526 -1429h-129zM557 82q84 0 151 36t107 96.5t61 134
t21 153.5q0 109 -35 201t-113.5 153.5t-189.5 61.5q-84 0 -150.5 -35.5t-107 -94.5t-61.5 -132.5t-21 -153.5q0 -81 21 -155t61.5 -134t106.5 -95.5t149 -35.5z" />
    <glyph glyph-name="uni0483" unicode="&#x483;" horiz-adv-x="0" 
d="M-922 1540v238h692v139h101v-217h-701v-160h-92z" />
    <glyph glyph-name="uni0490" unicode="&#x490;" horiz-adv-x="1069" 
d="M219 0v1413h649v307h131v-417h-647v-1303h-133z" />
    <glyph glyph-name="uni0491" unicode="&#x491;" horiz-adv-x="758" 
d="M172 0v999h426v308h123v-410h-424v-897h-125z" />
    <glyph glyph-name="uni0492" unicode="&#x492;" horiz-adv-x="1122" 
d="M1053 1303h-647v-488h291v-110h-291v-705h-134v705h-292v110h292v598h781v-110z" />
    <glyph glyph-name="uni0493" unicode="&#x493;" horiz-adv-x="758" 
d="M174 0v999h549v-102h-424v-897h-125z" />
    <glyph glyph-name="uni0496" unicode="&#x496;" horiz-adv-x="1919" 
d="M1774 168h126v-406h-127v238h-96l-209 586q-18 52 -70 90.5t-122 38.5h-250v-715h-133v715h-250q-73 0 -121.5 -35t-68.5 -94l-211 -586h-158l238 657q17 50 86.5 102t160.5 52l-407 602h164l395 -590h172v590h133v-590h172l393 590h166l-407 -602q90 0 160 -52.5
t87 -101.5z" />
    <glyph glyph-name="uni0497" unicode="&#x497;" horiz-adv-x="1409" 
d="M1291 168h126v-406h-127v238h-82l-123 360q-27 82 -65.5 117t-104.5 35h-147v-512h-127v512h-147q-65 0 -104 -35.5t-66 -116.5l-123 -360h-146l160 430q24 66 63.5 114t88.5 48l-246 407h158l219 -374h143v374h127v-374h143l219 374h158l-246 -407q49 0 88.5 -48
t63.5 -114z" />
    <glyph glyph-name="uni049A" unicode="&#x49a;" horiz-adv-x="1245" 
d="M1100 168h126v-406h-127v238h-95l-211 586q-14 41 -69 85t-122 44h-250v-715h-133v1413h133v-590h172l394 590h165l-407 -602q89 0 159.5 -52.5t88.5 -101.5z" />
    <glyph glyph-name="uni049B" unicode="&#x49b;" horiz-adv-x="944" 
d="M824 168h126v-406h-127v238h-82l-123 360q-27 82 -65.5 117t-103.5 35h-148v-512h-127v1413h127v-788h143l220 374h157l-246 -407q49 0 87 -47t65 -115z" />
    <glyph glyph-name="uni04A2" unicode="&#x4a2;" horiz-adv-x="1446" 
d="M1227 168h124v-406h-127v238h-132v653h-738v-653h-135v1413h135v-651h738v651h135v-1245z" />
    <glyph glyph-name="uni04A3" unicode="&#x4a3;" horiz-adv-x="1128" 
d="M954 168h125v-406h-127v238h-123v498h-528v-498h-127v999h127v-399h528v399h125v-831z" />
    <glyph glyph-name="uni04AE" unicode="&#x4ae;" horiz-adv-x="1315" 
d="M594 0v553l-528 860h155l436 -719l439 719h153l-526 -860v-553h-129z" />
    <glyph glyph-name="uni04AF" unicode="&#x4af;" horiz-adv-x="942" 
d="M408 0v446l-342 553h155l250 -411l252 411h154l-340 -553v-446h-129z" />
    <glyph glyph-name="uni04B0" unicode="&#x4b0;" horiz-adv-x="1319" 
d="M723 553v-107h201v-110h-201v-336h-129v336h-387v110h387v107l-528 860h155l436 -719l439 719h153z" />
    <glyph glyph-name="uni04B1" unicode="&#x4b1;" horiz-adv-x="965" 
d="M537 446v-104h239v-110h-239v-232h-129v232h-349v110h349v104l-342 553h155l250 -411l252 411h154z" />
    <glyph glyph-name="uni04B2" unicode="&#x4b2;" horiz-adv-x="1239" 
d="M1045 168h118v-406h-127v238h-39l-381 588l-372 -588h-160l465 707l-463 706h160l372 -598l377 598h158l-461 -706z" />
    <glyph glyph-name="uni04B3" unicode="&#x4b3;" horiz-adv-x="895" 
d="M730 168h119v-406h-127v238h-32l-241 389l-240 -389h-154l334 504l-334 495h154l240 -383l241 383h150l-330 -495z" />
    <glyph glyph-name="uni04B6" unicode="&#x4b6;" horiz-adv-x="1319" 
d="M1100 168h120v-406h-127v238h-128v551q-120 -139 -347 -139q-125 0 -219 46t-150.5 129.5t-84 193.5t-27.5 245v387h135v-401q0 -107 17 -189t55.5 -148t107.5 -101t166 -35q105 0 198.5 42t148.5 111v721h135v-1245z" />
    <glyph glyph-name="uni04B7" unicode="&#x4b7;" horiz-adv-x="1067" 
d="M893 168h118v-406h-127v238h-118v446q-13 -31 -41 -64.5t-68.5 -65t-96 -52t-114.5 -20.5q-90 0 -157 33.5t-106 93.5t-58 135t-19 164v329h127v-335q0 -47 5.5 -89t20.5 -85t39 -74t63.5 -50.5t91.5 -19.5q127 0 220 104.5t93 237.5v311h127v-831z" />
    <glyph glyph-name="uni04BA" unicode="&#x4ba;" horiz-adv-x="1319" 
d="M354 1413v-551q120 139 347 139q125 0 219 -46t150.5 -129.5t84 -193.5t27.5 -245v-387h-135v401q0 107 -17 189t-55.5 148t-107.5 101t-166 35q-105 0 -198.5 -42t-148.5 -111v-721h-135v1413h135z" />
    <glyph glyph-name="uni04BB" unicode="&#x4bb;" horiz-adv-x="1112" 
d="M176 0v1413h123v-590q48 85 140 139t194 54q85 0 149.5 -31.5t102.5 -86.5t57 -125t19 -152v-621h-127v598q0 57 -9.5 106t-32.5 94.5t-68.5 72t-109.5 26.5q-133 0 -224 -103.5t-91 -246.5v-547h-123z" />
    <glyph glyph-name="uni04C0" unicode="&#x4c0;" horiz-adv-x="573" 
d="M219 0v1413h135v-1413h-135z" />
    <glyph glyph-name="uni04CF" unicode="&#x4cf;" horiz-adv-x="475" 
d="M174 0v1413h127v-1413h-127z" />
    <glyph glyph-name="uni04D8" unicode="&#x4d8;" horiz-adv-x="1511" 
d="M754 -20q-124 0 -227 37.5t-175 104t-122 158.5t-73.5 199.5t-23.5 227.5q0 11 1 33.5t1 33.5h1112q-8 111 -41 205t-91.5 168.5t-151 117t-209.5 42.5q-266 0 -400 -213l-110 67q78 129 206 201t304 72q156 0 277.5 -57.5t196 -158t112.5 -230t38 -281.5
q0 -121 -23.5 -228t-73.5 -199t-122.5 -158.5t-176 -104t-228.5 -37.5zM754 106q99 0 180.5 30.5t138 83.5t96 126.5t59 157t21.5 176.5h-989q2 -94 21.5 -177t59 -156.5t96 -126.5t137.5 -83.5t180 -30.5z" />
    <glyph glyph-name="uni04D9" unicode="&#x4d9;" horiz-adv-x="1030" 
d="M493 1011q107 0 192 -40.5t137.5 -110.5t80 -160.5t27.5 -194.5q0 -82 -16.5 -157.5t-51.5 -141.5t-84 -114.5t-118 -76.5t-150 -28q-92 0 -165 28.5t-118.5 75t-76 110.5t-42.5 130.5t-12 139.5q0 35 4 71h699q5 151 -76 256t-228 105q-96 0 -164.5 -23.5t-125.5 -83.5
l-86 66q81 79 168.5 114t205.5 35zM799 434h-584q0 -66 15 -124t47.5 -109t92 -81t140.5 -30q70 0 125 28t90 76.5t53.5 109.5t20.5 130z" />
    <glyph glyph-name="uni04E2" unicode="&#x4e2;" horiz-adv-x="1409" 
d="M441 1606v121h536v-121h-536zM1190 0h-137v1311l-607 -1311h-227v1413h135v-1309l613 1309h223v-1413z" />
    <glyph glyph-name="uni04E3" unicode="&#x4e3;" 
d="M289 1192v121h536v-121h-536zM487 -23q-88 0 -154.5 33.5t-105.5 93t-58 135.5t-19 167v593h124v-604q0 -45 5.5 -86.5t20.5 -84.5t38.5 -73.5t63 -50.5t90.5 -20q127 0 221 104.5t94 235.5v579h123v-999h-123v182q-29 -75 -117 -140t-203 -65z" />
    <glyph glyph-name="uni04E8" unicode="&#x4e8;" horiz-adv-x="1511" 
d="M754 -20q-124 0 -227 37.5t-175 104t-122 158.5t-73.5 199.5t-23.5 227.5q0 152 38 281.5t112.5 230t195.5 158t275 57.5q156 0 277.5 -57.5t196 -158t112.5 -230t38 -281.5q0 -121 -23.5 -228t-73.5 -199t-122.5 -158.5t-176 -104t-228.5 -37.5zM262 774h985
q-8 111 -41 205t-91.5 168.5t-151 117t-209.5 42.5t-209.5 -42.5t-151 -117t-91.5 -168.5t-40 -205zM754 106q99 0 180.5 30.5t138 83.5t96 126.5t59 157t21.5 176.5h-989q2 -94 21.5 -177t59 -156.5t96 -126.5t137.5 -83.5t180 -30.5z" />
    <glyph glyph-name="uni04E9" unicode="&#x4e9;" horiz-adv-x="1112" 
d="M555 -20q-133 0 -239 69.5t-164 187t-58 259.5q0 141 58 259t164 187.5t239 69.5q134 0 240.5 -69.5t164.5 -187.5t58 -259q0 -217 -130.5 -366.5t-332.5 -149.5zM238 565h632q-6 71 -27 130t-58.5 105.5t-96 72.5t-133.5 26q-145 0 -223.5 -92.5t-93.5 -241.5zM555 92
q65 0 118 20t88.5 54.5t60.5 83.5t36.5 103.5t13.5 117.5h-636q2 -79 21.5 -145.5t56.5 -120t98.5 -83.5t142.5 -30z" />
    <glyph glyph-name="uni04EE" unicode="&#x4ee;" horiz-adv-x="1116" 
d="M293 1606v121h536v-121h-536zM272 0l199 457l-395 956h149l316 -817l346 817h153l-622 -1413h-146z" />
    <glyph glyph-name="uni04EF" unicode="&#x4ef;" horiz-adv-x="961" 
d="M215 1192v121h536v-121h-536zM264 -430l162 432l-381 997h139l299 -847l293 847h139l-526 -1429h-125z" />
    <glyph glyph-name="Wgrave" unicode="&#x1e80;" horiz-adv-x="1966" 
d="M913 1509l-245 287h176l215 -287h-146zM477 0l-391 1413h137l344 -1263l361 1181h110l363 -1181l342 1263h137l-391 -1413h-156l-346 1112l-354 -1112h-156z" />
    <glyph glyph-name="wgrave" unicode="&#x1e81;" horiz-adv-x="1407" 
d="M633 1126l-245 287h176l215 -287h-146zM332 0l-273 999h134l213 -845l239 845h119l240 -843l210 843h134l-273 -999h-127l-241 850l-248 -850h-127z" />
    <glyph glyph-name="Wacute" unicode="&#x1e82;" horiz-adv-x="1966" 
d="M897 1507l215 289h176l-268 -289h-123zM477 0l-391 1413h137l344 -1263l361 1181h110l363 -1181l342 1263h137l-391 -1413h-156l-346 1112l-354 -1112h-156z" />
    <glyph glyph-name="wacute" unicode="&#x1e83;" horiz-adv-x="1407" 
d="M617 1124l215 289h176l-268 -289h-123zM332 0l-273 999h134l213 -845l239 845h119l240 -843l210 843h134l-273 -999h-127l-241 850l-248 -850h-127z" />
    <glyph glyph-name="Wdieresis" unicode="&#x1e84;" horiz-adv-x="1966" 
d="M739 1612v184h160v-184h-160zM1071 1612v184h160v-184h-160zM477 0l-391 1413h137l344 -1263l361 1181h110l363 -1181l342 1263h137l-391 -1413h-156l-346 1112l-354 -1112h-156z" />
    <glyph glyph-name="wdieresis" unicode="&#x1e85;" horiz-adv-x="1407" 
d="M459 1229v184h160v-184h-160zM791 1229v184h160v-184h-160zM332 0l-273 999h134l213 -845l239 845h119l240 -843l210 843h134l-273 -999h-127l-241 850l-248 -850h-127z" />
    <glyph glyph-name="uni1EA4" unicode="&#x1ea4;" horiz-adv-x="1296" 
d="M559 1952l215 289h176l-268 -289h-123zM317 1512l332 356l332 -356h-154l-178 196l-176 -196h-156zM76 0l522 1413h104l519 -1413h-144l-108 307h-639l-107 -307h-147zM375 434h549l-273 780z" />
    <glyph glyph-name="uni1EA5" unicode="&#x1ea5;" horiz-adv-x="1016" 
d="M412 1538l215 289h176l-268 -289h-123zM170 1098l332 356l332 -356h-154l-178 196l-176 -196h-156zM397 -20q-140 0 -227.5 78t-87.5 212q0 295 450 295h222q0 346 -258 346q-175 0 -287 -153l-90 71q137 191 366 191q184 0 282.5 -109.5t98.5 -296.5v-614h-108v205
q-50 -112 -147 -168.5t-214 -56.5zM410 86q79 0 146 35.5t109 91.5t65.5 122.5t23.5 131.5h-207q-171 0 -252.5 -45t-81.5 -154q0 -94 54.5 -138t142.5 -44z" />
    <glyph glyph-name="uni1EA6" unicode="&#x1ea6;" horiz-adv-x="1296" 
d="M575 1954l-245 287h176l215 -287h-146zM317 1512l332 356l332 -356h-154l-178 196l-176 -196h-156zM76 0l522 1413h104l519 -1413h-144l-108 307h-639l-107 -307h-147zM375 434h549l-273 780z" />
    <glyph glyph-name="uni1EA7" unicode="&#x1ea7;" horiz-adv-x="1016" 
d="M428 1540l-245 287h176l215 -287h-146zM170 1098l332 356l332 -356h-154l-178 196l-176 -196h-156zM397 -20q-140 0 -227.5 78t-87.5 212q0 295 450 295h222q0 346 -258 346q-175 0 -287 -153l-90 71q137 191 366 191q184 0 282.5 -109.5t98.5 -296.5v-614h-108v205
q-50 -112 -147 -168.5t-214 -56.5zM410 86q79 0 146 35.5t109 91.5t65.5 122.5t23.5 131.5h-207q-171 0 -252.5 -45t-81.5 -154q0 -94 54.5 -138t142.5 -44z" />
    <glyph glyph-name="uni1EAA" unicode="&#x1eaa;" horiz-adv-x="1296" 
d="M768 1985q-36 0 -68 16.5t-54.5 40t-43 47t-43 40t-45.5 16.5q-70 0 -70 -137h-90q0 108 41 174.5t117 66.5q41 0 75 -17t56.5 -41t42 -48t41 -41t43.5 -17q74 0 74 158h96q0 -125 -44.5 -191.5t-127.5 -66.5zM317 1512l332 356l332 -356h-154l-178 196l-176 -196h-156z
M76 0l522 1413h104l519 -1413h-144l-108 307h-639l-107 -307h-147zM375 434h549l-273 780z" />
    <glyph glyph-name="uni1EAB" unicode="&#x1eab;" horiz-adv-x="1016" 
d="M621 1571q-36 0 -68 16.5t-54.5 40t-43 47t-43 40t-45.5 16.5q-70 0 -70 -137h-90q0 108 41 174.5t117 66.5q41 0 75 -17t56.5 -41t42 -48t41 -41t43.5 -17q74 0 74 158h96q0 -125 -44.5 -191.5t-127.5 -66.5zM170 1098l332 356l332 -356h-154l-178 196l-176 -196h-156z
M397 -20q-140 0 -227.5 78t-87.5 212q0 295 450 295h222q0 346 -258 346q-175 0 -287 -153l-90 71q137 191 366 191q184 0 282.5 -109.5t98.5 -296.5v-614h-108v205q-50 -112 -147 -168.5t-214 -56.5zM410 86q79 0 146 35.5t109 91.5t65.5 122.5t23.5 131.5h-207
q-171 0 -252.5 -45t-81.5 -154q0 -94 54.5 -138t142.5 -44z" />
    <glyph glyph-name="uni1EAE" unicode="&#x1eae;" horiz-adv-x="1296" 
d="M559 1952l215 289h176l-268 -289h-123zM649 1557q-132 0 -218.5 72t-86.5 198h127q0 -71 51.5 -117.5t126.5 -46.5q74 0 125 46t51 118h127q0 -127 -85.5 -198.5t-217.5 -71.5zM76 0l522 1413h104l519 -1413h-144l-108 307h-639l-107 -307h-147zM375 434h549l-273 780z
" />
    <glyph glyph-name="uni1EAF" unicode="&#x1eaf;" horiz-adv-x="1016" 
d="M412 1538l215 289h176l-268 -289h-123zM502 1143q-132 0 -218.5 72t-86.5 198h127q0 -71 51.5 -117.5t126.5 -46.5q74 0 125 46t51 118h127q0 -127 -85.5 -198.5t-217.5 -71.5zM397 -20q-140 0 -227.5 78t-87.5 212q0 295 450 295h222q0 346 -258 346q-175 0 -287 -153
l-90 71q137 191 366 191q184 0 282.5 -109.5t98.5 -296.5v-614h-108v205q-50 -112 -147 -168.5t-214 -56.5zM410 86q79 0 146 35.5t109 91.5t65.5 122.5t23.5 131.5h-207q-171 0 -252.5 -45t-81.5 -154q0 -94 54.5 -138t142.5 -44z" />
    <glyph glyph-name="uni1EB0" unicode="&#x1eb0;" horiz-adv-x="1296" 
d="M575 1954l-245 287h176l215 -287h-146zM649 1557q-132 0 -218.5 72t-86.5 198h127q0 -71 51.5 -117.5t126.5 -46.5q74 0 125 46t51 118h127q0 -127 -85.5 -198.5t-217.5 -71.5zM76 0l522 1413h104l519 -1413h-144l-108 307h-639l-107 -307h-147zM375 434h549l-273 780z
" />
    <glyph glyph-name="uni1EB1" unicode="&#x1eb1;" horiz-adv-x="1016" 
d="M428 1540l-245 287h176l215 -287h-146zM502 1143q-132 0 -218.5 72t-86.5 198h127q0 -71 51.5 -117.5t126.5 -46.5q74 0 125 46t51 118h127q0 -127 -85.5 -198.5t-217.5 -71.5zM397 -20q-140 0 -227.5 78t-87.5 212q0 295 450 295h222q0 346 -258 346q-175 0 -287 -153
l-90 71q137 191 366 191q184 0 282.5 -109.5t98.5 -296.5v-614h-108v205q-50 -112 -147 -168.5t-214 -56.5zM410 86q79 0 146 35.5t109 91.5t65.5 122.5t23.5 131.5h-207q-171 0 -252.5 -45t-81.5 -154q0 -94 54.5 -138t142.5 -44z" />
    <glyph glyph-name="uni1EB4" unicode="&#x1eb4;" horiz-adv-x="1296" 
d="M768 1985q-36 0 -68 16.5t-54.5 40t-43 47t-43 40t-45.5 16.5q-70 0 -70 -137h-90q0 108 41 174.5t117 66.5q41 0 75 -17t56.5 -41t42 -48t41 -41t43.5 -17q74 0 74 158h96q0 -125 -44.5 -191.5t-127.5 -66.5zM649 1557q-132 0 -218.5 72t-86.5 198h127
q0 -71 51.5 -117.5t126.5 -46.5q74 0 125 46t51 118h127q0 -127 -85.5 -198.5t-217.5 -71.5zM76 0l522 1413h104l519 -1413h-144l-108 307h-639l-107 -307h-147zM375 434h549l-273 780z" />
    <glyph glyph-name="uni1EB5" unicode="&#x1eb5;" horiz-adv-x="1016" 
d="M621 1571q-36 0 -68 16.5t-54.5 40t-43 47t-43 40t-45.5 16.5q-70 0 -70 -137h-90q0 108 41 174.5t117 66.5q41 0 75 -17t56.5 -41t42 -48t41 -41t43.5 -17q74 0 74 158h96q0 -125 -44.5 -191.5t-127.5 -66.5zM502 1143q-132 0 -218.5 72t-86.5 198h127
q0 -71 51.5 -117.5t126.5 -46.5q74 0 125 46t51 118h127q0 -127 -85.5 -198.5t-217.5 -71.5zM397 -20q-140 0 -227.5 78t-87.5 212q0 295 450 295h222q0 346 -258 346q-175 0 -287 -153l-90 71q137 191 366 191q184 0 282.5 -109.5t98.5 -296.5v-614h-108v205
q-50 -112 -147 -168.5t-214 -56.5zM410 86q79 0 146 35.5t109 91.5t65.5 122.5t23.5 131.5h-207q-171 0 -252.5 -45t-81.5 -154q0 -94 54.5 -138t142.5 -44z" />
    <glyph glyph-name="uni1EBC" unicode="&#x1ebc;" horiz-adv-x="1237" 
d="M797 1571q-36 0 -68 16.5t-54.5 40t-43 47t-43 40t-45.5 16.5q-70 0 -70 -137h-90q0 108 41 174.5t117 66.5q41 0 75 -17t56.5 -41t42 -48t41 -41t43.5 -17q74 0 74 158h96q0 -125 -44.5 -191.5t-127.5 -66.5zM219 0v1413h909v-113h-774v-538h662v-109h-662v-532h774
v-121h-909z" />
    <glyph glyph-name="uni1EBD" unicode="&#x1ebd;" horiz-adv-x="1030" 
d="M627 1157q-36 0 -68 16.5t-54.5 40t-43 47t-43 40t-45.5 16.5q-70 0 -70 -137h-90q0 108 41 174.5t117 66.5q41 0 75 -17t56.5 -41t42 -48t41 -41t43.5 -17q74 0 74 158h96q0 -125 -44.5 -191.5t-127.5 -66.5zM537 -12q-107 0 -192 40.5t-137.5 110.5t-80 160.5
t-27.5 194.5q0 82 16.5 157.5t51.5 141.5t84 114.5t118 76.5t150 28q92 0 165 -28.5t118.5 -75t76 -110.5t42.5 -130.5t12 -139.5q0 -35 -4 -71h-699q-5 -151 76 -256t228 -105q96 0 164.5 23.5t125.5 83.5l86 -66q-81 -79 -168.5 -114t-205.5 -35zM231 565h584
q0 66 -15 124t-47.5 109t-92 81t-140.5 30q-70 0 -125 -28t-90 -76.5t-53.5 -109.5t-20.5 -130z" />
    <glyph glyph-name="uni1EBE" unicode="&#x1ebe;" horiz-adv-x="1237" 
d="M588 1952l215 289h176l-268 -289h-123zM346 1512l332 356l332 -356h-154l-178 196l-176 -196h-156zM219 0v1413h909v-113h-774v-538h662v-109h-662v-532h774v-121h-909z" />
    <glyph glyph-name="uni1EBF" unicode="&#x1ebf;" horiz-adv-x="1030" 
d="M418 1538l215 289h176l-268 -289h-123zM176 1098l332 356l332 -356h-154l-178 196l-176 -196h-156zM537 -12q-107 0 -192 40.5t-137.5 110.5t-80 160.5t-27.5 194.5q0 82 16.5 157.5t51.5 141.5t84 114.5t118 76.5t150 28q92 0 165 -28.5t118.5 -75t76 -110.5
t42.5 -130.5t12 -139.5q0 -35 -4 -71h-699q-5 -151 76 -256t228 -105q96 0 164.5 23.5t125.5 83.5l86 -66q-81 -79 -168.5 -114t-205.5 -35zM231 565h584q0 66 -15 124t-47.5 109t-92 81t-140.5 30q-70 0 -125 -28t-90 -76.5t-53.5 -109.5t-20.5 -130z" />
    <glyph glyph-name="uni1EC0" unicode="&#x1ec0;" horiz-adv-x="1237" 
d="M604 1954l-245 287h176l215 -287h-146zM346 1512l332 356l332 -356h-154l-178 196l-176 -196h-156zM219 0v1413h909v-113h-774v-538h662v-109h-662v-532h774v-121h-909z" />
    <glyph glyph-name="uni1EC1" unicode="&#x1ec1;" horiz-adv-x="1030" 
d="M434 1540l-245 287h176l215 -287h-146zM176 1098l332 356l332 -356h-154l-178 196l-176 -196h-156zM537 -12q-107 0 -192 40.5t-137.5 110.5t-80 160.5t-27.5 194.5q0 82 16.5 157.5t51.5 141.5t84 114.5t118 76.5t150 28q92 0 165 -28.5t118.5 -75t76 -110.5
t42.5 -130.5t12 -139.5q0 -35 -4 -71h-699q-5 -151 76 -256t228 -105q96 0 164.5 23.5t125.5 83.5l86 -66q-81 -79 -168.5 -114t-205.5 -35zM231 565h584q0 66 -15 124t-47.5 109t-92 81t-140.5 30q-70 0 -125 -28t-90 -76.5t-53.5 -109.5t-20.5 -130z" />
    <glyph glyph-name="uni1EC4" unicode="&#x1ec4;" horiz-adv-x="1237" 
d="M797 1985q-36 0 -68 16.5t-54.5 40t-43 47t-43 40t-45.5 16.5q-70 0 -70 -137h-90q0 108 41 174.5t117 66.5q41 0 75 -17t56.5 -41t42 -48t41 -41t43.5 -17q74 0 74 158h96q0 -125 -44.5 -191.5t-127.5 -66.5zM346 1512l332 356l332 -356h-154l-178 196l-176 -196h-156z
M219 0v1413h909v-113h-774v-538h662v-109h-662v-532h774v-121h-909z" />
    <glyph glyph-name="uni1EC5" unicode="&#x1ec5;" horiz-adv-x="1030" 
d="M627 1571q-36 0 -68 16.5t-54.5 40t-43 47t-43 40t-45.5 16.5q-70 0 -70 -137h-90q0 108 41 174.5t117 66.5q41 0 75 -17t56.5 -41t42 -48t41 -41t43.5 -17q74 0 74 158h96q0 -125 -44.5 -191.5t-127.5 -66.5zM176 1098l332 356l332 -356h-154l-178 196l-176 -196h-156z
M537 -12q-107 0 -192 40.5t-137.5 110.5t-80 160.5t-27.5 194.5q0 82 16.5 157.5t51.5 141.5t84 114.5t118 76.5t150 28q92 0 165 -28.5t118.5 -75t76 -110.5t42.5 -130.5t12 -139.5q0 -35 -4 -71h-699q-5 -151 76 -256t228 -105q96 0 164.5 23.5t125.5 83.5l86 -66
q-81 -79 -168.5 -114t-205.5 -35zM231 565h584q0 66 -15 124t-47.5 109t-92 81t-140.5 30q-70 0 -125 -28t-90 -76.5t-53.5 -109.5t-20.5 -130z" />
    <glyph glyph-name="uni1ED0" unicode="&#x1ed0;" horiz-adv-x="1511" 
d="M664 1952l215 289h176l-268 -289h-123zM422 1512l332 356l332 -356h-154l-178 196l-176 -196h-156zM754 -20q-153 0 -273.5 58t-195.5 158.5t-113.5 230.5t-38.5 280q0 119 24 226.5t74 199t122.5 158.5t175 105t225.5 38q124 0 227.5 -38t176 -104.5t122.5 -158.5
t74 -199.5t24 -226.5q0 -120 -24 -227t-74 -199t-122.5 -158.5t-176 -104.5t-227.5 -38zM754 106q128 0 226.5 49.5t156.5 135t87 190.5t29 226q0 96 -17.5 182t-56.5 163t-96 133.5t-141.5 89t-187.5 32.5q-101 0 -184.5 -32.5t-140 -89t-95.5 -133.5t-56.5 -163.5
t-17.5 -181.5q0 -96 17.5 -182.5t56.5 -163.5t95.5 -133.5t140 -89t184.5 -32.5z" />
    <glyph glyph-name="uni1ED1" unicode="&#x1ed1;" horiz-adv-x="1116" 
d="M467 1538l215 289h176l-268 -289h-123zM225 1098l332 356l332 -356h-154l-178 196l-176 -196h-156zM555 -20q-134 0 -240 71t-163.5 190t-57.5 261t57.5 260t163.5 188t240 70t241.5 -70t166.5 -188.5t59 -259.5q0 -142 -59 -261t-166.5 -190t-241.5 -71zM557 82
q84 0 151 36t107 96.5t61 134t21 153.5q0 109 -35 201t-113.5 153.5t-189.5 61.5q-84 0 -150.5 -35.5t-107 -94.5t-61.5 -132.5t-21 -153.5q0 -81 21 -155t61.5 -134t106.5 -95.5t149 -35.5z" />
    <glyph glyph-name="uni1ED2" unicode="&#x1ed2;" horiz-adv-x="1511" 
d="M680 1954l-245 287h176l215 -287h-146zM422 1512l332 356l332 -356h-154l-178 196l-176 -196h-156zM754 -20q-153 0 -273.5 58t-195.5 158.5t-113.5 230.5t-38.5 280q0 119 24 226.5t74 199t122.5 158.5t175 105t225.5 38q124 0 227.5 -38t176 -104.5t122.5 -158.5
t74 -199.5t24 -226.5q0 -120 -24 -227t-74 -199t-122.5 -158.5t-176 -104.5t-227.5 -38zM754 106q128 0 226.5 49.5t156.5 135t87 190.5t29 226q0 96 -17.5 182t-56.5 163t-96 133.5t-141.5 89t-187.5 32.5q-101 0 -184.5 -32.5t-140 -89t-95.5 -133.5t-56.5 -163.5
t-17.5 -181.5q0 -96 17.5 -182.5t56.5 -163.5t95.5 -133.5t140 -89t184.5 -32.5z" />
    <glyph glyph-name="uni1ED3" unicode="&#x1ed3;" horiz-adv-x="1116" 
d="M483 1540l-245 287h176l215 -287h-146zM225 1098l332 356l332 -356h-154l-178 196l-176 -196h-156zM555 -20q-134 0 -240 71t-163.5 190t-57.5 261t57.5 260t163.5 188t240 70t241.5 -70t166.5 -188.5t59 -259.5q0 -142 -59 -261t-166.5 -190t-241.5 -71zM557 82
q84 0 151 36t107 96.5t61 134t21 153.5q0 109 -35 201t-113.5 153.5t-189.5 61.5q-84 0 -150.5 -35.5t-107 -94.5t-61.5 -132.5t-21 -153.5q0 -81 21 -155t61.5 -134t106.5 -95.5t149 -35.5z" />
    <glyph glyph-name="uni1ED6" unicode="&#x1ed6;" horiz-adv-x="1511" 
d="M873 1985q-36 0 -68 16.5t-54.5 40t-43 47t-43 40t-45.5 16.5q-70 0 -70 -137h-90q0 108 41 174.5t117 66.5q41 0 75 -17t56.5 -41t42 -48t41 -41t43.5 -17q74 0 74 158h96q0 -125 -44.5 -191.5t-127.5 -66.5zM422 1512l332 356l332 -356h-154l-178 196l-176 -196h-156z
M754 -20q-153 0 -273.5 58t-195.5 158.5t-113.5 230.5t-38.5 280q0 119 24 226.5t74 199t122.5 158.5t175 105t225.5 38q124 0 227.5 -38t176 -104.5t122.5 -158.5t74 -199.5t24 -226.5q0 -120 -24 -227t-74 -199t-122.5 -158.5t-176 -104.5t-227.5 -38zM754 106
q128 0 226.5 49.5t156.5 135t87 190.5t29 226q0 96 -17.5 182t-56.5 163t-96 133.5t-141.5 89t-187.5 32.5q-101 0 -184.5 -32.5t-140 -89t-95.5 -133.5t-56.5 -163.5t-17.5 -181.5q0 -96 17.5 -182.5t56.5 -163.5t95.5 -133.5t140 -89t184.5 -32.5z" />
    <glyph glyph-name="uni1ED7" unicode="&#x1ed7;" horiz-adv-x="1116" 
d="M676 1571q-36 0 -68 16.5t-54.5 40t-43 47t-43 40t-45.5 16.5q-70 0 -70 -137h-90q0 108 41 174.5t117 66.5q41 0 75 -17t56.5 -41t42 -48t41 -41t43.5 -17q74 0 74 158h96q0 -125 -44.5 -191.5t-127.5 -66.5zM225 1098l332 356l332 -356h-154l-178 196l-176 -196h-156z
M555 -20q-134 0 -240 71t-163.5 190t-57.5 261t57.5 260t163.5 188t240 70t241.5 -70t166.5 -188.5t59 -259.5q0 -142 -59 -261t-166.5 -190t-241.5 -71zM557 82q84 0 151 36t107 96.5t61 134t21 153.5q0 109 -35 201t-113.5 153.5t-189.5 61.5q-84 0 -150.5 -35.5
t-107 -94.5t-61.5 -132.5t-21 -153.5q0 -81 21 -155t61.5 -134t106.5 -95.5t149 -35.5z" />
    <glyph glyph-name="Ygrave" unicode="&#x1ef2;" horiz-adv-x="1315" 
d="M583 1540l-245 287h176l215 -287h-146zM594 0v553l-528 860h155l436 -719l439 719h153l-526 -860v-553h-129z" />
    <glyph glyph-name="ygrave" unicode="&#x1ef3;" horiz-adv-x="961" 
d="M401 1126l-245 287h176l215 -287h-146zM260 -430l168 430l-383 999h139l303 -847l291 847h137l-526 -1429h-129z" />
    <glyph glyph-name="uni1EF8" unicode="&#x1ef8;" horiz-adv-x="1315" 
d="M776 1571q-36 0 -68 16.5t-54.5 40t-43 47t-43 40t-45.5 16.5q-70 0 -70 -137h-90q0 108 41 174.5t117 66.5q41 0 75 -17t56.5 -41t42 -48t41 -41t43.5 -17q74 0 74 158h96q0 -125 -44.5 -191.5t-127.5 -66.5zM594 0v553l-528 860h155l436 -719l439 719h153l-526 -860
v-553h-129z" />
    <glyph glyph-name="uni1EF9" unicode="&#x1ef9;" horiz-adv-x="961" 
d="M594 1157q-36 0 -68 16.5t-54.5 40t-43 47t-43 40t-45.5 16.5q-70 0 -70 -137h-90q0 108 41 174.5t117 66.5q41 0 75 -17t56.5 -41t42 -48t41 -41t43.5 -17q74 0 74 158h96q0 -125 -44.5 -191.5t-127.5 -66.5zM260 -430l168 430l-383 999h139l303 -847l291 847h137
l-526 -1429h-129z" />
    <glyph glyph-name="endash" unicode="&#x2013;" horiz-adv-x="1012" 
d="M166 596v96h680v-96h-680z" />
    <glyph glyph-name="emdash" unicode="&#x2014;" horiz-adv-x="2048" 
d="M0 596v96h2048v-96h-2048z" />
    <glyph glyph-name="uni2015" unicode="&#x2015;" horiz-adv-x="1503" 
d="M166 596v96h1171v-96h-1171z" />
    <glyph glyph-name="quoteleft" unicode="&#x2018;" horiz-adv-x="555" 
d="M326 944l-213 469h176l114 -469h-77z" />
    <glyph glyph-name="quoteright" unicode="&#x2019;" horiz-adv-x="555" 
d="M152 944l116 469h174l-215 -469h-75z" />
    <glyph glyph-name="quotesinglbase" unicode="&#x201a;" horiz-adv-x="563" 
d="M150 -225l118 489h183l-215 -489h-86z" />
    <glyph glyph-name="quotedblleft" unicode="&#x201c;" horiz-adv-x="844" 
d="M326 944l-213 469h176l114 -469h-77zM616 944l-215 469h174l117 -469h-76z" />
    <glyph glyph-name="quotedblright" unicode="&#x201d;" horiz-adv-x="844" 
d="M152 944l116 469h174l-215 -469h-75zM440 944l119 469h172l-213 -469h-78z" />
    <glyph glyph-name="quotedblbase" unicode="&#x201e;" horiz-adv-x="870" 
d="M150 -225l118 489h183l-215 -489h-86zM457 -225l118 489h183l-215 -489h-86z" />
    <glyph glyph-name="dagger" unicode="&#x2020;" horiz-adv-x="813" 
d="M340 -205v1059h-221v131h221v428h133v-428h221v-131h-221v-1059h-133z" />
    <glyph glyph-name="daggerdbl" unicode="&#x2021;" horiz-adv-x="874" 
d="M371 -205v426h-221v135h221v498h-221v131h221v428h133v-428h221v-131h-221v-498h221v-135h-221v-426h-133z" />
    <glyph glyph-name="bullet" unicode="&#x2022;" horiz-adv-x="840" 
d="M420 244q-98 0 -168 69.5t-70 167.5t70 168t168 70t167.5 -70t69.5 -168t-69.5 -167.5t-167.5 -69.5z" />
    <glyph glyph-name="uni2023" unicode="&#x2023;" horiz-adv-x="768" 
d="M244 260v436l391 -217z" />
    <glyph glyph-name="twodotenleader" unicode="&#x2025;" horiz-adv-x="1079" 
d="M240 0v176h186v-176h-186zM653 0v176h187v-176h-187z" />
    <glyph glyph-name="ellipsis" unicode="&#x2026;" horiz-adv-x="1493" 
d="M240 0v176h186v-176h-186zM653 0v176h187v-176h-187zM1067 0v176h186v-176h-186z" />
    <glyph glyph-name="perthousand" unicode="&#x2030;" horiz-adv-x="2167" 
d="M383 813q-65 0 -114 29.5t-75 77.5t-38.5 99t-12.5 103q0 42 7 84t24.5 84t43.5 74t67 52t92 20q78 0 134 -47.5t80.5 -116.5t24.5 -150q0 -79 -24 -147.5t-78.5 -115t-130.5 -46.5zM358 8l744 1387h112l-743 -1387h-113zM381 895q49 0 82 37.5t46 87t13 104.5
q0 56 -13.5 105.5t-47.5 86t-84 36.5q-38 0 -67.5 -21t-46 -55t-24.5 -73t-8 -81q0 -56 13.5 -105t49 -85.5t87.5 -36.5zM1210 6q-65 0 -113.5 29t-74.5 76t-38.5 98t-12.5 104q0 42 7 83t24.5 82.5t43 73t66.5 51.5t92 20q114 0 177 -93t63 -219q0 -79 -24 -146.5t-79 -113
t-131 -45.5zM1790 6q-65 0 -114 29t-75 76t-38.5 98t-12.5 104t12.5 104.5t38 99t73 77t110.5 29.5q78 0 134.5 -47t81.5 -116t25 -149q0 -79 -24.5 -146.5t-79.5 -113t-131 -45.5zM1208 88q37 0 66.5 21.5t45.5 55.5t24 72t8 76q0 56 -13.5 105t-48.5 85t-86 36
q-50 0 -84 -36t-47.5 -85t-13.5 -105q0 -88 37 -156.5t112 -68.5zM1790 88q48 0 81 37.5t45.5 86t12.5 101.5q0 56 -13.5 105t-47.5 85t-84 36q-72 0 -108 -68.5t-36 -157.5q0 -55 13.5 -103.5t49 -85t87.5 -36.5z" />
    <glyph glyph-name="uni2031" unicode="&#x2031;" horiz-adv-x="2728" 
d="M383 813q-52 0 -94.5 20t-69 51.5t-44.5 73.5t-25 83t-7 83t7 83t24.5 83t43 74t67 52t92.5 20q76 0 131.5 -47.5t80.5 -117t25 -149.5q0 -79 -24.5 -147.5t-78.5 -115t-128 -46.5zM358 8l744 1385h110l-741 -1385h-113zM381 895q49 0 82 37.5t46 87t13 104.5
q0 57 -13.5 106.5t-47.5 86.5t-84 37q-51 0 -86 -37t-48.5 -87t-13.5 -106q0 -90 37.5 -159.5t114.5 -69.5zM1210 6q-65 0 -113.5 29t-74.5 76t-38.5 98t-12.5 104q0 42 7 83t24.5 82.5t43 73t66.5 51.5t92 20q76 0 132 -47t81 -116.5t25 -148.5q0 -123 -61 -214t-171 -91z
M1788 6q-65 0 -114 29t-75 76t-38.5 98t-12.5 104t12.5 104.5t38 99t73 77t110.5 29.5q78 0 133.5 -47.5t79.5 -116t24 -148.5q0 -124 -60 -214.5t-171 -90.5zM2355 6q-65 0 -113.5 29t-74.5 76t-38.5 98t-12.5 104q0 42 7 83t24.5 82.5t43 73t66.5 51.5t92 20q59 0 106 -27
t75 -72t42.5 -99.5t14.5 -113.5q0 -124 -60.5 -214.5t-171.5 -90.5zM1208 86q37 0 66 21.5t45.5 56t24.5 72.5t8 77q0 56 -13.5 105.5t-48.5 86t-86 36.5t-85.5 -36.5t-48 -86t-13.5 -105.5q0 -55 13.5 -104t49 -86t88.5 -37zM1786 86q49 0 82.5 37.5t47 86.5t13.5 103
q0 56 -13.5 105.5t-48 86t-85.5 36.5t-86 -36.5t-48.5 -86t-13.5 -105.5q0 -55 13.5 -104t49.5 -86t89 -37zM2353 86q37 0 66 21.5t45.5 56t24.5 72.5t8 77q0 56 -13.5 105.5t-48.5 86t-86 36.5t-85.5 -36.5t-48 -86t-13.5 -105.5q0 -55 13.5 -104t49 -86t88.5 -37z" />
    <glyph glyph-name="guilsinglleft" unicode="&#x2039;" horiz-adv-x="600" 
d="M430 193l-354 319l354 317v-149l-197 -168l197 -170v-149z" />
    <glyph glyph-name="guilsinglright" unicode="&#x203a;" horiz-adv-x="600" 
d="M168 193v149l197 170l-197 168v149l354 -317z" />
    <glyph glyph-name="fraction" unicode="&#x2044;" horiz-adv-x="723" 
d="M-82 0l748 1413h139l-746 -1413h-141z" />
    <glyph glyph-name="Euro" unicode="&#x20ac;" horiz-adv-x="1280" 
d="M774 -20q-199 0 -324 136t-165 363h-127l49 115h61q-2 37 -2 113q0 79 6 124h-114l49 109h80q27 146 88 255t163 175t234 66q225 0 363 -189l-95 -80q-88 148 -272 148q-138 0 -230 -104.5t-128 -270.5h524l-49 -115h-494q-4 -68 -4 -112q0 -45 4 -123h543l-49 -117h-475
q17 -79 47.5 -144.5t74.5 -117.5t106 -81.5t136 -29.5q177 0 262 150l86 -98q-131 -172 -348 -172z" />
    <glyph glyph-name="uni20B1" unicode="&#x20b1;" horiz-adv-x="1343" 
d="M1204 1079v-88h-79q-13 -164 -129 -252t-310 -88h-250v-651h-135v991h-145v88h145v334h385q188 0 304.5 -88.5t132.5 -245.5h81zM436 1296v-217h554q-16 104 -95 160.5t-209 56.5h-250zM686 768q136 0 214.5 56t90.5 167h-555v-223h250z" />
    <glyph glyph-name="uni20B3" unicode="&#x20b3;" horiz-adv-x="1296" 
d="M1108 307l113 -307h-144l-108 307h-639l-107 -307h-147l113 307h-99v103h137l81 219h-218v102h256l252 682h104l251 -682h251v-102h-214l80 -219h134v-103h-96zM649 1255l-184 -524h365zM429 629l-76 -219h588l-75 219h-437z" />
    <glyph glyph-name="uni20B4" unicode="&#x20b4;" horiz-adv-x="1241" 
d="M963 391l122 -39q-18 -119 -89.5 -204t-170.5 -124.5t-215 -39.5q-187 0 -307.5 110.5t-120.5 290.5q0 51 12 96t31 78t51 64t61.5 52t73 44t76 37.5t80 35.5t76.5 35h-393v88h531q81 76 81 183q0 100 -71 160.5t-168 60.5q-92 0 -168 -41.5t-119 -124.5l-96 68
q126 213 383 213q155 0 261.5 -98.5t106.5 -252.5q0 -65 -22.5 -118.5t-55.5 -89t-87 -70.5t-99 -55.5t-111 -50.5t-104 -50h432v-88h-557q-76 -78 -76 -186q0 -136 81 -203.5t218 -67.5q89 0 163.5 30.5t127 97t62.5 159.5z" />
    <glyph glyph-name="uni20B8" unicode="&#x20b8;" horiz-adv-x="1436" 
d="M164 1305v106h1108v-106h-1108zM651 0v1028h-487v105h1108v-105h-488v-1028h-133z" />
    <glyph glyph-name="uni20BD" unicode="&#x20bd;" horiz-adv-x="1327" 
d="M342 0v381h-174v119h174v149h-174v119h174v645h385q202 0 320 -102t118 -281q0 -182 -117 -281.5t-321 -99.5h-252v-149h395v-119h-395v-381h-133zM475 768h252q147 0 228 66.5t81 195.5q0 126 -82 196t-227 70h-252v-528z" />
    <glyph glyph-name="uni2116" unicode="&#x2116;" horiz-adv-x="2300" 
d="M219 0v1413h223l613 -1309v1309h135v-1413h-227l-607 1311v-1311h-137zM1763 290q-174 0 -286 131t-112 319t112 318t286 130q175 0 289 -130t114 -318q0 -122 -50.5 -225t-143.5 -164t-209 -61zM1765 378q73 0 130.5 31t92 83.5t52.5 115.5t18 132q0 70 -18 133
t-52 114.5t-91.5 82t-129.5 30.5t-129.5 -30.5t-92.5 -82t-53.5 -114.5t-18.5 -133t18 -133.5t53 -115.5t92 -82.5t129 -30.5zM1430 0v113h667v-113h-667z" />
    <glyph glyph-name="trademark" unicode="&#x2122;" horiz-adv-x="1268" 
d="M301 877v485h-145v51h354v-51h-145v-485h-64zM567 877v536h78l143 -362l144 362h74v-536h-64v415l-123 -334h-63l-125 336v-417h-64z" />
    <glyph glyph-name="uni2126" unicode="&#x2126;" horiz-adv-x="1679" 
d="M190 0v115h363q-163 84 -260.5 247t-97.5 353q0 133 46 260.5t124 212.5q89 101 216.5 160t258.5 59q129 0 257 -59.5t220 -159.5q76 -84 122 -212t46 -259q0 -194 -92.5 -356.5t-247.5 -241.5h342v-119h-492v121q167 59 266 230t99 403q0 94 -34.5 189.5t-90.5 160.5
q-73 85 -181 135.5t-214 50.5q-108 0 -214.5 -50.5t-179.5 -135.5q-57 -67 -92 -161t-35 -189q0 -209 98.5 -379.5t264.5 -253.5v-121h-492z" />
    <glyph glyph-name="arrowleft" unicode="&#x2190;" horiz-adv-x="2177" 
d="M987 154l-868 485l868 481l53 -96l-649 -346h1655v-86h-1640l634 -346z" />
    <glyph glyph-name="arrowright" unicode="&#x2192;" horiz-adv-x="2177" 
d="M1190 154l-53 92l635 346h-1641v86h1653l-647 346l53 96l868 -481z" />
    <glyph glyph-name="partialdiff" unicode="&#x2202;" horiz-adv-x="1313" 
d="M561 -10q-181 0 -292 120t-111 314q0 168 70 306t199.5 219t291.5 81q85 0 157 -35t117 -100q-12 204 -97 310t-228 106q-88 0 -151.5 -38t-104.5 -126l-133 31q48 119 150.5 184t244.5 65q452 0 452 -696q0 -113 -19.5 -218t-63.5 -201t-108 -167t-160.5 -113
t-213.5 -42zM571 106q122 0 215.5 70.5t140 181.5t46.5 242q0 142 -69.5 226.5t-201.5 84.5q-73 0 -138 -28.5t-113 -77t-83.5 -111t-53 -133t-17.5 -141.5q0 -138 74 -226t200 -88z" />
    <glyph glyph-name="uni2206" unicode="&#x2206;" horiz-adv-x="1309" 
d="M119 0l536 1413l535 -1413h-1071zM291 117h727l-363 956z" />
    <glyph glyph-name="product" unicode="&#x220f;" horiz-adv-x="1333" 
d="M274 0v1296h-81v117h948v-117h-82v-1296h-117v1296h-551v-1296h-117z" />
    <glyph glyph-name="summation" unicode="&#x2211;" horiz-adv-x="1270" 
d="M133 0v53l584 654l-584 653v53h993v-117h-774l535 -587l-535 -592h774v-117h-993z" />
    <glyph glyph-name="minus" unicode="&#x2212;" horiz-adv-x="1108" 
d="M254 580v96h600v-96h-600z" />
    <glyph glyph-name="radical" unicode="&#x221a;" horiz-adv-x="1219" 
d="M514 -158l-250 744h-147v116h229l174 -550l469 1261l111 -41z" />
    <glyph glyph-name="infinity" unicode="&#x221e;" horiz-adv-x="1903" 
d="M547 354q-166 0 -260 104t-94 277q0 174 94 277.5t260 103.5q113 0 218 -64t187 -178q82 115 186.5 178.5t219.5 63.5q165 0 258.5 -104t93.5 -277t-93.5 -277t-258.5 -104q-115 0 -219.5 63.5t-186.5 178.5q-82 -114 -187 -178t-218 -64zM578 463q89 0 173.5 74.5
t139.5 197.5q-54 119 -140 196t-173 77q-115 0 -185.5 -73.5t-70.5 -199.5t70.5 -199t185.5 -73zM1327 463q114 0 184 73t70 199t-70 199.5t-184 73.5q-91 0 -176 -75t-139 -198q55 -120 140.5 -196t174.5 -76z" />
    <glyph glyph-name="integral" unicode="&#x222b;" horiz-adv-x="1016" 
d="M109 -457v117q184 0 268 78t84 254v1171q0 126 74 206.5t182 80.5q101 0 196 -76l-77 -92q-54 51 -119 51q-58 0 -98.5 -43.5t-40.5 -122.5v-1173q0 -220 -124.5 -335.5t-344.5 -115.5z" />
    <glyph glyph-name="approxequal" unicode="&#x2248;" horiz-adv-x="1171" 
d="M741 733q-43 0 -81.5 19.5t-67 47.5t-56 55.5t-60.5 47t-68 19.5q-56 0 -80.5 -46.5t-22.5 -115.5h-82q0 106 46.5 175t136.5 69q52 0 95 -19.5t72 -47t55 -54.5t56 -46.5t64 -19.5q112 0 112 182h88q0 -126 -55 -196t-152 -70zM743 389q-43 0 -81.5 19.5t-67 48
l-56.5 56.5t-61.5 47.5t-68.5 19.5q-38 0 -62.5 -24.5t-33 -60t-7.5 -79.5h-82q0 106 46.5 176t136.5 70q52 0 95 -19.5t72 -47t55 -54.5t56 -46.5t64 -19.5q112 0 112 180h88q0 -125 -54 -195.5t-151 -70.5z" />
    <glyph glyph-name="notequal" unicode="&#x2260;" horiz-adv-x="1182" 
d="M150 0l229 434h-168v129h235l117 217h-352v129h422l266 504h141l-266 -504h189v-129h-256l-117 -217h373v-129h-443l-227 -434h-143z" />
    <glyph glyph-name="lessequal" unicode="&#x2264;" horiz-adv-x="1321" 
d="M1079 111l-876 491l876 488l60 -103l-723 -385l723 -389zM125 -96v96h1036v-96h-1036z" />
    <glyph glyph-name="greaterequal" unicode="&#x2265;" horiz-adv-x="1321" 
d="M242 111l-60 102l723 389l-723 385l60 103l876 -488zM160 -96v96h1036v-96h-1036z" />
    <glyph glyph-name="lozenge" unicode="&#x25ca;" horiz-adv-x="1135" 
d="M492 0l-363 717l363 717h151l363 -717l-363 -717h-151zM567 131l295 586l-295 586l-295 -586z" />
    <glyph glyph-name="uniF8FF" unicode="&#xf8ff;" horiz-adv-x="1815" 
d="M907 -61q-158 0 -301 61t-247 165t-165 247t-61 301t61 301t165 247t247 165t301 61t301 -61t247 -165t165 -247t61 -301t-61 -301t-165 -247t-247 -165t-301 -61zM907 10q191 0 353 94t256 256t94 353q0 143 -55.5 273t-149.5 224t-224.5 149.5t-273.5 55.5t-273 -55.5
t-224 -149.5t-149.5 -224t-55.5 -273t55.5 -273.5t149.5 -224.5t224 -149.5t273 -55.5zM504 410q-15 0 -25 9.5t-10 24.5v537q0 15 10.5 26t24.5 11q15 0 26 -11t11 -26v-537q0 -15 -11 -24.5t-26 -9.5zM907 410q-15 0 -25 9.5t-10 24.5v537q0 15 10 26t25 11t25 -11t10 -26
v-537q0 -15 -9.5 -24.5t-25.5 -9.5zM1309 410q-15 0 -23 10l-270 268q-8 11 -8 25q0 16 8 24l272 269q6 12 21 12q13 0 25 -12t12 -25t-11 -25l-243 -243l243 -244q11 -11 11 -25q0 -13 -11.5 -23.5t-25.5 -10.5zM639 678q-16 0 -25.5 9.5t-9.5 25.5q0 15 9.5 25t25.5 10
h133q16 0 26.5 -10t10.5 -25q0 -16 -10.5 -25.5t-26.5 -9.5h-133z" />
    <glyph glyph-name="c.001" horiz-adv-x="967" 
d="M522 -20q-134 0 -231.5 73.5t-144 189t-46.5 255.5q0 103 27 196t78 166t132.5 116.5t182.5 43.5q129 0 227 -69t152 -189l-119 -53q-22 95 -94 152t-166 57q-78 0 -136.5 -38.5t-91 -102t-48 -134t-15.5 -145.5q0 -76 15.5 -146t47.5 -132.5t91 -100t137 -37.5
q96 0 167 56t93 149l107 -49q-44 -122 -139 -190t-226 -68z" />
    <glyph glyph-name="g.ss01" horiz-adv-x="1108" 
d="M932 0q0 -201 -106.5 -316.5t-303.5 -115.5q-123 0 -222 48t-159 144l99 74q96 -158 280 -158q139 0 213 89.5t74 234.5v145q-48 -72 -127.5 -108.5t-177.5 -36.5q-197 0 -302.5 141.5t-105.5 366.5q0 148 45 262t136.5 182t218.5 68q203 0 313 -166v145h127zM522 109
q76 0 134.5 32.5t92.5 89.5t51 127t17 152t-17 152t-51 126.5t-92.5 88.5t-134.5 32q-101 0 -170.5 -56.5t-99 -144t-29.5 -198.5t29.5 -199t99 -145t170.5 -57z" />
    <glyph glyph-name="g.ss04" horiz-adv-x="1059" 
d="M666 131q145 0 230 -70t85 -202q0 -145 -110 -230.5t-310 -85.5q-215 0 -345 87t-130 245q0 38 8 66l159 110q-58 27 -94 77t-38 122q-3 118 96 190q-76 93 -76 219q0 156 109 255.5t274 99.5q155 0 259 -88l149 133l63 -82l-145 -126q55 -88 55 -196q0 -155 -108 -251.5
t-273 -96.5q-134 0 -234 67q-53 -42 -50 -114q1 -67 50.5 -98t151.5 -31h224zM526 913q-117 0 -188.5 -72t-71.5 -184q0 -109 71 -178t189 -69q116 0 186 68.5t70 178.5q0 112 -70 184t-186 72zM559 -354q135 0 217 49.5t82 154.5q0 173 -240 173h-237q-26 0 -47 4
l-129 -127q-1 -6 0.5 -17t1.5 -14q16 -223 352 -223z" />
    <glyph glyph-name="gbreve.ss01" horiz-adv-x="1108" 
d="M530 1143q-132 0 -218.5 72t-86.5 198h127q0 -71 51.5 -117.5t126.5 -46.5q74 0 125 46t51 118h127q0 -127 -85.5 -198.5t-217.5 -71.5zM932 0q0 -201 -106.5 -316.5t-303.5 -115.5q-123 0 -222 48t-159 144l99 74q96 -158 280 -158q139 0 213 89.5t74 234.5v145
q-48 -72 -127.5 -108.5t-177.5 -36.5q-197 0 -302.5 141.5t-105.5 366.5q0 148 45 262t136.5 182t218.5 68q203 0 313 -166v145h127zM522 109q76 0 134.5 32.5t92.5 89.5t51 127t17 152t-17 152t-51 126.5t-92.5 88.5t-134.5 32q-101 0 -170.5 -56.5t-99 -144t-29.5 -198.5
t29.5 -199t99 -145t170.5 -57z" />
    <glyph glyph-name="gbreve.ss04" horiz-adv-x="1059" 
d="M526 1143q-132 0 -218.5 72t-86.5 198h127q0 -71 51.5 -117.5t126.5 -46.5q74 0 125 46t51 118h127q0 -127 -85.5 -198.5t-217.5 -71.5zM666 131q145 0 230 -70t85 -202q0 -145 -110 -230.5t-310 -85.5q-215 0 -345 87t-130 245q0 38 8 66l159 110q-58 27 -94 77t-38 122
q-3 118 96 190q-76 93 -76 219q0 156 109 255.5t274 99.5q155 0 259 -88l149 133l63 -82l-145 -126q55 -88 55 -196q0 -155 -108 -251.5t-273 -96.5q-134 0 -234 67q-53 -42 -50 -114q1 -67 50.5 -98t151.5 -31h224zM526 913q-117 0 -188.5 -72t-71.5 -184q0 -109 71 -178
t189 -69q116 0 186 68.5t70 178.5q0 112 -70 184t-186 72zM559 -354q135 0 217 49.5t82 154.5q0 173 -240 173h-237q-26 0 -47 4l-129 -127q-1 -6 0.5 -17t1.5 -14q16 -223 352 -223z" />
    <glyph glyph-name="gcommaaccent.ss01" horiz-adv-x="1108" 
d="M753 1394l-120 -294h-201l223 294h98zM932 0q0 -201 -106.5 -316.5t-303.5 -115.5q-123 0 -222 48t-159 144l99 74q96 -158 280 -158q139 0 213 89.5t74 234.5v145q-48 -72 -127.5 -108.5t-177.5 -36.5q-197 0 -302.5 141.5t-105.5 366.5q0 148 45 262t136.5 182
t218.5 68q203 0 313 -166v145h127zM522 109q76 0 134.5 32.5t92.5 89.5t51 127t17 152t-17 152t-51 126.5t-92.5 88.5t-134.5 32q-101 0 -170.5 -56.5t-99 -144t-29.5 -198.5t29.5 -199t99 -145t170.5 -57z" />
    <glyph glyph-name="gcommaaccent.ss04" horiz-adv-x="1059" 
d="M790 1419l-120 -294h-201l223 294h98zM666 131q145 0 230 -70t85 -202q0 -145 -110 -230.5t-310 -85.5q-215 0 -345 87t-130 245q0 38 8 66l159 110q-58 27 -94 77t-38 122q-3 118 96 190q-76 93 -76 219q0 156 109 255.5t274 99.5q155 0 259 -88l149 133l63 -82
l-145 -126q55 -88 55 -196q0 -155 -108 -251.5t-273 -96.5q-134 0 -234 67q-53 -42 -50 -114q1 -67 50.5 -98t151.5 -31h224zM526 913q-117 0 -188.5 -72t-71.5 -184q0 -109 71 -178t189 -69q116 0 186 68.5t70 178.5q0 112 -70 184t-186 72zM559 -354q135 0 217 49.5
t82 154.5q0 173 -240 173h-237q-26 0 -47 4l-129 -127q-1 -6 0.5 -17t1.5 -14q16 -223 352 -223z" />
    <glyph glyph-name="gdotaccent.ss01" horiz-adv-x="1108" 
d="M452 1229v184h152v-184h-152zM932 0q0 -201 -106.5 -316.5t-303.5 -115.5q-123 0 -222 48t-159 144l99 74q96 -158 280 -158q139 0 213 89.5t74 234.5v145q-48 -72 -127.5 -108.5t-177.5 -36.5q-197 0 -302.5 141.5t-105.5 366.5q0 148 45 262t136.5 182t218.5 68
q203 0 313 -166v145h127zM522 109q76 0 134.5 32.5t92.5 89.5t51 127t17 152t-17 152t-51 126.5t-92.5 88.5t-134.5 32q-101 0 -170.5 -56.5t-99 -144t-29.5 -198.5t29.5 -199t99 -145t170.5 -57z" />
    <glyph glyph-name="gdotaccent.ss04" horiz-adv-x="1059" 
d="M600 1413v-184h-152v184h152zM666 131q145 0 230 -70t85 -202q0 -145 -110 -230.5t-310 -85.5q-215 0 -345 87t-130 245q0 38 8 66l159 110q-58 27 -94 77t-38 122q-3 118 96 190q-76 93 -76 219q0 156 109 255.5t274 99.5q155 0 259 -88l149 133l63 -82l-145 -126
q55 -88 55 -196q0 -155 -108 -251.5t-273 -96.5q-134 0 -234 67q-53 -42 -50 -114q1 -67 50.5 -98t151.5 -31h224zM526 913q-117 0 -188.5 -72t-71.5 -184q0 -109 71 -178t189 -69q116 0 186 68.5t70 178.5q0 112 -70 184t-186 72zM559 -354q135 0 217 49.5t82 154.5
q0 173 -240 173h-237q-26 0 -47 4l-129 -127q-1 -6 0.5 -17t1.5 -14q16 -223 352 -223z" />
    <glyph glyph-name="i.loclTRK" horiz-adv-x="498" 
d="M170 1229v184h152v-184h-152zM174 0v999h150v-999h-150z" />
    <glyph glyph-name="f_t" horiz-adv-x="1182" 
d="M961 -20q-123 0 -175.5 73.5t-52.5 208.5v635h-393v-897h-123v897h-182v100h182v179q0 126 73 192t185 66q84 0 160 -37l-25 -99q-71 33 -127 33q-66 0 -104.5 -40.5t-38.5 -119.5v-172h393v220l129 131v-351h254v-102h-254v-647q0 -82 36 -126t95 -44q43 0 90 22v-104
q-41 -18 -122 -18z" />
    <glyph glyph-name="uni0414.loclRUS" horiz-adv-x="1442" 
d="M72 -307v409h123q102 195 145 367t43 455v489h823v-1311h111v-409h-131v307h-981v-307h-133zM326 102h747v1201h-557v-379q0 -195 -23 -341.5t-60.5 -248t-106.5 -232.5z" />
    <glyph glyph-name="uni0414.loclSRB" horiz-adv-x="1442" 
d="M72 -307v413h123q69 132 105.5 231.5t59.5 245.5t23 341v489h823v-1307h111v-413h-131v307h-981v-307h-133zM326 106h747v1197h-557v-379q0 -195 -23 -341t-60.5 -245.5t-106.5 -231.5z" />
    <glyph glyph-name="uni041B.loclRUS" horiz-adv-x="1475" 
d="M236 -20q-91 0 -160 38l59 132q47 -33 92 -33q48 0 84.5 41.5t57.5 128t34.5 169.5t18.5 220t6.5 221t1.5 227v289h825v-1413h-131v1303h-561v-168q0 -129 -1 -202t-4.5 -197t-12.5 -198.5t-23.5 -174t-39 -158.5t-58 -116t-81.5 -83t-107 -26z" />
    <glyph glyph-name="uni041B.loclSRB" horiz-adv-x="1475" 
d="M236 -20q-91 0 -160 38l59 132q47 -33 92 -33q48 0 84.5 41.5t57.5 128t34.5 169.5t18.5 220t6.5 221t1.5 227v289h825v-1413h-131v1303h-561v-168q0 -129 -1 -202t-4.5 -197t-12.5 -198.5t-23.5 -174t-39 -158.5t-58 -116t-81.5 -83t-107 -26z" />
    <glyph glyph-name="uni042E.loclRUS" horiz-adv-x="1864" 
d="M1104 -20q-147 0 -264 52t-191.5 144.5t-116.5 212.5t-49 262h-131v-651h-133v1413h133v-651h131q7 142 49 262t116.5 212.5t191.5 145t264 52.5q156 0 277.5 -57.5t196.5 -158t113 -230t38 -281.5q0 -120 -23.5 -227.5t-73.5 -199.5t-122.5 -158.5t-176.5 -104
t-229 -37.5zM1104 106q101 0 184.5 32.5t140.5 88.5t96 133t56.5 164t17.5 183t-17.5 182.5t-56.5 163.5t-96 133t-140.5 88.5t-184.5 32.5q-126 0 -223 -49t-155 -134t-87 -190.5t-29 -226.5q0 -96 17.5 -183t56.5 -164t95.5 -133t140 -88.5t184.5 -32.5z" />
    <glyph glyph-name="uni0431.loclSRB" horiz-adv-x="1124" 
d="M551 -16q-139 0 -245.5 70.5t-160 183t-53.5 245.5q0 73 17.5 143t53 135.5t97 117.5t141.5 79q-15 11 -44.5 32.5t-40.5 29.5t-33 25t-29.5 25t-22 23t-19 25.5t-11.5 25.5t-9 29.5t-2 32.5q0 102 78 165t213 63q174 0 357 -93l-35 -118q-175 106 -316 106
q-143 0 -143 -100q0 -63 57 -108.5t199 -102.5q94 -30 165 -69.5t130 -99t90 -146t31 -197.5q0 -232 -129 -377t-336 -145zM551 92q70 0 126.5 26t92 67t59.5 96t33.5 108.5t9.5 108.5q0 86 -25.5 155t-64.5 111.5t-90.5 72.5t-98 43t-93.5 17q-132 -47 -198 -145.5
t-66 -259.5q0 -192 86.5 -296t228.5 -104z" />
    <glyph glyph-name="uni0432.loclRUS" horiz-adv-x="1047" 
d="M172 0v999h418q142 0 215.5 -54.5t73.5 -182.5q0 -89 -46.5 -153t-148.5 -77q128 -9 193 -69.5t65 -155.5q0 -94 -18 -153t-62 -93.5t-107.5 -47.5t-164.5 -13h-418zM283 582h258q80 0 145.5 46t65.5 113q0 88 -49.5 125t-161.5 37h-258v-321zM283 109h258
q161 0 217.5 40t56.5 154q0 50 -21.5 84.5t-61.5 52t-85.5 24.5t-105.5 7h-258v-362z" />
    <glyph glyph-name="uni0432.loclSRB" horiz-adv-x="1047" 
d="M172 0v999h418q142 0 215.5 -54.5t73.5 -182.5q0 -89 -46.5 -153t-148.5 -77q128 -9 193 -69.5t65 -155.5q0 -94 -18 -153t-62 -93.5t-107.5 -47.5t-164.5 -13h-418zM283 582h258q80 0 145.5 46t65.5 113q0 88 -49.5 125t-161.5 37h-258v-321zM283 109h258
q161 0 217.5 40t56.5 154q0 50 -21.5 84.5t-61.5 52t-85.5 24.5t-105.5 7h-258v-362z" />
    <glyph glyph-name="uni0433.loclRUS" horiz-adv-x="756" 
d="M172 0v999h549v-102h-424v-897h-125z" />
    <glyph glyph-name="uni0433.loclSRB" horiz-adv-x="756" 
d="M172 0v999h549v-102h-424v-897h-125z" />
    <glyph glyph-name="uni0434.loclRUS" horiz-adv-x="1055" 
d="M37 -307v411h94q139 172 139 517v378h594v-895h82v-411h-125v307h-659v-307h-125zM274 104h465v793h-344v-279q0 -351 -121 -514z" />
    <glyph glyph-name="uni0434.loclSRB" horiz-adv-x="1055" 
d="M37 -307v411h94q139 172 139 517v378h594v-895h82v-411h-125v307h-659v-307h-125zM274 104h465v793h-344v-279q0 -351 -121 -514z" />
    <glyph glyph-name="uni0436.loclRUS" horiz-adv-x="1409" 
d="M55 0l160 430q24 66 63.5 114t88.5 48l-246 407h158l219 -374h143v374h127v-374h143l219 374h158l-246 -407q49 0 88.5 -48t63.5 -114l160 -430h-146l-123 360q-27 82 -65.5 117t-104.5 35h-147v-512h-127v512h-147q-65 0 -104 -35.5t-66 -116.5l-123 -360h-146z" />
    <glyph glyph-name="uni0436.loclSRB" horiz-adv-x="1409" 
d="M55 0l160 430q24 66 63.5 114t88.5 48l-246 407h158l219 -374h143v374h127v-374h143l219 374h158l-246 -407q49 0 88.5 -48t63.5 -114l160 -430h-146l-123 360q-27 82 -65.5 117t-104.5 35h-147v-512h-127v512h-147q-65 0 -104 -35.5t-66 -116.5l-123 -360h-146z" />
    <glyph glyph-name="uni0437.loclRUS" horiz-adv-x="922" 
d="M434 -20q-57 0 -104.5 9t-81 21.5t-71 39t-60.5 46t-64 58.5l88 73q109 -149 277 -149q278 0 278 196q0 40 -14 70.5t-37.5 48.5t-58 29.5t-70.5 15.5t-80 4h-133v109h164q82 22 127 65.5t45 122.5q0 81 -46 127.5t-165 46.5q-89 0 -162.5 -44t-105.5 -109l-90 51
q42 87 140 144t218 57q338 0 338 -275q0 -209 -174 -235q104 -7 167.5 -73.5t63.5 -149.5q0 -141 -100 -220t-289 -79z" />
    <glyph glyph-name="uni0437.loclSRB" horiz-adv-x="922" 
d="M434 -20q-57 0 -104.5 9t-81 21.5t-71 39t-60.5 46t-64 58.5l88 73q109 -149 277 -149q278 0 278 196q0 40 -14 70.5t-37.5 48.5t-58 29.5t-70.5 15.5t-80 4h-133v109h164q82 22 127 65.5t45 122.5q0 81 -46 127.5t-165 46.5q-89 0 -162.5 -44t-105.5 -109l-90 51
q42 87 140 144t218 57q338 0 338 -275q0 -209 -174 -235q104 -7 167.5 -73.5t63.5 -149.5q0 -141 -100 -220t-289 -79z" />
    <glyph glyph-name="uni0438.loclRUS" horiz-adv-x="1128" 
d="M174 0v999h125v-708q0 -17 -10 -115h10l512 823h143v-999h-123v709q0 43 11 114h-11l-512 -823h-145z" />
    <glyph glyph-name="uni0438.loclSRB" horiz-adv-x="1128" 
d="M174 0v999h125v-708q0 -17 -10 -115h10l512 823h143v-999h-123v709q0 43 11 114h-11l-512 -823h-145z" />
    <glyph glyph-name="uni0439.loclRUS" horiz-adv-x="1128" 
d="M547 1143q-123 0 -211 72t-88 198h110q0 -73 55.5 -123.5t133.5 -50.5q76 0 132 50t56 124h111q0 -123 -87 -196.5t-212 -73.5zM174 0v999h125v-708q0 -17 -10 -115h10l512 823h143v-999h-123v709q0 43 11 114h-11l-512 -823h-145z" />
    <glyph glyph-name="uni0439.loclSRB" horiz-adv-x="1128" 
d="M547 1143q-123 0 -211 72t-88 198h110q0 -73 55.5 -123.5t133.5 -50.5q76 0 132 50t56 124h111q0 -123 -87 -196.5t-212 -73.5zM174 0v999h125v-708q0 -17 -10 -115h10l512 823h143v-999h-123v709q0 43 11 114h-11l-512 -823h-145z" />
    <glyph glyph-name="uni045D.loclRUS" horiz-adv-x="1128" 
d="M518 1130l-225 281h149l209 -281h-133zM174 0v999h125v-708q0 -17 -10 -115h10l512 823h143v-999h-123v709q0 43 11 114h-11l-512 -823h-145z" />
    <glyph glyph-name="uni045D.loclSRB" horiz-adv-x="1128" 
d="M518 1130l-225 281h149l209 -281h-133zM174 0v999h125v-708q0 -17 -10 -115h10l512 823h143v-999h-123v709q0 43 11 114h-11l-512 -823h-145z" />
    <glyph glyph-name="uni043A.loclRUS" horiz-adv-x="944" 
d="M174 0v999h127v-374h143l220 374h157l-246 -407q49 0 87 -47t65 -115l160 -430h-146l-123 360q-27 82 -65.5 117t-103.5 35h-148v-512h-127z" />
    <glyph glyph-name="uni043A.loclSRB" horiz-adv-x="944" 
d="M174 0v999h127v-374h143l220 374h157l-246 -407q49 0 87 -47t65 -115l160 -430h-146l-123 360q-27 82 -65.5 117t-103.5 35h-148v-512h-127z" />
    <glyph glyph-name="uni043B.loclRUS" horiz-adv-x="1051" 
d="M193 -23q-39 0 -87.5 13t-76.5 28l43 99q3 -1 15.5 -8.5t22 -12.5t23.5 -9.5t25 -4.5q123 0 123 539v378h596v-999h-125v897h-349v-279q0 -168 -14 -291t-34.5 -189t-51 -104t-55 -47.5t-55.5 -9.5z" />
    <glyph glyph-name="uni043B.loclSRB" horiz-adv-x="1051" 
d="M193 -23q-39 0 -87.5 13t-76.5 28l43 99q3 -1 15.5 -8.5t22 -12.5t23.5 -9.5t25 -4.5q123 0 123 539v378h596v-999h-125v897h-349v-279q0 -168 -14 -291t-34.5 -189t-51 -104t-55 -47.5t-55.5 -9.5z" />
    <glyph glyph-name="uni043F.loclRUS" horiz-adv-x="1128" 
d="M174 0v999h780v-999h-123v897h-532v-897h-125z" />
    <glyph glyph-name="uni043F.loclSRB" horiz-adv-x="1128" 
d="M174 0v999h780v-999h-123v897h-532v-897h-125z" />
    <glyph glyph-name="uni0442.loclRUS" horiz-adv-x="850" 
d="M362 0v897h-327v102h780v-102h-330v-897h-123z" />
    <glyph glyph-name="uni0442.loclSRB" horiz-adv-x="850" 
d="M362 0v897h-327v102h780v-102h-330v-897h-123z" />
    <glyph glyph-name="uni0446.loclRUS" horiz-adv-x="1157" 
d="M963 -307v307h-789v999h125v-895h532v895h123v-895h131v-411h-122z" />
    <glyph glyph-name="uni0446.loclSRB" horiz-adv-x="1157" 
d="M963 -307v307h-789v999h125v-895h532v895h123v-895h131v-411h-122z" />
    <glyph glyph-name="uni0448.loclRUS" horiz-adv-x="1509" 
d="M174 0v999h125v-895h395v895h123v-895h395v895h123v-999h-1161z" />
    <glyph glyph-name="uni0448.loclSRB" horiz-adv-x="1509" 
d="M174 0v999h125v-895h395v895h123v-895h395v895h123v-999h-1161z" />
    <glyph glyph-name="uni0449.loclRUS" horiz-adv-x="1538" 
d="M1343 -307v307h-1169v999h125v-895h395v895h123v-895h395v895h123v-895h131v-411h-123z" />
    <glyph glyph-name="uni0449.loclSRB" horiz-adv-x="1538" 
d="M1343 -307v307h-1169v999h125v-895h395v895h123v-895h395v895h123v-895h131v-411h-123z" />
    <glyph glyph-name="uni044C.loclRUS" horiz-adv-x="977" 
d="M174 0v999h125v-344h197q67 0 118 -7t101.5 -29t83.5 -58t53 -98t20 -146q0 -144 -108.5 -230.5t-267.5 -86.5h-322zM299 100h197q233 0 233 217q0 70 -18 118.5t-51.5 73.5t-73 35.5t-90.5 10.5h-197v-455z" />
    <glyph glyph-name="uni044A.loclRUS" horiz-adv-x="1092" 
d="M289 0v897h-254v102h377v-344h196q68 0 119.5 -7t102.5 -29t84 -58t53 -98t20 -146q0 -144 -109 -230.5t-270 -86.5h-319zM412 100h196q234 0 234 217q0 70 -18 118.5t-52 73.5t-73.5 35.5t-90.5 10.5h-196v-455z" />
    <glyph glyph-name="uni044B.loclRUS" horiz-adv-x="1356" 
d="M174 0v999h125v-344h197q67 0 118 -7t101.5 -29t83.5 -58t53 -98t20 -146q0 -144 -108.5 -230.5t-267.5 -86.5h-322zM1053 0v999h129v-999h-129zM299 100h197q233 0 233 217q0 70 -18 118.5t-51.5 73.5t-73 35.5t-90.5 10.5h-197v-455z" />
    <glyph glyph-name="uni044E.loclRUS" horiz-adv-x="1403" 
d="M848 -20q-134 0 -240.5 69.5t-164 187.5t-56.5 261h-88v-498h-125v999h125v-399h94q32 180 155 296t300 116q133 0 239 -69.5t164 -187.5t58 -259q0 -142 -58 -259.5t-164 -187t-239 -69.5zM848 92q84 0 147 33t99.5 90.5t54.5 128t18 152.5t-18 152.5t-54.5 127.5
t-99.5 90t-147 33t-147.5 -33t-100 -90t-54.5 -127.5t-18 -152.5t18 -152.5t54.5 -128t100 -90.5t147.5 -33z" />
    <glyph glyph-name="strokecy" horiz-adv-x="1135" 
d="M209 336v110h717v-110h-717z" />
    </font>
</defs>
</svg>
